Subcategories

Ry Cooder & David Lindley - Two Long Riders: Montreux Broadcast 1990 (2017)

Posted By: delpotro
Ry Cooder & David Lindley - Two Long Riders: Montreux Broadcast 1990 (2017)

Ry Cooder & David Lindley - Two Long Riders: Montreux Broadcast 1990 (2017)
XLD Rip | FLAC (tracks+log+.cue) - 479 Mb | MP3 CBR 320 kbps - 188 Mb | 01:22:01
Country-Blues, Roots Rock, Blues Rock | Label: Good Ship Funke | Bootleg

From A Live FM Broadcast Recorded At The Montreux Jazz Festival, Switzerland, 9th July 1990.
Tracklist:
1. Bon Temps Rouler (05:00)
2. Crazy 'Bout An Automobile (05:31)
3. Jesus On The Mainline (07:36)
4. Paris, Texas/Vigilante Man (10:35)
5. Across The Borderline (06:46)
6. It's All Over Now (03:55)
7. Coot From Tennessee (05:10)
8. Mercury Blues (05:26)
9. The Long Riders (05:20)
10. Jesse James (04:14)
11. Wooly Bully (08:16)
12. Oh Death (07:17)
13. Goodnight Irene (06:54)

X Lossless Decoder version 20191004 (152.0)

XLD extraction logfile from 2019-12-28 15:48:05 -0800

Ry Cooder & David Lindley / Two Long Riders

Used drive : PIONEER BD-RW BDR-XD05 (revision 3.10)
Media type : Pressed CD

Ripper mode : XLD Secure Ripper
Disable audio cache : OK for the drive with a cache less than 1375KiB
Make use of C2 pointers : NO
Read offset correction : 667
Max retry count : 100
Gap status : Analyzed, Appended (except HTOA)

TOC of the extracted CD
Track | Start | Length | Start sector | End sector
––––––––––––––––––––––––––––-
1 | 00:00:00 | 05:00:45 | 0 | 22544
2 | 05:00:45 | 05:30:52 | 22545 | 47346
3 | 10:31:22 | 07:35:68 | 47347 | 81539
4 | 18:07:15 | 10:34:65 | 81540 | 129154
5 | 28:42:05 | 06:46:36 | 129155 | 159640
6 | 35:28:41 | 03:54:44 | 159641 | 177234
7 | 39:23:10 | 05:09:68 | 177235 | 200477
8 | 44:33:03 | 05:25:62 | 200478 | 224914
9 | 49:58:65 | 05:19:62 | 224915 | 248901
10 | 55:18:52 | 04:13:49 | 248902 | 267925
11 | 59:32:26 | 08:15:70 | 267926 | 305120
12 | 67:48:21 | 07:17:27 | 305121 | 337922
13 | 75:05:48 | 06:55:27 | 337923 | 369074

AccurateRip Summary (DiscID: 00273e1b-0187493c-9613390d)
Track 01 : OK (v2, confidence 5/5)
Track 02 : OK (v2, confidence 5/5)
Track 03 : OK (v2, confidence 5/5)
Track 04 : OK (v2, confidence 5/5)
Track 05 : OK (v2, confidence 5/5)
Track 06 : OK (v2, confidence 5/5)
Track 07 : OK (v2, confidence 5/5)
Track 08 : OK (v2, confidence 5/5)
Track 09 : OK (v2, confidence 5/5)
Track 10 : OK (v2, confidence 5/5)
Track 11 : OK (v2, confidence 5/5)
Track 12 : OK (v2, confidence 5/5)
Track 13 : OK (v2, confidence 5/5)
->All tracks accurately ripped.

All Tracks
Album gain : -2.02 dB
Peak : 0.972290
Statistics
Read error : 0
Jitter error (maybe fixed) : 0
Retry sector count : 0
Damaged sector count : 0

Track 01
Filename : /Volumes/Hollywood and Vine/Rips/Ry Cooder & David Lindley - Two Long Riders (2017) [FLAC]/01 Bon Temps Rouler.flac
Pre-gap length : 00:02:00

Track gain : -3.86 dB
Peak : 0.848145
CRC32 hash (test run) : BD37D06E
CRC32 hash : BD37D06E
CRC32 hash (skip zero) : 95626E9E
AccurateRip v1 signature : DDA61E59
AccurateRip v2 signature : 8CBB2979
->Accurately ripped (v2, confidence 5/5)
Statistics
Read error : 0
Jitter error (maybe fixed) : 0
Retry sector count : 0
Damaged sector count : 0

Track 02
Filename : /Volumes/Hollywood and Vine/Rips/Ry Cooder & David Lindley - Two Long Riders (2017) [FLAC]/02 Crazy 'Bout an Automobile.flac

Track gain : -4.76 dB
Peak : 0.972290
CRC32 hash (test run) : 1EED5F1C
CRC32 hash : 1EED5F1C
CRC32 hash (skip zero) : AAB61EBC
AccurateRip v1 signature : 03ED1A93
AccurateRip v2 signature : 4B912481
->Accurately ripped (v2, confidence 5/5)
Statistics
Read error : 0
Jitter error (maybe fixed) : 0
Retry sector count : 0
Damaged sector count : 0

Track 03
Filename : /Volumes/Hollywood and Vine/Rips/Ry Cooder & David Lindley - Two Long Riders (2017) [FLAC]/03 Jesus on the Mainline.flac

Track gain : -4.53 dB
Peak : 0.903656
CRC32 hash (test run) : EEFD5923
CRC32 hash : EEFD5923
CRC32 hash (skip zero) : 60FF27BD
AccurateRip v1 signature : DECA291E
AccurateRip v2 signature : F7EB5419
->Accurately ripped (v2, confidence 5/5)
Statistics
Read error : 0
Jitter error (maybe fixed) : 0
Retry sector count : 0
Damaged sector count : 0

Track 04
Filename : /Volumes/Hollywood and Vine/Rips/Ry Cooder & David Lindley - Two Long Riders (2017) [FLAC]/04 Paris, Texas/Vigilante Man.flac

Track gain : 0.54 dB
Peak : 0.758514
CRC32 hash (test run) : 0F9FD3CF
CRC32 hash : 0F9FD3CF
CRC32 hash (skip zero) : 8483A1B6
AccurateRip v1 signature : 5BEE0F04
AccurateRip v2 signature : 632B324E
->Accurately ripped (v2, confidence 5/5)
Statistics
Read error : 0
Jitter error (maybe fixed) : 0
Retry sector count : 0
Damaged sector count : 0

Track 05
Filename : /Volumes/Hollywood and Vine/Rips/Ry Cooder & David Lindley - Two Long Riders (2017) [FLAC]/05 Across the Borderline.flac

Track gain : 0.99 dB
Peak : 0.744385
CRC32 hash (test run) : 79EE4550
CRC32 hash : 79EE4550
CRC32 hash (skip zero) : 71CA1656
AccurateRip v1 signature : 0862943D
AccurateRip v2 signature : 35015EF1
->Accurately ripped (v2, confidence 5/5)
Statistics
Read error : 0
Jitter error (maybe fixed) : 0
Retry sector count : 0
Damaged sector count : 0

Track 06
Filename : /Volumes/Hollywood and Vine/Rips/Ry Cooder & David Lindley - Two Long Riders (2017) [FLAC]/06 It's All Over Now.flac

Track gain : -0.62 dB
Peak : 0.742218
CRC32 hash (test run) : 5911445F
CRC32 hash : 5911445F
CRC32 hash (skip zero) : 9B94D44C
AccurateRip v1 signature : 5D8F362B
AccurateRip v2 signature : 45B63EE7
->Accurately ripped (v2, confidence 5/5)
Statistics
Read error : 0
Jitter error (maybe fixed) : 0
Retry sector count : 0
Damaged sector count : 0

Track 07
Filename : /Volumes/Hollywood and Vine/Rips/Ry Cooder & David Lindley - Two Long Riders (2017) [FLAC]/07 Coot from Tennessee.flac

Track gain : -2.78 dB
Peak : 0.852600
CRC32 hash (test run) : 4C0140D1
CRC32 hash : 4C0140D1
CRC32 hash (skip zero) : 9FAC589F
AccurateRip v1 signature : 453D3329
AccurateRip v2 signature : 7BCCBDC5
->Accurately ripped (v2, confidence 5/5)
Statistics
Read error : 0
Jitter error (maybe fixed) : 0
Retry sector count : 0
Damaged sector count : 0

Track 08
Filename : /Volumes/Hollywood and Vine/Rips/Ry Cooder & David Lindley - Two Long Riders (2017) [FLAC]/08 Mercury Blues.flac

Track gain : -2.97 dB
Peak : 0.860504
CRC32 hash (test run) : DFA554D9
CRC32 hash : DFA554D9
CRC32 hash (skip zero) : 04F6DD3D
AccurateRip v1 signature : 41CEEAE9
AccurateRip v2 signature : 487223C9
->Accurately ripped (v2, confidence 5/5)
Statistics
Read error : 0
Jitter error (maybe fixed) : 0
Retry sector count : 0
Damaged sector count : 0

Track 09
Filename : /Volumes/Hollywood and Vine/Rips/Ry Cooder & David Lindley - Two Long Riders (2017) [FLAC]/09 The Long Riders.flac

Track gain : 2.59 dB
Peak : 0.693665
CRC32 hash (test run) : CEA42E86
CRC32 hash : CEA42E86
CRC32 hash (skip zero) : 1FB293DE
AccurateRip v1 signature : B492C603
AccurateRip v2 signature : 591E695F
->Accurately ripped (v2, confidence 5/5)
Statistics
Read error : 0
Jitter error (maybe fixed) : 0
Retry sector count : 0
Damaged sector count : 0

Track 10
Filename : /Volumes/Hollywood and Vine/Rips/Ry Cooder & David Lindley - Two Long Riders (2017) [FLAC]/10 Jesse James.flac

Track gain : -1.36 dB
Peak : 0.774536
CRC32 hash (test run) : 338181D2
CRC32 hash : 338181D2
CRC32 hash (skip zero) : 251EC381
AccurateRip v1 signature : 8F09A94E
AccurateRip v2 signature : B8EC0040
->Accurately ripped (v2, confidence 5/5)
Statistics
Read error : 0
Jitter error (maybe fixed) : 0
Retry sector count : 0
Damaged sector count : 0

Track 11
Filename : /Volumes/Hollywood and Vine/Rips/Ry Cooder & David Lindley - Two Long Riders (2017) [FLAC]/11 Wooly Bully.flac

Track gain : -0.25 dB
Peak : 0.809357
CRC32 hash (test run) : 15D132FE
CRC32 hash : 15D132FE
CRC32 hash (skip zero) : 07C147E2
AccurateRip v1 signature : 4D5065B8
AccurateRip v2 signature : 2BB24EAD
->Accurately ripped (v2, confidence 5/5)
Statistics
Read error : 0
Jitter error (maybe fixed) : 0
Retry sector count : 0
Damaged sector count : 0

Track 12
Filename : /Volumes/Hollywood and Vine/Rips/Ry Cooder & David Lindley - Two Long Riders (2017) [FLAC]/12 Oh Death.flac

Track gain : -0.37 dB
Peak : 0.647919
CRC32 hash (test run) : DB56EFF4
CRC32 hash : DB56EFF4
CRC32 hash (skip zero) : 7F30D0A0
AccurateRip v1 signature : 32FC7B18
AccurateRip v2 signature : 15B5E3CB
->Accurately ripped (v2, confidence 5/5)
Statistics
Read error : 0
Jitter error (maybe fixed) : 0
Retry sector count : 0
Damaged sector count : 0

Track 13
Filename : /Volumes/Hollywood and Vine/Rips/Ry Cooder & David Lindley - Two Long Riders (2017) [FLAC]/13 Goodnight Irene.flac

Track gain : -1.41 dB
Peak : 0.792603
CRC32 hash (test run) : 8B3EECB6
CRC32 hash : 8B3EECB6
CRC32 hash (skip zero) : E7CAF50C
AccurateRip v1 signature : 4116F38A
AccurateRip v2 signature : CE570503
->Accurately ripped (v2, confidence 5/5)
Statistics
Read error : 0
Jitter error (maybe fixed) : 0
Retry sector count : 0
Damaged sector count : 0

No errors occurred

End of status report

––-BEGIN XLD SIGNATURE––-
XZheDnCZ9tN3l6ZjgTWYEcfWj9HAc7HBJUcXfIty6gC2evfc8W3WkvnSFW_MCejDtsLv1yJcY4Awyzsa_TvYNq_sYdwuAxqIc2ej7ae
––-END XLD SIGNATURE––-

Thanks to the Original ripper !