Subcategories

Sandy Denny - The Notes and the Words: A Collection of Demos and Rarities (2012) {4CD Set Island 371 246-9 rec 1966-1978}

Posted By: ruskaval
Sandy Denny - The Notes and the Words: A Collection of Demos and Rarities (2012) {4CD Set Island 371 246-9 rec 1966-1978}

Sandy Denny - The Notes and the Words: A Collection of Demos and Rarities (2012) {4CD Set Island 371 246-9 rec 1966-1978}
EAC rip (secure mode) | FLAC (tracks)+CUE+LOG -> 1.29 Gb | MP3 @320 -> 700 Mb
Full Artwork @ 300 dpi (png) -> 383 Mb | 5% repair rar
© 1966-78, 2012 Universal Island | 371 246-9
Folk / Acoustic / British Folk / Folk Rock

2010's mammoth, highly collectible and very limited, 19-disc Sandy Denny box set was truly a thing to behold, presenting the entirety of her career from studio to stage to front porch. It was a completist's dream, but it came with an exceptionally high price tag, which makes the appearance of 2011's Notes and the Words: A Collection of Demos and Rarities a real gift for fans, especially those who already own the complete studio recordings, whether solo or with Fotheringay, Strawbs, or Fairport Convention. The handsome, limited-edition four-disc box skims the cream from the top of the myriad rarities, BBC sessions, demos, and outtakes that made the previous collection so remarkable (an intimate bedroom recording of Jackson C. Frank's "Blues Run the Game"; an early demo of Like an Old Fashioned Waltz's "Carnival" with previously unheard melodies and lyrics; a blistering alternate studio take of a Dave Swarbrick-less "Sailor's Life," and alternate versions of Fairport classics like "Matty Groves," "Come All Ye," and "Fotheringay"), resulting in a wonderful window into one of English folk music's most magnificent voices.
Sandy Denny - The Notes and the Words: A Collection of Demos and Rarities (2012) {4CD Set Island 371 246-9 rec 1966-1978}

What a wonderful collection of Sandy Denny songs. I love every song. What could have driven it over the top would be to include other favorites, especially if they exist in other recordings other than album versions, especially when she was with the Strawbs, especially Sail away to the Sea & Strawberry Picking and Tam Lin & Crazy Man Michael from Liege & Leaf. But all in all this is the ultimate Sandy collection since the Sandy Denny 6 record set, which I also have. True story, some high school friends & I went to See Sandy & Fairport at the Trenton War Memorial Theater in 1974 (not sure of the year). I was 17 at the time & drove us in my Mom's car. After the concert we said it would be so neat to meet them! So we waited outside the theater and sure enough there was Sandy & the band, Sandy carrying a full bouquet of roses. We were so awestruck! My friend, Kevin said can we buy you a cup of coffee? They said they had a flight to catch. WOW! Sandy Denny has the voice of an angel. And members of Fairport are awesome individually and together. I will never forget saying hello to Sandy Denny.
Sandy Denny - The Notes and the Words: A Collection of Demos and Rarities (2012) {4CD Set Island 371 246-9 rec 1966-1978}


sandydennyofficial.com INFO

Track Listing:

Disc 1


Early Home Demos

1 Blues Run the Game (home demo) (Jackson C. Frank) – 3:26
2 Soho (home demo) (Bert Jansch) – 3:08
3 It Ain’t Me Babe (home demo) (Bob Dylan) – 3:44
4 East Virginia (home demo) (Traditional) – 3:23
5 Geordie (home demo) (Traditional) – 3:42
6 In Memory (The Tender Years) (home demo) – 2:31
7 I Love My True Love (home demo) – 2:25
8 Ethusel (home demo) – 4:51
9 Carnival (home demo) – 3:15
10 They Don’t Seem to Know You (home demo) – 2:23
11 Gerrard Street (home demo) – 1:49
12 Seven Virgins (home demo) (Traditional) – 2:54
13 A Little Bit of Rain (home demo) (Fred Neil) – 2:30
14 Go Your Own Way My Love (home demo) (Anne Briggs) – 4:09
15 Cradle Song (home demo) (James Wedderburn, John Wedderburn, Robert Wedderburn) – 2:28
16 Who Knows Where the Time Goes? (home demo 2) – 3:36
17 Motherless Children (home demo) – 2:31

Alex Campbell and his friends

18 You Never Wanted Me (Jackson C. Frank) – 3:21

It's Sandy Denny

19 Milk and Honey (re-recorded version) (Jackson C. Frank) – 4:26

Sandy Solo

20 She Moves Through the Fair (acoustic version) (Padraic Colum) – 4:11
21 Fotheringay (acoustic version) – 0:00
22 Now and Then (demo) – 3:48
23 Autopsy (demo) – 4:25


Disc 2

Swedish Fly Girls - Film Soundtrack

1 Are the Judges Sane? (Jack O’Connell, Mose Henry) – 3:09

Fairport Convention

2 Mr. Lacey (Sandy Denny lead vocal version) (Ashley Hutchings) – 2:57
3 The Ballad of Easy Rider (Bob Dylan, Roger McGuinn) – 4:55
4 A Sailor’s Life (original version) – 11:13
5 Come All Ye (take 1) – 5:00
6 Matty Groves (take 1) (Traditional) – 10:19

Fotheringay

7 The Way I Feel (original version) (Gordon Lightfoot) – 4:02
8 The Sea (demo) – 5:20
9 Winter Winds (demo) – 2:14
10 The Pond and the Stream (demo) – 3:06

Fotheringay 2

11 John the Gun (feat. Sam Donahue) – 5:07

The North Star Grassman and the Ravens

12 Late November (Joe Boyd mix) – 4:20
13 Next Time Around (demo) – 5:04
14 Lord Bateman (demo) (Traditional) – 6:14

Sandy Denny - The Notes and the Words: A Collection of Demos and Rarities (2012) {4CD Set Island 371 246-9 rec 1966-1978}


Disc 3

The North Star Grassman and the Ravens

1 The Optimist (demo) – 4:31
2 Wretched Wilbur (demo) – 2:23
3 Crazy Lady Blues (demo) – 3:23
4 The North Star Grassman and the Ravens (live) – 2:31
5 Blackwaterside (alternate take) (Traditional) – 4:12

Sandy

6 It’ll Take a Long Time (demo) – 5:13
7 For Nobody to Hear (original version) – 4:24
8 The Quiet Joys of Brotherhood (demo) (Richard Fariсa, Traditional) – 2:35
9 The Lady (demo 2) – 3:01
10 Bushes and Briars (demo) – 3:33
11 The Music Weaver (demo) – 3:04
12 No End (piano version, alternate take) – 14:14

Like an Old Fashioned Waltz

13 Solo (alternate version) – 4:30
14 Whispering Grass (demo) (Doris Fisher, Fred Fisher) – 4:08
15 Friends (alternate take without strings) – 3:31
16 Dark the Night (alternate take) – 5:34
17 Until the Real Thing Comes Along (demo) (L.E. Freeman, Sammy Cahn, Saul Chaplin) – 3:13


Disc 4

Home Demos

1 The King and Queen of England (home demo 2) – 3:52
2 After Halloween (home demo) – 3:02
3 Take Away the Load (home demo) – 1:26
4 Stranger to Himself (home demo) – 2:17
5 By the Time It Gets Dark (home demo) – 3:14

Fairport Convention
Live at the L.A. Troubadour 1974

6 Down in the Flood (live) (Bob Dylan) – 3:14
7 Knockin’ on Heaven’s Door (live) (Bob Dylan) – 4:16
8 Like an Old Fashioned Waltz (live) – 4:11

Rising for the Moon

9 Dawn (alternate version) (Jerry Donahue, Sandy Denny) – 3:25
10 One More Chance (take 1) – 3:29
11 What Is True? (studio demo) – 3:12

Rendezvous

12 No More Sad Refrains (live) – 3:13
13 I Wish I Was a Fool for You (For Shame of Doing Wrong) (original version) (Richard Thompson) – 4:19
14 Gold Dust (alternate version) – 4:18
15 Candle in the Wind (acoustic version) (Bernie Taupin, Elton John) – 4:18
16 One Way Donkey Ride (acoustic version) – 3:23
17 I’m a Dreamer (alternate take without strings) – 4:24
18 Still Waters Run Deep (acoustic version) – 2:34
19 Full Moon (alternate version feat. Swarb) – 4:18
20 Moments (acoustic version) (Bryn Haworth) – 3:27
21 Makes Me Think of You (home demo) – 2:47

Exact Audio Copy V1.0 beta 3 from 29. August 2011

EAC extraction logfile from 6. January 2013, 12:49

Sandy Denny / The Notes And The Words

Used drive : HL-DT-STDVDRAM GH22NS50 Adapter: 1 ID: 0

Read mode : Secure
Utilize accurate stream : Yes
Defeat audio cache : Yes
Make use of C2 pointers : No

Read offset correction : 667
Overread into Lead-In and Lead-Out : No
Fill up missing offset samples with silence : Yes
Delete leading and trailing silent blocks : No
Null samples used in CRC calculations : Yes
Used interface : Native Win32 interface for Win NT & 2000
Gap handling : Appended to previous track

Used output format : User Defined Encoder
Selected bitrate : 768 kBit/s
Quality : High
Add ID3 tag : No
Command line compressor : C:\Program Files (x86)\Exact Audio Copy\FLAC\FLAC.EXE
Additional command line options : -8 -V -T "ARTIST=%artist%" -T "TITLE=%title%" -T "ALBUM=%albumtitle%" -T "DATE=%year%" -T "TRACKNUMBER=%tracknr%" -T "TOTALTRACKS=%numtracks%" -T "GENRE=%genre%" -T "ALBUMARTIST=%albumartist%" -T "ALBUM ARTIST=%albumartist%" -T "COMMENT=EAC Secure Mode, Test & Copy, AccurateRip, FLAC -8" %source%


TOC of the extracted CD

Track | Start | Length | Start sector | End sector
––––––––––––––––––––––––––––-
1 | 0:00.00 | 3:29.07 | 0 | 15681
2 | 3:29.07 | 3:13.35 | 15682 | 30191
3 | 6:42.42 | 3:40.45 | 30192 | 46736
4 | 10:23.12 | 3:24.15 | 46737 | 62051
5 | 13:47.27 | 3:23.69 | 62052 | 77345
6 | 17:11.21 | 2:32.73 | 77346 | 88818
7 | 19:44.19 | 2:30.41 | 88819 | 100109
8 | 22:14.60 | 4:51.62 | 100110 | 121996
9 | 27:06.47 | 3:10.51 | 121997 | 136297
10 | 30:17.23 | 2:23.49 | 136298 | 147071
11 | 32:40.72 | 1:59.41 | 147072 | 156037
12 | 34:40.38 | 2:56.28 | 156038 | 169265
13 | 37:36.66 | 2:23.57 | 169266 | 180047
14 | 40:00.48 | 4:01.15 | 180048 | 198137
15 | 44:01.63 | 2:24.06 | 198138 | 208943
16 | 46:25.69 | 4:31.41 | 208944 | 229309
17 | 50:57.35 | 2:31.35 | 229310 | 240669
18 | 53:28.70 | 3:21.72 | 240670 | 255816
19 | 56:50.67 | 4:30.43 | 255817 | 276109
20 | 61:21.35 | 5:02.69 | 276110 | 298828
21 | 66:24.29 | 3:06.47 | 298829 | 312825
22 | 69:31.01 | 3:47.68 | 312826 | 329918
23 | 73:18.69 | 4:27.28 | 329919 | 349971


Track 1

Filename C:\DISCOS\Sandy Denny - The Notes And The Words -A Collection Of Demos And Rarities (2012) [FLAC] (4 CDBOX)\Disc 1of4\01 - Blues Run The Game.wav

Pre-gap length 0:00:02.00

Peak level 99.0 %
Extraction speed 1.1 X
Track quality 100.0 %
Test CRC 29D1EEAD
Copy CRC 29D1EEAD
Track not present in AccurateRip database
Copy OK

Track 2

Filename C:\DISCOS\Sandy Denny - The Notes And The Words -A Collection Of Demos And Rarities (2012) [FLAC] (4 CDBOX)\Disc 1of4\02 - Soho.wav

Peak level 99.8 %
Extraction speed 1.2 X
Track quality 100.0 %
Test CRC 9F69CC89
Copy CRC 9F69CC89
Track not present in AccurateRip database
Copy OK

Track 3

Filename C:\DISCOS\Sandy Denny - The Notes And The Words -A Collection Of Demos And Rarities (2012) [FLAC] (4 CDBOX)\Disc 1of4\03 - It Ain't Me Babe.wav

Peak level 87.8 %
Extraction speed 1.3 X
Track quality 100.0 %
Test CRC 93C0F52E
Copy CRC 93C0F52E
Track not present in AccurateRip database
Copy OK

Track 4

Filename C:\DISCOS\Sandy Denny - The Notes And The Words -A Collection Of Demos And Rarities (2012) [FLAC] (4 CDBOX)\Disc 1of4\04 - East Virginia.wav

Peak level 82.1 %
Extraction speed 1.2 X
Track quality 99.9 %
Test CRC 89D8B736
Copy CRC 89D8B736
Track not present in AccurateRip database
Copy OK

Track 5

Filename C:\DISCOS\Sandy Denny - The Notes And The Words -A Collection Of Demos And Rarities (2012) [FLAC] (4 CDBOX)\Disc 1of4\05 - Geordie.wav

Peak level 86.9 %
Extraction speed 1.5 X
Track quality 100.0 %
Test CRC 2E8DE969
Copy CRC 2E8DE969
Track not present in AccurateRip database
Copy OK

Track 6

Filename C:\DISCOS\Sandy Denny - The Notes And The Words -A Collection Of Demos And Rarities (2012) [FLAC] (4 CDBOX)\Disc 1of4\06 - In Memory (The Tender Years).wav

Pre-gap length 0:00:00.58

Peak level 84.9 %
Extraction speed 1.4 X
Track quality 100.0 %
Test CRC 13F59FB4
Copy CRC 13F59FB4
Track not present in AccurateRip database
Copy OK

Track 7

Filename C:\DISCOS\Sandy Denny - The Notes And The Words -A Collection Of Demos And Rarities (2012) [FLAC] (4 CDBOX)\Disc 1of4\07 - I Love My True Love.wav

Pre-gap length 0:00:00.58

Peak level 46.2 %
Extraction speed 1.5 X
Track quality 100.0 %
Test CRC 7A973399
Copy CRC 7A973399
Track not present in AccurateRip database
Copy OK

Track 8

Filename C:\DISCOS\Sandy Denny - The Notes And The Words -A Collection Of Demos And Rarities (2012) [FLAC] (4 CDBOX)\Disc 1of4\08 - Ethusel.wav

Pre-gap length 0:00:00.58

Peak level 47.6 %
Extraction speed 1.5 X
Track quality 99.9 %
Test CRC E79A75D9
Copy CRC E79A75D9
Track not present in AccurateRip database
Copy OK

Track 9

Filename C:\DISCOS\Sandy Denny - The Notes And The Words -A Collection Of Demos And Rarities (2012) [FLAC] (4 CDBOX)\Disc 1of4\09 - Carnival.wav

Pre-gap length 0:00:00.58

Peak level 64.3 %
Extraction speed 1.7 X
Track quality 100.0 %
Test CRC 2104F1DC
Copy CRC 2104F1DC
Track not present in AccurateRip database
Copy OK

Track 10

Filename C:\DISCOS\Sandy Denny - The Notes And The Words -A Collection Of Demos And Rarities (2012) [FLAC] (4 CDBOX)\Disc 1of4\10 - They Don't Seem To Know You.wav

Pre-gap length 0:00:00.58

Peak level 45.7 %
Extraction speed 1.6 X
Track quality 100.0 %
Test CRC 6D178085
Copy CRC 6D178085
Track not present in AccurateRip database
Copy OK

Track 11

Filename C:\DISCOS\Sandy Denny - The Notes And The Words -A Collection Of Demos And Rarities (2012) [FLAC] (4 CDBOX)\Disc 1of4\11 - Gerrard Street.wav

Pre-gap length 0:00:00.58

Peak level 62.1 %
Extraction speed 1.6 X
Track quality 100.0 %
Test CRC 91C4219C
Copy CRC 91C4219C
Track not present in AccurateRip database
Copy OK

Track 12

Filename C:\DISCOS\Sandy Denny - The Notes And The Words -A Collection Of Demos And Rarities (2012) [FLAC] (4 CDBOX)\Disc 1of4\12 - Seven Virgins.wav

Pre-gap length 0:00:00.21

Peak level 48.6 %
Extraction speed 1.8 X
Track quality 100.0 %
Test CRC 64CDB54D
Copy CRC 64CDB54D
Track not present in AccurateRip database
Copy OK

Track 13

Filename C:\DISCOS\Sandy Denny - The Notes And The Words -A Collection Of Demos And Rarities (2012) [FLAC] (4 CDBOX)\Disc 1of4\13 - A Little Bit Of Rain.wav

Pre-gap length 0:00:00.58

Peak level 67.6 %
Extraction speed 1.4 X
Track quality 99.9 %
Test CRC 9B144CC2
Copy CRC 9B144CC2
Track not present in AccurateRip database
Copy OK

Track 14

Filename C:\DISCOS\Sandy Denny - The Notes And The Words -A Collection Of Demos And Rarities (2012) [FLAC] (4 CDBOX)\Disc 1of4\14 - Go Your Own Way My Love.wav

Pre-gap length 0:00:00.58

Peak level 55.5 %
Extraction speed 1.7 X
Track quality 99.9 %
Test CRC A074A68E
Copy CRC A074A68E
Track not present in AccurateRip database
Copy OK

Track 15

Filename C:\DISCOS\Sandy Denny - The Notes And The Words -A Collection Of Demos And Rarities (2012) [FLAC] (4 CDBOX)\Disc 1of4\15 - Cradle Song.wav

Pre-gap length 0:00:00.58

Peak level 65.4 %
Extraction speed 1.5 X
Track quality 99.9 %
Test CRC 6325B8AD
Copy CRC 6325B8AD
Track not present in AccurateRip database
Copy OK

Track 16

Filename C:\DISCOS\Sandy Denny - The Notes And The Words -A Collection Of Demos And Rarities (2012) [FLAC] (4 CDBOX)\Disc 1of4\16 - Who Knows Where The Time Goes.wav

Pre-gap length 0:00:00.58

Peak level 65.5 %
Extraction speed 1.9 X
Track quality 99.9 %
Test CRC 6F7F0968
Copy CRC 6F7F0968
Track not present in AccurateRip database
Copy OK

Track 17

Filename C:\DISCOS\Sandy Denny - The Notes And The Words -A Collection Of Demos And Rarities (2012) [FLAC] (4 CDBOX)\Disc 1of4\17 - Motherless Children.wav

Pre-gap length 0:00:00.58

Peak level 30.3 %
Extraction speed 2.0 X
Track quality 100.0 %
Test CRC C94F1401
Copy CRC C94F1401
Track not present in AccurateRip database
Copy OK

Track 18

Filename C:\DISCOS\Sandy Denny - The Notes And The Words -A Collection Of Demos And Rarities (2012) [FLAC] (4 CDBOX)\Disc 1of4\18 - You Never Wanted Me.wav

Pre-gap length 0:00:00.58

Peak level 42.1 %
Extraction speed 2.1 X
Track quality 100.0 %
Test CRC 2444B84E
Copy CRC 2444B84E
Track not present in AccurateRip database
Copy OK

Track 19

Filename C:\DISCOS\Sandy Denny - The Notes And The Words -A Collection Of Demos And Rarities (2012) [FLAC] (4 CDBOX)\Disc 1of4\19 - Milk And Honey.wav

Pre-gap length 0:00:00.58

Peak level 26.0 %
Extraction speed 2.0 X
Track quality 99.9 %
Test CRC 192A233B
Copy CRC 192A233B
Track not present in AccurateRip database
Copy OK

Track 20

Filename C:\DISCOS\Sandy Denny - The Notes And The Words -A Collection Of Demos And Rarities (2012) [FLAC] (4 CDBOX)\Disc 1of4\20 - She Moves Throught The Fair.wav

Pre-gap length 0:00:00.58

Peak level 45.9 %
Extraction speed 2.4 X
Track quality 100.0 %
Test CRC 632FB6BE
Copy CRC 632FB6BE
Track not present in AccurateRip database
Copy OK

Track 21

Filename C:\DISCOS\Sandy Denny - The Notes And The Words -A Collection Of Demos And Rarities (2012) [FLAC] (4 CDBOX)\Disc 1of4\21 - Fotheringay.wav

Pre-gap length 0:00:00.58

Peak level 22.5 %
Extraction speed 2.3 X
Track quality 100.0 %
Test CRC E311C742
Copy CRC E311C742
Track not present in AccurateRip database
Copy OK

Track 22

Filename C:\DISCOS\Sandy Denny - The Notes And The Words -A Collection Of Demos And Rarities (2012) [FLAC] (4 CDBOX)\Disc 1of4\22 - Now And Then.wav

Pre-gap length 0:00:00.58

Peak level 42.7 %
Extraction speed 2.4 X
Track quality 100.0 %
Test CRC E35B80E2
Copy CRC E35B80E2
Track not present in AccurateRip database
Copy OK

Track 23

Filename C:\DISCOS\Sandy Denny - The Notes And The Words -A Collection Of Demos And Rarities (2012) [FLAC] (4 CDBOX)\Disc 1of4\23 - Autopsy.wav

Pre-gap length 0:00:00.58

Peak level 51.5 %
Extraction speed 2.6 X
Track quality 100.0 %
Test CRC 1FF1F532
Copy CRC 1FF1F532
Track not present in AccurateRip database
Copy OK


None of the tracks are present in the AccurateRip database

No errors occurred

End of status report

==== Log checksum 22E001E161A269D5422B8FA61712E3BA2E3EFE7300A7319151530829C0C0731E ====
Exact Audio Copy V1.0 beta 3 from 29. August 2011

EAC extraction logfile from 6. January 2013, 14:17

Sandy Denny / The Notes and the Words [Disc 2]

Used drive : HL-DT-STDVDRAM GH22NS50 Adapter: 1 ID: 0

Read mode : Secure
Utilize accurate stream : Yes
Defeat audio cache : Yes
Make use of C2 pointers : No

Read offset correction : 667
Overread into Lead-In and Lead-Out : No
Fill up missing offset samples with silence : Yes
Delete leading and trailing silent blocks : No
Null samples used in CRC calculations : Yes
Used interface : Native Win32 interface for Win NT & 2000
Gap handling : Appended to previous track

Used output format : User Defined Encoder
Selected bitrate : 768 kBit/s
Quality : High
Add ID3 tag : No
Command line compressor : C:\Program Files (x86)\Exact Audio Copy\FLAC\FLAC.EXE
Additional command line options : -8 -V -T "ARTIST=%artist%" -T "TITLE=%title%" -T "ALBUM=%albumtitle%" -T "DATE=%year%" -T "TRACKNUMBER=%tracknr%" -T "TOTALTRACKS=%numtracks%" -T "GENRE=%genre%" -T "ALBUMARTIST=%albumartist%" -T "ALBUM ARTIST=%albumartist%" -T "COMMENT=EAC Secure Mode, Test & Copy, AccurateRip, FLAC -8" %source%


TOC of the extracted CD

Track | Start | Length | Start sector | End sector
––––––––––––––––––––––––––––-
1 | 0:00.00 | 3:18.59 | 0 | 14908
2 | 3:18.59 | 2:55.70 | 14909 | 28103
3 | 6:14.54 | 4:54.13 | 28104 | 50166
4 | 11:08.67 | 11:22.62 | 50167 | 101378
5 | 22:31.54 | 5:25.27 | 101379 | 125780
6 | 27:57.06 | 7:45.29 | 125781 | 160684
7 | 35:42.35 | 4:04.67 | 160685 | 179051
8 | 39:47.27 | 4:53.25 | 179052 | 201051
9 | 44:40.52 | 2:24.08 | 201052 | 211859
10 | 47:04.60 | 3:07.71 | 211860 | 225955
11 | 50:12.56 | 5:06.56 | 225956 | 248961
12 | 55:19.37 | 4:32.11 | 248962 | 269372
13 | 59:51.48 | 5:05.56 | 269373 | 292303
14 | 64:57.29 | 6:14.44 | 292304 | 320397


Track 1

Filename C:\DISCOS\Sandy Denny - The Notes And The Words -A Collection Of Demos And Rarities (2012) [FLAC] (4 CDBOX)\Disc 2of4\01 - Are the Judges Sane.wav

Pre-gap length 0:00:02.00

Peak level 99.8 %
Extraction speed 1.1 X
Track quality 100.0 %
Test CRC A9A4F447
Copy CRC A9A4F447
Track not present in AccurateRip database
Copy OK

Track 2

Filename C:\DISCOS\Sandy Denny - The Notes And The Words -A Collection Of Demos And Rarities (2012) [FLAC] (4 CDBOX)\Disc 2of4\02 - Mr. Lacey.wav

Pre-gap length 0:00:00.49

Peak level 100.0 %
Extraction speed 1.0 X
Track quality 99.9 %
Test CRC 8340D1BE
Copy CRC 8340D1BE
Track not present in AccurateRip database
Copy OK

Track 3

Filename C:\DISCOS\Sandy Denny - The Notes And The Words -A Collection Of Demos And Rarities (2012) [FLAC] (4 CDBOX)\Disc 2of4\03 - The Ballad of Easy Rider.wav

Pre-gap length 0:00:00.49

Peak level 100.0 %
Extraction speed 1.4 X
Track quality 100.0 %
Test CRC B7B454DB
Copy CRC B7B454DB
Track not present in AccurateRip database
Copy OK

Track 4

Filename C:\DISCOS\Sandy Denny - The Notes And The Words -A Collection Of Demos And Rarities (2012) [FLAC] (4 CDBOX)\Disc 2of4\04 - A Sailor's Life.wav

Pre-gap length 0:00:00.49

Peak level 95.2 %
Extraction speed 1.7 X
Track quality 100.0 %
Test CRC 9F4D8DB6
Copy CRC 9F4D8DB6
Track not present in AccurateRip database
Copy OK

Track 5

Filename C:\DISCOS\Sandy Denny - The Notes And The Words -A Collection Of Demos And Rarities (2012) [FLAC] (4 CDBOX)\Disc 2of4\05 - Come All Ye.wav

Pre-gap length 0:00:00.49

Peak level 99.8 %
Extraction speed 1.6 X
Track quality 99.9 %
Test CRC 81A88FC7
Copy CRC 81A88FC7
Track not present in AccurateRip database
Copy OK

Track 6

Filename C:\DISCOS\Sandy Denny - The Notes And The Words -A Collection Of Demos And Rarities (2012) [FLAC] (4 CDBOX)\Disc 2of4\06 - Matty Groves.wav

Pre-gap length 0:00:00.49

Peak level 99.8 %
Extraction speed 1.9 X
Track quality 100.0 %
Test CRC 750E8A69
Copy CRC 750E8A69
Track not present in AccurateRip database
Copy OK

Track 7

Filename C:\DISCOS\Sandy Denny - The Notes And The Words -A Collection Of Demos And Rarities (2012) [FLAC] (4 CDBOX)\Disc 2of4\07 - The Way I Feel.wav

Pre-gap length 0:00:00.49

Peak level 69.4 %
Extraction speed 1.9 X
Track quality 100.0 %
Test CRC 5AE37BB3
Copy CRC 5AE37BB3
Track not present in AccurateRip database
Copy OK

Track 8

Filename C:\DISCOS\Sandy Denny - The Notes And The Words -A Collection Of Demos And Rarities (2012) [FLAC] (4 CDBOX)\Disc 2of4\08 - The Sea.wav

Pre-gap length 0:00:00.49

Peak level 90.8 %
Extraction speed 2.0 X
Track quality 100.0 %
Test CRC 00C7E3AE
Copy CRC 00C7E3AE
Track not present in AccurateRip database
Copy OK

Track 9

Filename C:\DISCOS\Sandy Denny - The Notes And The Words -A Collection Of Demos And Rarities (2012) [FLAC] (4 CDBOX)\Disc 2of4\09 - Winter Winds.wav

Pre-gap length 0:01:10.28

Peak level 87.8 %
Extraction speed 1.5 X
Track quality 99.9 %
Test CRC 2D77F736
Copy CRC 2D77F736
Track not present in AccurateRip database
Copy OK

Track 10

Filename C:\DISCOS\Sandy Denny - The Notes And The Words -A Collection Of Demos And Rarities (2012) [FLAC] (4 CDBOX)\Disc 2of4\10 - The Pond and the Stream.wav

Pre-gap length 0:00:00.49

Peak level 84.7 %
Extraction speed 2.0 X
Track quality 100.0 %
Test CRC E50BBEFD
Copy CRC E50BBEFD
Track not present in AccurateRip database
Copy OK

Track 11

Filename C:\DISCOS\Sandy Denny - The Notes And The Words -A Collection Of Demos And Rarities (2012) [FLAC] (4 CDBOX)\Disc 2of4\11 - John the Gun.wav

Pre-gap length 0:00:00.49

Peak level 87.0 %
Extraction speed 2.0 X
Track quality 99.9 %
Test CRC AB06AB6E
Copy CRC AB06AB6E
Track not present in AccurateRip database
Copy OK

Track 12

Filename C:\DISCOS\Sandy Denny - The Notes And The Words -A Collection Of Demos And Rarities (2012) [FLAC] (4 CDBOX)\Disc 2of4\12 - Late November.wav

Pre-gap length 0:00:00.49

Peak level 82.1 %
Extraction speed 2.3 X
Track quality 100.0 %
Test CRC 5B47CC59
Copy CRC 5B47CC59
Track not present in AccurateRip database
Copy OK

Track 13

Filename C:\DISCOS\Sandy Denny - The Notes And The Words -A Collection Of Demos And Rarities (2012) [FLAC] (4 CDBOX)\Disc 2of4\13 - Next Time Around.wav

Pre-gap length 0:00:00.49

Peak level 93.3 %
Extraction speed 2.1 X
Track quality 99.9 %
Test CRC 3104A64B
Copy CRC 3104A64B
Track not present in AccurateRip database
Copy OK

Track 14

Filename C:\DISCOS\Sandy Denny - The Notes And The Words -A Collection Of Demos And Rarities (2012) [FLAC] (4 CDBOX)\Disc 2of4\14 - Lord Bateman.wav

Pre-gap length 0:00:00.49

Peak level 86.7 %
Extraction speed 2.5 X
Track quality 100.0 %
Test CRC 99383A93
Copy CRC 99383A93
Track not present in AccurateRip database
Copy OK


None of the tracks are present in the AccurateRip database

No errors occurred

End of status report

==== Log checksum 97BE62D529C7795B4028DBAC4E3BA6195082AABD7ED4017CADC365F609284A62 ====
Exact Audio Copy V1.0 beta 3 from 29. August 2011

EAC extraction logfile from 6. January 2013, 16:29

Sandy Denny / The Notes And The Words CD3

Used drive : HL-DT-STDVDRAM GH22NS50 Adapter: 1 ID: 0

Read mode : Secure
Utilize accurate stream : Yes
Defeat audio cache : Yes
Make use of C2 pointers : No

Read offset correction : 667
Overread into Lead-In and Lead-Out : No
Fill up missing offset samples with silence : Yes
Delete leading and trailing silent blocks : No
Null samples used in CRC calculations : Yes
Used interface : Native Win32 interface for Win NT & 2000
Gap handling : Appended to previous track

Used output format : User Defined Encoder
Selected bitrate : 768 kBit/s
Quality : High
Add ID3 tag : No
Command line compressor : C:\Program Files (x86)\Exact Audio Copy\FLAC\FLAC.EXE
Additional command line options : -8 -V -T "ARTIST=%artist%" -T "TITLE=%title%" -T "ALBUM=%albumtitle%" -T "DATE=%year%" -T "TRACKNUMBER=%tracknr%" -T "TOTALTRACKS=%numtracks%" -T "GENRE=%genre%" -T "ALBUMARTIST=%albumartist%" -T "ALBUM ARTIST=%albumartist%" -T "COMMENT=EAC Secure Mode, Test & Copy, AccurateRip, FLAC -8" %source%


TOC of the extracted CD

Track | Start | Length | Start sector | End sector
––––––––––––––––––––––––––––-
1 | 0:00.00 | 4:30.74 | 0 | 20323
2 | 4:30.74 | 2:36.31 | 20324 | 32054
3 | 7:07.30 | 3:31.46 | 32055 | 47925
4 | 10:39.01 | 3:23.66 | 47926 | 63216
5 | 14:02.67 | 4:18.22 | 63217 | 82588
6 | 18:21.14 | 4:39.52 | 82589 | 103565
7 | 23:00.66 | 4:34.49 | 103566 | 124164
8 | 27:35.40 | 2:45.71 | 124165 | 136610
9 | 30:21.36 | 2:59.68 | 136611 | 150103
10 | 33:21.29 | 3:52.27 | 150104 | 167530
11 | 37:13.56 | 3:05.35 | 167531 | 181440
12 | 40:19.16 | 10:29.74 | 181441 | 228689
13 | 50:49.15 | 4:28.42 | 228690 | 248831
14 | 55:17.57 | 4:14.24 | 248832 | 267905
15 | 59:32.06 | 3:31.51 | 267906 | 283781
16 | 63:03.57 | 4:36.43 | 283782 | 304524
17 | 67:40.25 | 3:24.08 | 304525 | 319832


Track 1

Filename C:\DISCOS\Sandy Denny - The Notes And The Words -A Collection Of Demos And Rarities (2012) [FLAC] (4 CDBOX)\Disc 3of4\01 - The Optimist.wav

Pre-gap length 0:00:02.00

Peak level 99.8 %
Extraction speed 1.2 X
Track quality 100.0 %
Test CRC AF27E4A5
Copy CRC AF27E4A5
Track not present in AccurateRip database
Copy OK

Track 2

Filename C:\DISCOS\Sandy Denny - The Notes And The Words -A Collection Of Demos And Rarities (2012) [FLAC] (4 CDBOX)\Disc 3of4\02 - Wretched Wilbur.wav

Pre-gap length 0:00:00.49

Peak level 90.3 %
Extraction speed 1.2 X
Track quality 100.0 %
Test CRC C09145F2
Copy CRC C09145F2
Track not present in AccurateRip database
Copy OK

Track 3

Filename C:\DISCOS\Sandy Denny - The Notes And The Words -A Collection Of Demos And Rarities (2012) [FLAC] (4 CDBOX)\Disc 3of4\03 - Crazy Lady Blues.wav

Pre-gap length 0:00:00.49

Peak level 96.8 %
Extraction speed 1.3 X
Track quality 100.0 %
Test CRC 753A3930
Copy CRC 753A3930
Track not present in AccurateRip database
Copy OK

Track 4

Filename C:\DISCOS\Sandy Denny - The Notes And The Words -A Collection Of Demos And Rarities (2012) [FLAC] (4 CDBOX)\Disc 3of4\04 - Northstar Grassman and the Ravens.wav

Pre-gap length 0:00:00.49

Peak level 55.5 %
Extraction speed 1.4 X
Track quality 100.0 %
Test CRC A71AAEA5
Copy CRC A71AAEA5
Track not present in AccurateRip database
Copy OK

Track 5

Filename C:\DISCOS\Sandy Denny - The Notes And The Words -A Collection Of Demos And Rarities (2012) [FLAC] (4 CDBOX)\Disc 3of4\05 - Blackwaterside.wav

Pre-gap length 0:00:00.49

Peak level 67.5 %
Extraction speed 1.3 X
Track quality 99.9 %
Test CRC 394477D7
Copy CRC 394477D7
Track not present in AccurateRip database
Copy OK

Track 6

Filename C:\DISCOS\Sandy Denny - The Notes And The Words -A Collection Of Demos And Rarities (2012) [FLAC] (4 CDBOX)\Disc 3of4\06 - It ll Take a Long Time.wav

Pre-gap length 0:00:00.49

Peak level 61.5 %
Extraction speed 1.6 X
Track quality 100.0 %
Test CRC 78CB75CC
Copy CRC 78CB75CC
Track not present in AccurateRip database
Copy OK

Track 7

Filename C:\DISCOS\Sandy Denny - The Notes And The Words -A Collection Of Demos And Rarities (2012) [FLAC] (4 CDBOX)\Disc 3of4\07 - For Nobody to Hear.wav

Pre-gap length 0:00:00.49

Peak level 49.4 %
Extraction speed 1.7 X
Track quality 100.0 %
Test CRC B0E1F01E
Copy CRC B0E1F01E
Track not present in AccurateRip database
Copy OK

Track 8

Filename C:\DISCOS\Sandy Denny - The Notes And The Words -A Collection Of Demos And Rarities (2012) [FLAC] (4 CDBOX)\Disc 3of4\08 - Quiet Joys of Brotherhood.wav

Pre-gap length 0:00:00.49

Peak level 79.7 %
Extraction speed 1.6 X
Track quality 100.0 %
Test CRC AD80C37D
Copy CRC AD80C37D
Track not present in AccurateRip database
Copy OK

Track 9

Filename C:\DISCOS\Sandy Denny - The Notes And The Words -A Collection Of Demos And Rarities (2012) [FLAC] (4 CDBOX)\Disc 3of4\09 - The Lady.wav

Pre-gap length 0:00:00.49

Peak level 94.2 %
Extraction speed 1.4 X
Track quality 99.9 %
Test CRC ACDEDF1D
Copy CRC ACDEDF1D
Track not present in AccurateRip database
Copy OK

Track 10

Filename C:\DISCOS\Sandy Denny - The Notes And The Words -A Collection Of Demos And Rarities (2012) [FLAC] (4 CDBOX)\Disc 3of4\10 - Bushes and Briars.wav

Pre-gap length 0:00:00.49

Peak level 65.0 %
Extraction speed 1.9 X
Track quality 100.0 %
Test CRC B843DA6F
Copy CRC B843DA6F
Track not present in AccurateRip database
Copy OK

Track 11

Filename C:\DISCOS\Sandy Denny - The Notes And The Words -A Collection Of Demos And Rarities (2012) [FLAC] (4 CDBOX)\Disc 3of4\11 - The Music Weaver.wav

Pre-gap length 0:00:00.49

Peak level 98.8 %
Extraction speed 1.8 X
Track quality 100.0 %
Test CRC F59C2E49
Copy CRC F59C2E49
Track not present in AccurateRip database
Copy OK

Track 12

Filename C:\DISCOS\Sandy Denny - The Notes And The Words -A Collection Of Demos And Rarities (2012) [FLAC] (4 CDBOX)\Disc 3of4\12 - No End.wav

Pre-gap length 0:00:00.49

Peak level 100.0 %
Extraction speed 2.2 X
Track quality 100.0 %
Test CRC C50D9EAB
Copy CRC C50D9EAB
Track not present in AccurateRip database
Copy OK

Track 13

Filename C:\DISCOS\Sandy Denny - The Notes And The Words -A Collection Of Demos And Rarities (2012) [FLAC] (4 CDBOX)\Disc 3of4\13 - Solo.wav

Pre-gap length 0:00:00.49

Peak level 72.3 %
Extraction speed 1.9 X
Track quality 99.9 %
Test CRC B2D2B41F
Copy CRC B2D2B41F
Track not present in AccurateRip database
Copy OK

Track 14

Filename C:\DISCOS\Sandy Denny - The Notes And The Words -A Collection Of Demos And Rarities (2012) [FLAC] (4 CDBOX)\Disc 3of4\14 - Whispering Grass.wav

Pre-gap length 0:00:00.49

Peak level 95.4 %
Extraction speed 2.0 X
Track quality 99.9 %
Test CRC 34B6FFC3
Copy CRC 34B6FFC3
Track not present in AccurateRip database
Copy OK

Track 15

Filename C:\DISCOS\Sandy Denny - The Notes And The Words -A Collection Of Demos And Rarities (2012) [FLAC] (4 CDBOX)\Disc 3of4\15 - Friends.wav

Pre-gap length 0:00:00.49

Peak level 76.6 %
Extraction speed 2.2 X
Track quality 100.0 %
Test CRC E02BC16A
Copy CRC E02BC16A
Track not present in AccurateRip database
Copy OK

Track 16

Filename C:\DISCOS\Sandy Denny - The Notes And The Words -A Collection Of Demos And Rarities (2012) [FLAC] (4 CDBOX)\Disc 3of4\16 - Dark the Night.wav

Pre-gap length 0:00:00.49

Peak level 79.8 %
Extraction speed 2.1 X
Track quality 99.9 %
Test CRC 5DD24390
Copy CRC 5DD24390
Track not present in AccurateRip database
Copy OK

Track 17

Filename C:\DISCOS\Sandy Denny - The Notes And The Words -A Collection Of Demos And Rarities (2012) [FLAC] (4 CDBOX)\Disc 3of4\17 - Until the Real Thing Comes Along.wav

Pre-gap length 0:00:00.49

Peak level 100.0 %
Extraction speed 2.4 X
Track quality 100.0 %
Test CRC AB4D9A2F
Copy CRC AB4D9A2F
Track not present in AccurateRip database
Copy OK


None of the tracks are present in the AccurateRip database

No errors occurred

End of status report

==== Log checksum C65365BA9F740EC50DB5269B636F100F303DD59CDBE2750F2A029AFACC6A6E54 ====
Exact Audio Copy V1.0 beta 3 from 29. August 2011

EAC extraction logfile from 6. January 2013, 19:06

Sandy Denny / The Notes and the Words [Disc 4]

Used drive : HL-DT-STDVDRAM GH22NS50 Adapter: 1 ID: 0

Read mode : Secure
Utilize accurate stream : Yes
Defeat audio cache : Yes
Make use of C2 pointers : No

Read offset correction : 667
Overread into Lead-In and Lead-Out : No
Fill up missing offset samples with silence : Yes
Delete leading and trailing silent blocks : No
Null samples used in CRC calculations : Yes
Used interface : Native Win32 interface for Win NT & 2000
Gap handling : Appended to previous track

Used output format : User Defined Encoder
Selected bitrate : 768 kBit/s
Quality : High
Add ID3 tag : No
Command line compressor : C:\Program Files (x86)\Exact Audio Copy\FLAC\FLAC.EXE
Additional command line options : -8 -V -T "ARTIST=%artist%" -T "TITLE=%title%" -T "ALBUM=%albumtitle%" -T "DATE=%year%" -T "TRACKNUMBER=%tracknr%" -T "TOTALTRACKS=%numtracks%" -T "GENRE=%genre%" -T "ALBUMARTIST=%albumartist%" -T "ALBUM ARTIST=%albumartist%" -T "COMMENT=EAC Secure Mode, Test & Copy, AccurateRip, FLAC -8" %source%


TOC of the extracted CD

Track | Start | Length | Start sector | End sector
––––––––––––––––––––––––––––-
1 | 0:00.00 | 3:08.67 | 0 | 14166
2 | 3:08.67 | 3:00.32 | 14167 | 27698
3 | 6:09.24 | 1:38.15 | 27699 | 35063
4 | 7:47.39 | 2:17.69 | 35064 | 45407
5 | 10:05.33 | 3:22.14 | 45408 | 60571
6 | 13:27.47 | 3:16.05 | 60572 | 75276
7 | 16:43.52 | 4:26.70 | 75277 | 95296
8 | 21:10.47 | 4:10.60 | 95297 | 114106
9 | 25:21.32 | 4:09.36 | 114107 | 132817
10 | 29:30.68 | 3:45.18 | 132818 | 149710
11 | 33:16.11 | 3:17.05 | 149711 | 164490
12 | 36:33.16 | 3:12.10 | 164491 | 178900
13 | 39:45.26 | 4:27.54 | 178901 | 198979
14 | 44:13.05 | 4:17.37 | 198980 | 218291
15 | 48:30.42 | 4:31.67 | 218292 | 238683
16 | 53:02.34 | 3:54.43 | 238684 | 256276
17 | 56:57.02 | 4:59.53 | 256277 | 278754
18 | 61:56.55 | 2:53.53 | 278755 | 291782
19 | 64:50.33 | 4:30.62 | 291783 | 312094
20 | 69:21.20 | 3:42.44 | 312095 | 328788
21 | 73:03.64 | 2:46.27 | 328789 | 341265


Track 1

Filename C:\DISCOS\Sandy Denny - The Notes And The Words -A Collection Of Demos And Rarities (2012) [FLAC] (4 CDBOX)\Disc 4of4\01 - The King and Queen of England.wav

Pre-gap length 0:00:02.00

Peak level 78.4 %
Extraction speed 0.9 X
Track quality 99.9 %
Test CRC 9FAD2D8F
Copy CRC 9FAD2D8F
Track not present in AccurateRip database
Copy OK

Track 2

Filename C:\DISCOS\Sandy Denny - The Notes And The Words -A Collection Of Demos And Rarities (2012) [FLAC] (4 CDBOX)\Disc 4of4\02 - After Halloween.wav

Pre-gap length 0:00:00.49

Peak level 92.9 %
Extraction speed 1.2 X
Track quality 100.0 %
Test CRC 613DCFCA
Copy CRC 613DCFCA
Track not present in AccurateRip database
Copy OK

Track 3

Filename C:\DISCOS\Sandy Denny - The Notes And The Words -A Collection Of Demos And Rarities (2012) [FLAC] (4 CDBOX)\Disc 4of4\03 - Take Away the Load.wav

Pre-gap length 0:00:00.49

Peak level 85.2 %
Extraction speed 1.0 X
Track quality 100.0 %
Test CRC 0DD90103
Copy CRC 0DD90103
Track not present in AccurateRip database
Copy OK

Track 4

Filename C:\DISCOS\Sandy Denny - The Notes And The Words -A Collection Of Demos And Rarities (2012) [FLAC] (4 CDBOX)\Disc 4of4\04 - Stranger to Himself.wav

Pre-gap length 0:00:00.21

Peak level 89.0 %
Extraction speed 1.2 X
Track quality 100.0 %
Test CRC 67959D04
Copy CRC 67959D04
Track not present in AccurateRip database
Copy OK

Track 5

Filename C:\DISCOS\Sandy Denny - The Notes And The Words -A Collection Of Demos And Rarities (2012) [FLAC] (4 CDBOX)\Disc 4of4\05 - By the Time It Gets Dark.wav

Pre-gap length 0:00:00.49

Peak level 58.0 %
Extraction speed 1.2 X
Track quality 99.9 %
Test CRC 6CD20503
Copy CRC 6CD20503
Track not present in AccurateRip database
Copy OK

Track 6

Filename C:\DISCOS\Sandy Denny - The Notes And The Words -A Collection Of Demos And Rarities (2012) [FLAC] (4 CDBOX)\Disc 4of4\06 - Down in the Flood.wav

Pre-gap length 0:00:00.49

Peak level 72.4 %
Extraction speed 1.4 X
Track quality 100.0 %
Test CRC 79CA5E1D
Copy CRC 79CA5E1D
Track not present in AccurateRip database
Copy OK

Track 7

Filename C:\DISCOS\Sandy Denny - The Notes And The Words -A Collection Of Demos And Rarities (2012) [FLAC] (4 CDBOX)\Disc 4of4\07 - Knocking On Heaven's Door.wav

Pre-gap length 0:00:00.49

Peak level 72.4 %
Extraction speed 1.4 X
Track quality 99.9 %
Test CRC CD4484AE
Copy CRC CD4484AE
Track not present in AccurateRip database
Copy OK

Track 8

Filename C:\DISCOS\Sandy Denny - The Notes And The Words -A Collection Of Demos And Rarities (2012) [FLAC] (4 CDBOX)\Disc 4of4\08 - Like an Old Fashioned Waltz.wav

Pre-gap length 0:00:00.49

Peak level 100.0 %
Extraction speed 1.7 X
Track quality 100.0 %
Test CRC 8E6A928C
Copy CRC 8E6A928C
Track not present in AccurateRip database
Copy OK

Track 9

Filename C:\DISCOS\Sandy Denny - The Notes And The Words -A Collection Of Demos And Rarities (2012) [FLAC] (4 CDBOX)\Disc 4of4\09 - Dawn.wav

Pre-gap length 0:00:00.49

Peak level 63.7 %
Extraction speed 1.8 X
Track quality 100.0 %
Test CRC 1954C096
Copy CRC 1954C096
Track not present in AccurateRip database
Copy OK

Track 10

Filename C:\DISCOS\Sandy Denny - The Notes And The Words -A Collection Of Demos And Rarities (2012) [FLAC] (4 CDBOX)\Disc 4of4\10 - One More Chance.wav

Pre-gap length 0:00:00.49

Peak level 67.5 %
Extraction speed 1.8 X
Track quality 100.0 %
Test CRC 5A7FC460
Copy CRC 5A7FC460
Track not present in AccurateRip database
Copy OK

Track 11

Filename C:\DISCOS\Sandy Denny - The Notes And The Words -A Collection Of Demos And Rarities (2012) [FLAC] (4 CDBOX)\Disc 4of4\11 - What Is True.wav

Pre-gap length 0:00:00.49

Peak level 77.2 %
Extraction speed 1.8 X
Track quality 100.0 %
Test CRC 4F18CE83
Copy CRC 4F18CE83
Track not present in AccurateRip database
Copy OK

Track 12

Filename C:\DISCOS\Sandy Denny - The Notes And The Words -A Collection Of Demos And Rarities (2012) [FLAC] (4 CDBOX)\Disc 4of4\12 - No More Sad Refrains.wav

Pre-gap length 0:00:00.49

Peak level 71.6 %
Extraction speed 1.8 X
Track quality 100.0 %
Test CRC BD7A416E
Copy CRC BD7A416E
Track not present in AccurateRip database
Copy OK

Track 13

Filename C:\DISCOS\Sandy Denny - The Notes And The Words -A Collection Of Demos And Rarities (2012) [FLAC] (4 CDBOX)\Disc 4of4\13 - I Wish I Was a Fool For You.wav

Pre-gap length 0:00:00.49

Peak level 51.8 %
Extraction speed 2.0 X
Track quality 100.0 %
Test CRC 106A483A
Copy CRC 106A483A
Track not present in AccurateRip database
Copy OK

Track 14

Filename C:\DISCOS\Sandy Denny - The Notes And The Words -A Collection Of Demos And Rarities (2012) [FLAC] (4 CDBOX)\Disc 4of4\14 - Gold Dust.wav

Pre-gap length 0:00:00.49

Peak level 55.6 %
Extraction speed 2.1 X
Track quality 100.0 %
Test CRC 1475785A
Copy CRC 1475785A
Track not present in AccurateRip database
Copy OK

Track 15

Filename C:\DISCOS\Sandy Denny - The Notes And The Words -A Collection Of Demos And Rarities (2012) [FLAC] (4 CDBOX)\Disc 4of4\15 - Candle in the Wind.wav

Pre-gap length 0:00:00.49

Peak level 72.6 %
Extraction speed 1.9 X
Track quality 99.9 %
Test CRC E9D3584E
Copy CRC E9D3584E
Track not present in AccurateRip database
Copy OK

Track 16

Filename C:\DISCOS\Sandy Denny - The Notes And The Words -A Collection Of Demos And Rarities (2012) [FLAC] (4 CDBOX)\Disc 4of4\16 - One Way Donkey Ride.wav

Pre-gap length 0:00:00.49

Peak level 76.7 %
Extraction speed 2.2 X
Track quality 100.0 %
Test CRC 392F4B87
Copy CRC 392F4B87
Track not present in AccurateRip database
Copy OK

Track 17

Filename C:\DISCOS\Sandy Denny - The Notes And The Words -A Collection Of Demos And Rarities (2012) [FLAC] (4 CDBOX)\Disc 4of4\17 - I'm a Dreamer.wav

Pre-gap length 0:00:00.49

Peak level 72.3 %
Extraction speed 2.3 X
Track quality 100.0 %
Test CRC C594B4F3
Copy CRC C594B4F3
Track not present in AccurateRip database
Copy OK

Track 18

Filename C:\DISCOS\Sandy Denny - The Notes And The Words -A Collection Of Demos And Rarities (2012) [FLAC] (4 CDBOX)\Disc 4of4\18 - Still Waters Run Deep.wav

Pre-gap length 0:00:00.49

Peak level 76.7 %
Extraction speed 2.2 X
Track quality 100.0 %
Test CRC 5427A236
Copy CRC 5427A236
Track not present in AccurateRip database
Copy OK

Track 19

Filename C:\DISCOS\Sandy Denny - The Notes And The Words -A Collection Of Demos And Rarities (2012) [FLAC] (4 CDBOX)\Disc 4of4\19 - Full Moon.wav

Pre-gap length 0:00:00.49

Peak level 56.1 %
Extraction speed 2.4 X
Track quality 100.0 %
Test CRC 12A8ADF6
Copy CRC 12A8ADF6
Track not present in AccurateRip database
Copy OK

Track 20

Filename C:\DISCOS\Sandy Denny - The Notes And The Words -A Collection Of Demos And Rarities (2012) [FLAC] (4 CDBOX)\Disc 4of4\20 - Moments.wav

Pre-gap length 0:00:00.49

Peak level 76.7 %
Extraction speed 2.4 X
Track quality 100.0 %
Test CRC 1E3140B7
Copy CRC 1E3140B7
Track not present in AccurateRip database
Copy OK

Track 21

Filename C:\DISCOS\Sandy Denny - The Notes And The Words -A Collection Of Demos And Rarities (2012) [FLAC] (4 CDBOX)\Disc 4of4\21 - Makes Me Think of You.wav

Pre-gap length 0:00:00.49

Peak level 80.1 %
Extraction speed 2.0 X
Track quality 99.9 %
Test CRC BB2F9912
Copy CRC BB2F9912
Track not present in AccurateRip database
Copy OK


None of the tracks are present in the AccurateRip database

No errors occurred

End of status report

==== Log checksum 6F02292A59F27C10AEBBE9F94B9F93FBA367C66DEE209987D966435634BC2F79 ====



Sandy Denny - The Notes and the Words: A Collection of Demos and Rarities (2012) {4CD Set Island 371 246-9 rec 1966-1978}

Sandy Denny - The Notes and the Words: A Collection of Demos and Rarities (2012) {4CD Set Island 371 246-9 rec 1966-1978}

Sandy Denny - The Notes and the Words: A Collection of Demos and Rarities (2012) {4CD Set Island 371 246-9 rec 1966-1978}


see also:
Sandy Denny - 19 Rupert St (1967) {Witchwood Media WMCD 2053 rel 2011}



===