Subcategories

Sang-Hie Lee, Martha Thomas & Kyoung Cho - Ars Nostra: But Now the Night (2016)

Posted By: delpotro
Sang-Hie Lee, Martha Thomas & Kyoung Cho - Ars Nostra: But Now the Night (2016)

Sang-Hie Lee, Martha Thomas & Kyoung Cho - Ars Nostra: But Now the Night (2016)
XLD Rip | FLAC (tracks+log+.cue) | Artwork included | 01:09:04 | 220 Mb
Modern Classical | Label: Ravello Records

Music for two pianos as a genre has gained reputation and momentum among composers and performers in the academic piano world. Piano Duo is a relatively new phenomenon that began in the late Romantic period. The Piano Duo project began in 2008 with composers Paul Reller, Eun-Hye Park, Gerald Chenoweth and pianist Min Kwon.
Tracklist:
1. Chera In Nain (A Widow In Nain) (5:56)
2. …Aber Jetzt Die Nacht…. (19:18)
3. Celestial Phenomena (10:43)
4. Sonata For Two Pianos (17:35)
5. Windhover For Piano Duo (15:33)

X Lossless Decoder version 20170729 (150.3)

XLD extraction logfile from 2018-03-21 23:03:46 -0400

Sang-Hie Lee, Martha Thomas / Ars Nostra: But Now the Night

Used drive : MATSHITA DVD-R UJ-8A8 (revision HB14)
Media type : Pressed CD

Ripper mode : XLD Secure Ripper
Disable audio cache : OK for the drive with a cache less than 1375KiB
Make use of C2 pointers : NO
Read offset correction : 102
Max retry count : 20
Gap status : Analyzed, Appended (except HTOA)

TOC of the extracted CD
Track | Start | Length | Start sector | End sector
––––––––––––––––––––––––––––-
1 | 00:00:00 | 05:56:11 | 0 | 26710
2 | 05:56:11 | 19:17:71 | 26711 | 113556
3 | 25:14:07 | 10:43:00 | 113557 | 161781
4 | 35:57:07 | 17:34:46 | 161782 | 240877
5 | 53:31:53 | 15:32:54 | 240878 | 310831

AccurateRip Summary (DiscID: 000d0700-003eb90c-39103005)
Track 01 : OK (v2, confidence 1/1)
Track 02 : OK (v2, confidence 1/1)
Track 03 : OK (v2, confidence 1/1)
Track 04 : OK (v2, confidence 1/1)
Track 05 : OK (v2, confidence 1/1)
->All tracks accurately ripped.

All Tracks
Album gain : 5.40 dB
Peak : 0.911621
Statistics
Read error : 0
Jitter error (maybe fixed) : 0
Retry sector count : 0
Damaged sector count : 0

Track 01
Filename : /Users/tjvm/Desktop/Sang-Hie Lee, Martha Thomas - Ars Nostra, But Now the Night (2016) [FLAC]/01 Chera In Nain (A Widow In Nain).flac
/Users/tjvm/Desktop/Sang-Hie Lee, Martha Thomas - Ars Nostra, But Now the Night (2016) [320]/01 Chera In Nain (A Widow In Nain).mp3
/Users/tjvm/Desktop/Sang-Hie Lee, Martha Thomas - Ars Nostra, But Now the Night (2016) [V0]/01 Chera In Nain (A Widow In Nain).mp3
Pre-gap length : 00:02:00

Track gain : 4.22 dB
Peak : 0.593628
CRC32 hash (test run) : 902B99D3
CRC32 hash : 902B99D3
CRC32 hash (skip zero) : 18F1B6D1
AccurateRip v1 signature : C22A0EFF
AccurateRip v2 signature : BFF04B88
->Accurately ripped (v2, confidence 1/1)
Statistics
Read error : 0
Jitter error (maybe fixed) : 0
Retry sector count : 0
Damaged sector count : 0

Track 02
Filename : /Users/tjvm/Desktop/Sang-Hie Lee, Martha Thomas - Ars Nostra, But Now the Night (2016) [FLAC]/02 Aber Jetzt Die Nacht.flac
/Users/tjvm/Desktop/Sang-Hie Lee, Martha Thomas - Ars Nostra, But Now the Night (2016) [320]/02 Aber Jetzt Die Nacht.mp3
/Users/tjvm/Desktop/Sang-Hie Lee, Martha Thomas - Ars Nostra, But Now the Night (2016) [V0]/02 Aber Jetzt Die Nacht.mp3

Track gain : 4.64 dB
Peak : 0.595459
CRC32 hash (test run) : 530613F5
CRC32 hash : 530613F5
CRC32 hash (skip zero) : F0EE448F
AccurateRip v1 signature : A3087748
AccurateRip v2 signature : AE6D4808
->Accurately ripped (v2, confidence 1/1)
Statistics
Read error : 0
Jitter error (maybe fixed) : 0
Retry sector count : 0
Damaged sector count : 0

Track 03
Filename : /Users/tjvm/Desktop/Sang-Hie Lee, Martha Thomas - Ars Nostra, But Now the Night (2016) [FLAC]/03 Celestial Phenomena.flac
/Users/tjvm/Desktop/Sang-Hie Lee, Martha Thomas - Ars Nostra, But Now the Night (2016) [320]/03 Celestial Phenomena.mp3
/Users/tjvm/Desktop/Sang-Hie Lee, Martha Thomas - Ars Nostra, But Now the Night (2016) [V0]/03 Celestial Phenomena.mp3

Track gain : 4.92 dB
Peak : 0.911621
CRC32 hash (test run) : B68DAC9E
CRC32 hash : B68DAC9E
CRC32 hash (skip zero) : D9732730
AccurateRip v1 signature : 20529898
AccurateRip v2 signature : EF14A3E2
->Accurately ripped (v2, confidence 1/1)
Statistics
Read error : 0
Jitter error (maybe fixed) : 0
Retry sector count : 0
Damaged sector count : 0

Track 04
Filename : /Users/tjvm/Desktop/Sang-Hie Lee, Martha Thomas - Ars Nostra, But Now the Night (2016) [FLAC]/04 Sonata for 2 Pianos.flac
/Users/tjvm/Desktop/Sang-Hie Lee, Martha Thomas - Ars Nostra, But Now the Night (2016) [320]/04 Sonata for 2 Pianos.mp3
/Users/tjvm/Desktop/Sang-Hie Lee, Martha Thomas - Ars Nostra, But Now the Night (2016) [V0]/04 Sonata for 2 Pianos.mp3

Track gain : 6.46 dB
Peak : 0.477753
CRC32 hash (test run) : 96A7C97A
CRC32 hash : 96A7C97A
CRC32 hash (skip zero) : A9BDEC54
AccurateRip v1 signature : 9328BA47
AccurateRip v2 signature : AA199C17
->Accurately ripped (v2, confidence 1/1)
Statistics
Read error : 0
Jitter error (maybe fixed) : 0
Retry sector count : 0
Damaged sector count : 0

Track 05
Filename : /Users/tjvm/Desktop/Sang-Hie Lee, Martha Thomas - Ars Nostra, But Now the Night (2016) [FLAC]/05 Windhover for Piano Duo.flac
/Users/tjvm/Desktop/Sang-Hie Lee, Martha Thomas - Ars Nostra, But Now the Night (2016) [320]/05 Windhover for Piano Duo.mp3
/Users/tjvm/Desktop/Sang-Hie Lee, Martha Thomas - Ars Nostra, But Now the Night (2016) [V0]/05 Windhover for Piano Duo.mp3

Track gain : 6.24 dB
Peak : 0.459229
CRC32 hash (test run) : 922AA2E7
CRC32 hash : 922AA2E7
CRC32 hash (skip zero) : D7C4B562
AccurateRip v1 signature : 425F3B97
AccurateRip v2 signature : FD8493C2
->Accurately ripped (v2, confidence 1/1)
Statistics
Read error : 0
Jitter error (maybe fixed) : 0
Retry sector count : 0
Damaged sector count : 0

No errors occurred

End of status report

––-BEGIN XLD SIGNATURE––-
Q5.r3ZbXG_r2B0P7kuAMJrNFXJ2NQnSXmFyq82gRXe8jijgueAWZUau6ZgKZWvKjU9ux76NAoG7f9jaUvOLZMFL8jLoN.3qvq3iqNP8
––-END XLD SIGNATURE––-

Thanks to the Original ripper paczkipipco !