Subcategories

Andres Segovia - A Centenary Celebration (4CD, 1994)

Posted By: Speedyclick
Andres Segovia - A Centenary Celebration (4CD, 1994)

Andres Segovia - A Centenary Celebration (4CD, 1994)
EAC Rip | FLAC (image & cue & log) & mp3 @ 320 kbps | tracks: 79 | Scans | 4:52:16 | ~ 1,13 Gb & 717 Mb
Label: DECCA | 5% recovery record | Original recordings | Classical guitar, prose

This is a superb and rare collection of The Maestro. The first 3 CD include his most treasured pieces cut straight through the heart with great brilliance and virtuosity. Among them, there are 24 selections never previously available on CD. But what makes this box set unique, is the 4th CD, entitled "The Guitar and I", a touching 40 minutes autobiography, written and narrated in English and Spanish by Segovia himself. A really thrilling experience to hear the great Maestro's voice describing all his life step by step. A 'must have' for any classical guitar lover. Enjoy.

Andres Segovia - A Centenary Celebration (4CD, 1994)


Andres Segovia - A Centenary Celebration (4CD, 1994)

CD01 (1:11:42 | ~ 312 Mb & 179 Mb)

TRACKLIST
01. Pavana No. 1 in A minor (Milan)
02. Pavana No. 6 in D Major (Milan)
03. Pavana No. 4 in D Major (Milan)
04. Suite in D Minor: Prelude (Visee)
05. Suite in D Minor: Allemande (Visee)
06. Suite in D Minor: Bouree (Visee)
07. Suite in D Minor: Sarabande (Visee)
08. Suite in D Minor: Gavotte (Visee)
09. Suite in D Minor: Gigue (Visee)
10. Song and Galliard (Dowland)
11. Melancholy Galliard (Dowland)
12. Prelude (Purcell)
13. Minuet (Purcell)
14. A New Irish Tune (Purcell)
15. Sonata in A (D. Scarlatti)
16. Fantasie (S.L. Weiss)
17. Passacaglia (Frescobaldi)
18. Sonata in D Minor (Handel)
19. Prelude for Lute (Bach)
20. Siciliano (fr. Violin Sonata No.1) (Bach)
21. Gavotte en rondeau (fr. Violin Partita No.3) (Bach)
22. Chaconne (fr. Violin Partita No.2) (Bach)
23. Study: Allegretto in E, Op.32, No.2 (Sor)
24. Variations on a Theme by Mozart (Sor)
25. Prelude (after S.L. Weiss) (Ponce)
26. Allemande (after S.L. Weiss) (Ponce)
27. Romanza (Paganinni)


Exact Audio Copy V1.0 beta 3 from 29. August 2011

EAC extraction logfile from 11. July 2012, 22:16

Andrés Segovia / A Centenary Celebration (Disc 1)

Used drive : HL-DT-STDVDRAM GH10N Adapter: 1 ID: 1

Read mode : Secure
Utilize accurate stream : Yes
Defeat audio cache : Yes
Make use of C2 pointers : No

Read offset correction : 667
Overread into Lead-In and Lead-Out : No
Fill up missing offset samples with silence : Yes
Delete leading and trailing silent blocks : No
Null samples used in CRC calculations : Yes
Used interface : Native Win32 interface for Win NT & 2000

Used output format : User Defined Encoder
Selected bitrate : 1024 kBit/s
Quality : High
Add ID3 tag : Yes
Command line compressor : C:\Program Files\Exact Audio Copy New\Flac\flac.exe
Additional command line options : -V -5 -T "artist=%artist%" -T "title=%title%" -T "album=%albumtitle%" -T "tracknumber=%tracknr2%" -T "genre=%genre%" -5 %source%


TOC of the extracted CD

Track | Start | Length | Start sector | End sector
––––––––––––––––––––––––––––-
1 | 0:00.00 | 1:21.30 | 0 | 6104
2 | 1:21.30 | 0:51.07 | 6105 | 9936
3 | 2:12.37 | 1:02.35 | 9937 | 14621
4 | 3:14.72 | 0:38.70 | 14622 | 17541
5 | 3:53.67 | 2:28.60 | 17542 | 28701
6 | 6:22.52 | 0:43.58 | 28702 | 31984
7 | 7:06.35 | 1:44.45 | 31985 | 39829
8 | 8:51.05 | 0:56.30 | 39830 | 44059
9 | 9:47.35 | 1:16.47 | 44060 | 49806
10 | 11:04.07 | 2:53.43 | 49807 | 62824
11 | 13:57.50 | 2:32.72 | 62825 | 74296
12 | 16:30.47 | 0:37.53 | 74297 | 77124
13 | 17:08.25 | 1:28.05 | 77125 | 83729
14 | 18:36.30 | 1:07.42 | 83730 | 88796
15 | 19:43.72 | 3:40.08 | 88797 | 105304
16 | 23:24.05 | 2:36.57 | 105305 | 117061
17 | 26:00.62 | 4:04.10 | 117062 | 135371
18 | 30:04.72 | 3:31.65 | 135372 | 151261
19 | 33:36.62 | 1:19.00 | 151262 | 157186
20 | 34:55.62 | 3:17.73 | 157187 | 172034
21 | 38:13.60 | 2:58.10 | 172035 | 185394
22 | 41:11.70 | 13:57.62 | 185395 | 248231
23 | 55:09.57 | 1:47.00 | 248232 | 256256
24 | 56:56.57 | 7:04.33 | 256257 | 288089
25 | 64:01.15 | 1:50.35 | 288090 | 296374
26 | 65:51.50 | 2:39.25 | 296375 | 308324
27 | 68:31.00 | 3:11.05 | 308325 | 322654


Range status and errors

Selected range

Filename S:\MUSIC\Uploaded\Andres Segovia - A Centenary Celebration\ASCD1\Andrés Segovia - A Centenary Celebration (Disc 1).wav

Peak level 75.5 %
Extraction speed 6.2 X
Range quality 99.9 %
Test CRC 5F448D8F
Copy CRC 5F448D8F
Copy OK

No errors occurred


AccurateRip summary

Track 1 accurately ripped (confidence 2) [4DD0A82C] (AR v1)
Track 2 accurately ripped (confidence 2) [C5077181] (AR v1)
Track 3 accurately ripped (confidence 2) [0F7324F0] (AR v1)
Track 4 accurately ripped (confidence 2) [64CBD992] (AR v1)
Track 5 accurately ripped (confidence 2) [B92E7FFC] (AR v1)
Track 6 accurately ripped (confidence 2) [28E1DA65] (AR v1)
Track 7 accurately ripped (confidence 2) [AFDD3A7D] (AR v1)
Track 8 accurately ripped (confidence 2) [5CBF8F44] (AR v1)
Track 9 accurately ripped (confidence 2) [5C1DE000] (AR v1)
Track 10 accurately ripped (confidence 2) [FC21142A] (AR v1)
Track 11 accurately ripped (confidence 2) [B1C551F9] (AR v1)
Track 12 accurately ripped (confidence 2) [3D380224] (AR v1)
Track 13 accurately ripped (confidence 2) [EE03DBA9] (AR v1)
Track 14 accurately ripped (confidence 2) [F06B3E09] (AR v1)
Track 15 accurately ripped (confidence 2) [3FC1D87C] (AR v1)
Track 16 accurately ripped (confidence 2) [3B7723BE] (AR v1)
Track 17 accurately ripped (confidence 2) [4398BEFB] (AR v1)
Track 18 accurately ripped (confidence 2) [8C893726] (AR v1)
Track 19 accurately ripped (confidence 2) [84E69DFB] (AR v1)
Track 20 accurately ripped (confidence 2) [FCF830E9] (AR v1)
Track 21 accurately ripped (confidence 2) [67F871BC] (AR v1)
Track 22 not present in database
Track 23 accurately ripped (confidence 2) [67F59472] (AR v1)
Track 24 accurately ripped (confidence 2) [9660B986] (AR v1)
Track 25 accurately ripped (confidence 2) [7C39298C] (AR v1)
Track 26 accurately ripped (confidence 2) [104DBAA8] (AR v1)
Track 27 accurately ripped (confidence 2) [2F7B6672] (AR v1)

26 track(s) accurately ripped
1 track(s) not present in the AccurateRip database

Some tracks could not be verified as accurate

End of status report

–– CUETools DB Plugin V2.1.3

[CTDB TOCID: ICoZqad2PC2jy7.iCJdAUSO.RBA-] disk not present in database, Submit result: ICoZqad2PC2jy7.iCJdAUSO.RBA- has been uploaded


==== Log checksum 28AF6012B771D309D0835A9091C5AF2E89C25E84B5B5948A2F005511FE29DBBB ====

Andres Segovia - A Centenary Celebration (4CD, 1994)

CD02 (1:11:18 | ~ 291 Mb & 175 Mb)

TRACKLIST
01. Leyenda (Albeniz)
02. Estudio Brillante (Tarrega)
03. Marieta (Mazurka) (Tarrega)
04. Capricho Arabe (Tarrega)
05. Recuerdos de la Alhambra (Tarrega)
06. Tonadilla (La Maja de Goya) (Granados)
07. Danza Espanola No.10 in G (Granados)
08. Torija (Elegia) (fr. 'Castles of Spain') (Torraba)
09. Montemayer (Contemplacion) (fr. 'Castles of Spain' (Torroba)
10. Sonatina in A: I. Allegretto (Torroba)
11. Sonatina in A: II. Andante (Torroba)
12. Sonatina in A: III. Allegro (Torroba)
13. Dos Impressiones Levantinas: I. Andante (Espla)
14. Dos Impressiones Levantinas: II. Andante (Espla)
15. Cancion (Ponce)
16. Cancion y Paisage (Ponce)
17. Prelude No.6 (Moderato espressivo) (Ponce)
18. Prelude No.9 (Allegretto vivo) (Ponce)
19. Prelude No.1 (Tranquillo) (Ponce)
20. Theme, Variations and Finale (Ponce)
21. Dance from Venzuela (Lauro)
22. Guitarreo (Pedrell)

Exact Audio Copy V1.0 beta 3 from 29. August 2011

EAC extraction logfile from 11. July 2012, 22:57

Andrés Segovia / A Centenary Celebration (Disc 2)

Used drive : HL-DT-STDVDRAM GH10N Adapter: 1 ID: 1

Read mode : Secure
Utilize accurate stream : Yes
Defeat audio cache : Yes
Make use of C2 pointers : No

Read offset correction : 667
Overread into Lead-In and Lead-Out : No
Fill up missing offset samples with silence : Yes
Delete leading and trailing silent blocks : No
Null samples used in CRC calculations : Yes
Used interface : Native Win32 interface for Win NT &

2000

Used output format : User Defined Encoder
Selected bitrate : 1024 kBit/s
Quality : High
Add ID3 tag : Yes
Command line compressor : C:\Program Files\Exact Audio Copy New\Flac

\flac.exe
Additional command line options : -V -5 -T "artist=%artist%" -T "title=%title%" -T

"album=%albumtitle%" -T "tracknumber=%tracknr2%" -T "genre=%genre%" -5 %source%


TOC of the extracted CD

Track | Start | Length | Start sector | End sector
––––––––––––––––––––––––––––-
1 | 0:00.00 | 6:25.65 | 0 | 28939
2 | 6:25.65 | 2:03.57 | 28940 | 38221
3 | 8:29.47 | 2:19.38 | 38222 | 48684
4 | 10:49.10 | 5:24.70 | 48685 | 73054
5 | 16:14.05 | 5:12.62 | 73055 | 96516
6 | 21:26.67 | 4:17.33 | 96517 | 115824
7 | 25:44.25 | 4:00.10 | 115825 | 133834
8 | 29:44.35 | 2:12.42 | 133835 | 143776
9 | 31:57.02 | 1:37.63 | 143777 | 151114
10 | 33:34.65 | 3:40.57 | 151115 | 167671
11 | 37:15.47 | 4:05.35 | 167672 | 186081
12 | 41:21.07 | 3:38.10 | 186082 | 202441
13 | 44:59.17 | 1:40.55 | 202442 | 209996
14 | 46:39.72 | 1:49.33 | 209997 | 218204
15 | 48:29.30 | 3:00.00 | 218205 | 231704
16 | 51:29.30 | 4:26.37 | 231705 | 251691
17 | 55:55.67 | 1:27.33 | 251692 | 258249
18 | 57:23.25 | 0:38.05 | 258250 | 261104
19 | 58:01.30 | 1:15.52 | 261105 | 266781
20 | 59:17.07 | 7:56.50 | 266782 | 302531
21 | 67:13.57 | 2:37.10 | 302532 | 314316
22 | 69:50.67 | 1:27.10 | 314317 | 320851


Range status and errors

Selected range

Filename S:\MUSIC\Uploaded\Andres Segovia - A Centenary Celebration

\ASCD2\Andrés Segovia - A Centenary Celebration (Disc 2).wav

Peak level 98.4 %
Extraction speed 6.2 X
Range quality 100.0 %
Test CRC 0F6D6198
Copy CRC 0F6D6198
Copy OK

No errors occurred


AccurateRip summary

Track 1 accurately ripped (confidence 2) [B956A340] (AR v1)
Track 2 accurately ripped (confidence 2) [3EFCC539] (AR v1)
Track 3 accurately ripped (confidence 2) [F9DB60DB] (AR v1)
Track 4 accurately ripped (confidence 2) [5784F0F6] (AR v1)
Track 5 accurately ripped (confidence 2) [6F41DD1A] (AR v1)
Track 6 accurately ripped (confidence 2) [A4529020] (AR v1)
Track 7 accurately ripped (confidence 2) [E74D40E8] (AR v1)
Track 8 accurately ripped (confidence 2) [8FB87632] (AR v1)
Track 9 accurately ripped (confidence 2) [5657D82C] (AR v1)
Track 10 accurately ripped (confidence 2) [8A6471DB] (AR v1)
Track 11 accurately ripped (confidence 2) [362EC84F] (AR v1)
Track 12 accurately ripped (confidence 1) [0F738578] (AR v1)
Track 13 accurately ripped (confidence 2) [7EF5C23D] (AR v1)
Track 14 accurately ripped (confidence 2) [1720C5D5] (AR v1)
Track 15 accurately ripped (confidence 2) [299312A0] (AR v1)
Track 16 accurately ripped (confidence 2) [C5383354] (AR v1)
Track 17 accurately ripped (confidence 2) [BDB0675D] (AR v1)
Track 18 accurately ripped (confidence 2) [F3623AD6] (AR v1)
Track 19 accurately ripped (confidence 2) [7DDF5995] (AR v1)
Track 20 accurately ripped (confidence 2) [75200B0D] (AR v1)
Track 21 accurately ripped (confidence 2) [308CFC56] (AR v1)
Track 22 accurately ripped (confidence 2) [F237939D] (AR v1)

All tracks accurately ripped

End of status report

–– CUETools DB Plugin V2.1.3

[CTDB TOCID: Y3ljfCNJAioaQJCFmvCtpEHQc9A-] disk not present in database, Submit

result: Y3ljfCNJAioaQJCFmvCtpEHQc9A- has been uploaded


==== Log checksum 14C9161871DF3BEDDC37BC685ADDF76C531B6879336982C09BC8A48B7D59AEFC ====

Andres Segovia - A Centenary Celebration (4CD, 1994)

CD03 (1:12:06 | ~ 314 Mb & 177 Mb)

TRACKLIST
01. Ponce - Concierto del Sur (Allegretto)
02. Ponce - Concierto del Sur (Andante)
03. Ponce - Concierto del Sur (Allegro)
04. Tedesco - Platero
05. Tedesco - Melencolia
06. Tedesco - Golondrinas
07. Tedesco - Tonadilla for Guitar
08. Mompou - Preludio (Suite Compostelana)
09. Mompou - Cancion (Suite Compostelana)
10. Tansman - Kolisanka #2
11. Tansman - Oberek
12. Villa-Lobos - Prelude #1
13. Villa-Lobos - Study #1
14. Cassado - Sardana
15. Donostia - Dolor
16. Debussy - Prelude: La fille aux cheveux de lin
17. Scriabin - Prelude #4
18. Segovia - Estudio sin luz

Exact Audio Copy V1.0 beta 3 from 29. August 2011

EAC extraction logfile from 12. July 2012, 1:48

Andres Segovia / A Centenary Celebration (Disk 3)

Used drive : HL-DT-STDVDRAM GH10N Adapter: 1 ID: 1

Read mode : Secure
Utilize accurate stream : Yes
Defeat audio cache : Yes
Make use of C2 pointers : No

Read offset correction : 667
Overread into Lead-In and Lead-Out : No
Fill up missing offset samples with silence : Yes
Delete leading and trailing silent blocks : No
Null samples used in CRC calculations : Yes
Used interface : Native Win32 interface for Win NT & 2000

Used output format : User Defined Encoder
Selected bitrate : 1024 kBit/s
Quality : High
Add ID3 tag : Yes
Command line compressor : C:\Program Files\Exact Audio Copy New\Flac\flac.exe
Additional command line options : -V -5 -T "artist=%artist%" -T "title=%title%" -T "album=%albumtitle%" -T "tracknumber=%tracknr2%" -T "genre=%genre%" -5 %source%


TOC of the extracted CD

Track | Start | Length | Start sector | End sector
––––––––––––––––––––––––––––-
1 | 0:00.00 | 13:00.17 | 0 | 58516
2 | 13:00.17 | 6:24.73 | 58517 | 87389
3 | 19:25.15 | 5:57.52 | 87390 | 114216
4 | 25:22.67 | 2:45.73 | 114217 | 126664
5 | 28:08.65 | 4:16.37 | 126665 | 145901
6 | 32:25.27 | 4:11.33 | 145902 | 164759
7 | 36:36.60 | 5:09.05 | 164760 | 187939
8 | 41:45.65 | 3:22.47 | 187940 | 203136
9 | 45:08.37 | 2:58.28 | 203137 | 216514
10 | 48:06.65 | 2:21.25 | 216515 | 227114
11 | 50:28.15 | 2:21.50 | 227115 | 237739
12 | 52:49.65 | 4:20.02 | 237740 | 257241
13 | 57:09.67 | 2:02.70 | 257242 | 266461
14 | 59:12.62 | 3:53.38 | 266462 | 283974
15 | 63:06.25 | 2:13.40 | 283975 | 293989
16 | 65:19.65 | 2:54.05 | 293990 | 307044
17 | 68:13.70 | 1:08.37 | 307045 | 312181
18 | 69:22.32 | 2:43.45 | 312182 | 324451


Range status and errors

Selected range

Filename S:\MUSIC\Uploaded\Andres Segovia - A Centenary Celebration\ASCD3\Andres Segovia - A Centenary Celebration (Disk 3).wav

Peak level 100.0 %
Extraction speed 6.1 X
Range quality 100.0 %
Test CRC 98BC43FC
Copy CRC 98BC43FC
Copy OK

No errors occurred


AccurateRip summary

Track 1 cannot be verified as accurate (confidence 2) [DC74FDA2], AccurateRip returned [C90E4B64] (AR v2)
Track 2 cannot be verified as accurate (confidence 2) [4484A98B], AccurateRip returned [5D8A2EB1] (AR v2)
Track 3 cannot be verified as accurate (confidence 2) [52AEBAEB], AccurateRip returned [81882623] (AR v2)
Track 4 cannot be verified as accurate (confidence 2) [17633013], AccurateRip returned [90931DFB] (AR v2)
Track 5 cannot be verified as accurate (confidence 2) [33FCF606], AccurateRip returned [3D01E224] (AR v2)
Track 6 cannot be verified as accurate (confidence 2) [FCDD04A9], AccurateRip returned [A46F57E1] (AR v2)
Track 7 cannot be verified as accurate (confidence 2) [1F6FFA6E], AccurateRip returned [C2DDFE2C] (AR v2)
Track 8 cannot be verified as accurate (confidence 2) [D210CB6F], AccurateRip returned [2E411686] (AR v2)
Track 9 cannot be verified as accurate (confidence 2) [A6C2DD24], AccurateRip returned [4C77C300] (AR v2)
Track 10 cannot be verified as accurate (confidence 2) [ED3EDD0A], AccurateRip returned [2FDEAFE3] (AR v2)
Track 11 cannot be verified as accurate (confidence 2) [5D49DE92], AccurateRip returned [F5F5A858] (AR v2)
Track 12 cannot be verified as accurate (confidence 2) [B71B696F], AccurateRip returned [94551F17] (AR v2)
Track 13 cannot be verified as accurate (confidence 2) [967E6B3F], AccurateRip returned [728C5D71] (AR v2)
Track 14 cannot be verified as accurate (confidence 2) [294672C0], AccurateRip returned [1BEE82DF] (AR v2)
Track 15 cannot be verified as accurate (confidence 2) [E997AB64], AccurateRip returned [F9443DF7] (AR v2)
Track 16 cannot be verified as accurate (confidence 2) [62C7A231], AccurateRip returned [FE71A2E0] (AR v2)
Track 17 cannot be verified as accurate (confidence 2) [2D851E62], AccurateRip returned [67D74BC3] (AR v2)
Track 18 cannot be verified as accurate (confidence 2) [7EC2D4E1], AccurateRip returned [7CED819F] (AR v2)

No tracks could be verified as accurate
You may have a different pressing from the one(s) in the database

End of status report

–– CUETools DB Plugin V2.1.3

[CTDB TOCID: 3OEm07mFDKL3OG9Eixbi68hysiM-] found, Submit result: 3OEm07mFDKL3OG9Eixbi68hysiM- has been confirmed
[c9ac80a1] (1/1) Accurately ripped


==== Log checksum 71296844E5550D8235FEB0BDDDD6D3EF56B0959DCA7669603730C8D51ABEAAE4 ====

Andres Segovia - A Centenary Celebration (4CD, 1994)

CD04:The Guitar and I (1:17:10 | ~ 244 Mb & 186 Mb)

TRACKLIST
01. Linares
02. Granada
03. Cordoba
04. My first exposure to classic and romantic music
05. Early concerts in Granada and Sevilla
06. My first concert guitar
07. Linares
08. Granada
09. Cordoba
10. Mi primera revelacion de musica clasica y romantica
11. Primeros conciertos en Granada y Sevilla
12. Mi primera guitarra de concierto

Exact Audio Copy V1.0 beta 3 from 29. August 2011

EAC extraction logfile from 12. July 2012, 3:22

Andres Segovia / A Centenary Celebration CD4

Used drive : HL-DT-STDVDRAM GH10N Adapter: 1 ID: 1

Read mode : Secure
Utilize accurate stream : Yes
Defeat audio cache : Yes
Make use of C2 pointers : No

Read offset correction : 667
Overread into Lead-In and Lead-Out : No
Fill up missing offset samples with silence : Yes
Delete leading and trailing silent blocks : No
Null samples used in CRC calculations : Yes
Used interface : Native Win32 interface for Win NT & 2000

Used output format : User Defined Encoder
Selected bitrate : 1024 kBit/s
Quality : High
Add ID3 tag : Yes
Command line compressor : C:\Program Files\Exact Audio Copy New\Flac\flac.exe
Additional command line options : -V -5 -T "artist=%artist%" -T "title=%title%" -T "album=%albumtitle%" -T "tracknumber=%tracknr2%" -T "genre=%genre%" -5 %source%


TOC of the extracted CD

Track | Start | Length | Start sector | End sector
––––––––––––––––––––––––––––-
1 | 0:00.00 | 3:15.00 | 0 | 14624
2 | 3:15.00 | 11:35.42 | 14625 | 66791
3 | 14:50.42 | 3:19.25 | 66792 | 81741
4 | 18:09.67 | 7:39.55 | 81742 | 116221
5 | 25:49.47 | 6:15.48 | 116222 | 144394
6 | 32:05.20 | 6:49.42 | 144395 | 175111
7 | 38:54.62 | 2:51.60 | 175112 | 187996
8 | 41:46.47 | 9:27.30 | 187997 | 230551
9 | 51:14.02 | 6:36.23 | 230552 | 260274
10 | 57:50.25 | 7:54.52 | 260275 | 295876
11 | 65:45.02 | 5:17.13 | 295877 | 319664
12 | 71:02.15 | 6:07.60 | 319665 | 347249


Range status and errors

Selected range

Filename S:\MUSIC\Uploaded\Andres Segovia - A Centenary Celebration\ASCD4\Andres Segovia - A Centenary Celebration CD4.wav

Peak level 72.3 %
Extraction speed 6.2 X
Range quality 99.9 %
Test CRC 810BC0F5
Copy CRC 810BC0F5
Copy OK

No errors occurred


AccurateRip summary

Track 1 cannot be verified as accurate (confidence 2) [441DC867], AccurateRip returned [3D9551D0] (AR v2)
Track 2 cannot be verified as accurate (confidence 2) [48F11A94], AccurateRip returned [D3CA7D5D] (AR v2)
Track 3 cannot be verified as accurate (confidence 2) [B97817B5], AccurateRip returned [F4F40EE4] (AR v2)
Track 4 cannot be verified as accurate (confidence 2) [5947C66D], AccurateRip returned [ECF4D5E7] (AR v2)
Track 5 not present in database
Track 6 cannot be verified as accurate (confidence 2) [2119C740], AccurateRip returned [3B9147F1] (AR v2)
Track 7 cannot be verified as accurate (confidence 2) [424C4D95], AccurateRip returned [04073FCB] (AR v2)
Track 8 cannot be verified as accurate (confidence 2) [0C9F1BAA], AccurateRip returned [A320F48B] (AR v2)
Track 9 cannot be verified as accurate (confidence 2) [D97DBFD1], AccurateRip returned [49E522E8] (AR v2)
Track 10 cannot be verified as accurate (confidence 2) [21222A05], AccurateRip returned [DDFBD805] (AR v2)
Track 11 cannot be verified as accurate (confidence 2) [3596FF46], AccurateRip returned [9ED93F42] (AR v2)
Track 12 cannot be verified as accurate (confidence 2) [A5DA4381], AccurateRip returned [E5925EEF] (AR v2)

11 track(s) could not be verified as accurate
1 track(s) not present in the AccurateRip database

No tracks could be verified as accurate
You may have a different pressing from the one(s) in the database

End of status report

–– CUETools DB Plugin V2.1.3

[CTDB TOCID: P4juy9snCOJz8UDKYMNANUQ6I9s-] found, Submit result: P4juy9snCOJz8UDKYMNANUQ6I9s- has been confirmed
[acaed9e0] (1/1) Accurately ripped


==== Log checksum 8513B47BF76813B4C1B7079291D63723944811CEAB3CC0D83731B30B29CD466C ====