Subcategories

Senyawa - Sujud (2018)

Posted By: aasana
Senyawa - Sujud (2018)

Senyawa - Sujud (2018)
EAC Rip | FLAC (tracks+.cue+.log) | 38:39 min | 198 MB
World, Ethnic, Folk, Electronic | Label: Sublime Frequencies

Senyawa stir primordial spirits in the cosmically heavy doom and psych explorations of ‘Sujud’, the Indonesian duo’s stellar debut with Sublime Frequencies.

Since arriving to global underground acclaim in 2015 with the ‘Menjadi’ LP on Rabih Beaini’s Morphine Records, Senyawa have established themselves among the most beguiling acts in circulation right now by meshing traditional Indonesian music with elements of doom metal and free improvisation to realise a sound truly without precedent.

Judging by what we’ve previously heard from Rully Shabara Herman and Wukir Suryadi’s duo, ‘Sujud’ is unmistakably their definitive and most powerful album yet. Across seven tracks they explore phantasmagoric scenes of throat singing and abyss-staring doom guitars on the incredible ‘Tanggalkan Di Dunia’, alogn with paralysingly haunting psych-folk on the title track, before jamming gibber-jawed vocals and churning metal riffs on ‘Perjuru Menyatu’, and rounding out with the possessed vocals and grunting guitars of ‘Kembali Ke Dunia’.

“Sujud, their premier release on the Sublime Frequencies label, is the latest chapter of this very special and singular sound of the past, present, and future. The basic theme of the record can be summed up with one extremely powerful Bahasa Indonesian word, Tanah, which translates to "soil-ground-land-earth". Shabara's vocals are an expressive force, conjuring spirits from the soil with a deep humility and respect for the land and their existence in the universe. Suryadi has built a new guitar for these tracks and pushes the Senyawa sound into new territory, utilizing delay, loops, and other effects creating grounded backdrops of folk metal, punk attitudinal, and droning earthscapes - providing Shabara the perfect context to explore his whispering poetry and jagged, sharp-as-a-kris animistic powers. There is simply no other sound like it and Sublime Frequencies is thrilled to present this new direction in their discography.”

Tracklist:
8:24 | 01. Senyawa - Tanggalkan Di Dunia (Undo The World)
9:21 | 02. Senyawa - Sujud (Prostration)
2:11 | 03. Senyawa - Terbertaktilah Tanah Ini (Blessed Is This Land)
6:50 | 04. Senyawa - Penjuru Menyatu (Unified Counters)
1:28 | 05. Senyawa - Kehendak (Will)
4:29 | 06. Senyawa - Kebaikan Tumbuh Dari Tanah (Goodness Grows Off Soil)
5:56 | 07. Senyawa - Kembali Ke Dunia (Return To The World)

Exact Audio Copy V1.3 from 2. September 2016

EAC extraction logfile from 15. June 2019, 14:46

Senyawa / Sujud

Used drive : ASUS DRW-24B1ST j Adapter: 2 ID: 0

Read mode : Secure
Utilize accurate stream : Yes
Defeat audio cache : Yes
Make use of C2 pointers : No

Read offset correction : 6
Overread into Lead-In and Lead-Out : No
Fill up missing offset samples with silence : Yes
Delete leading and trailing silent blocks : No
Null samples used in CRC calculations : Yes
Used interface : Installed external ASPI interface
Gap handling : Appended to previous track

Used output format : User Defined Encoder
Selected bitrate : 896 kBit/s
Quality : High
Add ID3 tag : No
Command line compressor : C:\Program Files\Exact Audio Copy\Flac\flac.exe
Additional command line options : -8 -V -T "ARTIST=%artist%" -T "TITLE=%title%" -T "ALBUM=%albumtitle%" -T "DATE=%year%" -T "TRACKNUMBER=%tracknr%" -T "GENRE=%genre%" -T "PERFORMER=%albuminterpret%" -T "COMPOSER=%composer%" %haslyrics%–tag-from-file=LYRICS="%lyricsfile%"%haslyrics% -T "ALBUMARTIST=%albumartist%" -T "DISCNUMBER=%cdnumber%" -T "TOTALDISCS=%totalcds%" -T "TOTALTRACKS=%numtracks%" -T "COMMENT=%comment%" %source% -o %dest%


TOC of the extracted CD

Track | Start | Length | Start sector | End sector
––––––––––––––––––––––––––––-
1 | 0:00.00 | 8:24.50 | 0 | 37849
2 | 8:24.50 | 9:20.61 | 37850 | 79910
3 | 17:45.36 | 2:11.29 | 79911 | 89764
4 | 19:56.65 | 6:50.13 | 89765 | 120527
5 | 26:47.03 | 1:28.02 | 120528 | 127129
6 | 28:15.05 | 4:28.52 | 127130 | 147281
7 | 32:43.57 | 5:56.49 | 147282 | 174030


Track 1

Filename C:\EAC Rips\Senyawa - Sujud (2018) [FLAC]\01 - Tanggalkan Di Dunia.wav

Pre-gap length 0:00:02.00

Peak level 92.8 %
Extraction speed 5.8 X
Track quality 100.0 %
Test CRC C8788891
Copy CRC C8788891
Track not present in AccurateRip database
Copy OK

Track 2

Filename C:\EAC Rips\Senyawa - Sujud (2018) [FLAC]\02 - Sujud.wav

Peak level 70.3 %
Extraction speed 7.0 X
Track quality 100.0 %
Test CRC 2119CB2B
Copy CRC 2119CB2B
Track not present in AccurateRip database
Copy OK

Track 3

Filename C:\EAC Rips\Senyawa - Sujud (2018) [FLAC]\03 - Terbertaktilah Tanah Ini.wav

Peak level 82.3 %
Extraction speed 6.4 X
Track quality 100.0 %
Test CRC 231BCBD1
Copy CRC 231BCBD1
Track not present in AccurateRip database
Copy OK

Track 4

Filename C:\EAC Rips\Senyawa - Sujud (2018) [FLAC]\04 - Penjuru Menyatu.wav

Peak level 94.2 %
Extraction speed 7.9 X
Track quality 100.0 %
Test CRC A672D9CA
Copy CRC A672D9CA
Track not present in AccurateRip database
Copy OK

Track 5

Filename C:\EAC Rips\Senyawa - Sujud (2018) [FLAC]\05 - Kehendak.wav

Peak level 86.3 %
Extraction speed 6.3 X
Track quality 100.0 %
Test CRC 2BC64AC9
Copy CRC 2BC64AC9
Track not present in AccurateRip database
Copy OK

Track 6

Filename C:\EAC Rips\Senyawa - Sujud (2018) [FLAC]\06 - Kebaikan Tumbuh Dari Tanah.wav

Peak level 78.8 %
Extraction speed 8.3 X
Track quality 100.0 %
Test CRC CAD96632
Copy CRC CAD96632
Track not present in AccurateRip database
Copy OK

Track 7

Filename C:\EAC Rips\Senyawa - Sujud (2018) [FLAC]\07 - Kembali Ke Dunia.wav

Peak level 88.4 %
Extraction speed 8.9 X
Track quality 100.0 %
Test CRC 6228E7B2
Copy CRC 6228E7B2
Track not present in AccurateRip database
Copy OK


None of the tracks are present in the AccurateRip database

No errors occurred

End of status report

==== Log checksum 79DABD0C432D720265195676481BF61D4A13ADFCDAB4A059AA50069374C280B6 ====