Subcategories

Shirley Horn - Ultimate Shirley Horn (Selected by Diana Krall) (1999)

Posted By: Domestos
Shirley Horn - Ultimate Shirley Horn (Selected by Diana Krall) (1999)

Shirley Horn - Ultimate Shirley Horn (Selected by Diana Krall) (1999)
EAC Rip | FLAC (tracks+.cue, log) ~ 342.92 Mb | 1:03:20 | Cover
Vocal Jazz | Country: USA | Label: Verve Records

Verve's Ultimate Shirley Horn may not live up to its billing, but the budget-priced collection is nevertheless a terrific introductory sampler. Diana Krall selected the 17 songs on the compilation; she also wrote the liner notes, and she has done an excellent job of summarizing Horn's latter-day recordings for Verve, which is when Horn truly began to hit her stride. Some may argue that a favorite or two are missing, but by and large, these 17 songs capture the essence of Horn, which is enough to make this a worthwhile sampler. ~ AllMusic Review by Stephen Thomas Erlewine

This 16-track compilation was put together by vocalist-pianist Diana Krall as part of Verve's Ultimate series, in which younger artists selected their favorite recordings by influential jazz masters. Krall's tasteful choices draw from Horn's 1980s and '90s releases I Thought About You, Close Enough for Love,You Won't Forget Me, Here's to Life, Light out of Darkness, and I Remember Miles. There are also two selections from her 1963 debut, Loads of Love/Shirley Horn with Horns. Horn's voice sounds lighter and clearer on these tracks, and the stock studio arrangements lack the sparse, fine-tuned phrasing of her trio. But the rudiments of her distinctive style were already in place when she made these early recordings. - Rick Mitchell

Track List:
01. Come Dance With Me
02. Come a Little Closer,Wild is the Wind
03. Hard-Heartes Hannah, the vamp of Savannah
04. Only the Lonely
05. Something Happens to Me
06. I Fall in Love Too Easily
07. Foolin Myself
08. A Time for Love
09. Get Out of Town
10. Do It Again
11. (Being) Green
12. The Eagle and Me
13. Summer (Estate)
14. Baby, Baby, All the Time
15. I Wanna Be Loved
16. Hit the Road

Exact Audio Copy V0.99 prebeta 4 from 23. January 2008

EAC extraction logfile from 31. January 2009, 16:34

Shirley Horn / Ultimate

Used drive : ATAPI DVD A DH20A4P Adapter: 2 ID: 0

Read mode : Secure
Utilize accurate stream : Yes
Defeat audio cache : Yes
Make use of C2 pointers : No

Read offset correction : 6
Overread into Lead-In and Lead-Out : No
Fill up missing offset samples with silence : Yes
Delete leading and trailing silent blocks : No
Null samples used in CRC calculations : Yes
Used interface : Native Win32 interface for Win NT & 2000
Gap handling : Appended to previous track

Used output format : Internal WAV Routines
Sample format : 44.100 Hz; 16 Bit; Stereo


TOC of the extracted CD

Track | Start | Length | Start sector | End sector
––––––––––––––––––––––––––––-
1 | 0:00.00 | 2:51.42 | 0 | 12866
2 | 2:51.42 | 7:28.23 | 12867 | 46489
3 | 10:19.65 | 3:37.47 | 46490 | 62811
4 | 13:57.37 | 3:08.25 | 62812 | 76936
5 | 17:05.62 | 3:31.68 | 76937 | 92829
6 | 20:37.55 | 5:41.20 | 92830 | 118424
7 | 26:19.00 | 2:51.10 | 118425 | 131259
8 | 29:10.10 | 6:46.57 | 131260 | 161766
9 | 35:56.67 | 2:53.33 | 161767 | 174774
10 | 38:50.25 | 2:59.37 | 174775 | 188236
11 | 41:49.62 | 3:17.53 | 188237 | 203064
12 | 45:07.40 | 3:05.35 | 203065 | 216974
13 | 48:13.00 | 7:40.27 | 216975 | 251501
14 | 55:53.27 | 2:47.38 | 251502 | 264064
15 | 58:40.65 | 4:39.50 | 264065 | 285039
16 | 63:20.40 | 3:09.32 | 285040 | 299246


Track 1

Filename F:\My Documents\Uploads\01. Come Dance With Me.wav

Pre-gap length 0:00:02.00

Peak level 82.8 %
Track quality 100.0 %
Copy CRC 83DA085A
Copy OK

Track 2

Filename F:\My Documents\Uploads\02. Come a Little Closer,Wild is the Wind.wav

Pre-gap length 0:00:01.56

Peak level 67.5 %
Track quality 100.0 %
Copy CRC DBF5553A
Copy OK

Track 3

Filename F:\My Documents\Uploads\03. Hard-Heartes Hannah, the vamp of Savannah.wav

Pre-gap length 0:00:01.14

Peak level 99.5 %
Track quality 100.0 %
Copy CRC 49CCEC7E
Copy OK

Track 4

Filename F:\My Documents\Uploads\04. Only the Lonely.wav

Pre-gap length 0:00:01.56

Peak level 53.2 %
Track quality 100.0 %
Copy CRC 968EF22E
Copy OK

Track 5

Filename F:\My Documents\Uploads\05. Something HAppens to Me.wav

Pre-gap length 0:00:02.51

Peak level 98.7 %
Track quality 100.0 %
Copy CRC 63153784
Copy OK

Track 6

Filename F:\My Documents\Uploads\06. I Fall in Love Too Easily.wav

Pre-gap length 0:00:02.34

Peak level 73.7 %
Track quality 100.0 %
Copy CRC 3DCDBF63
Copy OK

Track 7

Filename F:\My Documents\Uploads\07. Foolin Myself.wav

Pre-gap length 0:00:02.37

Peak level 89.3 %
Track quality 100.0 %
Copy CRC D59E7F5C
Copy OK

Track 8

Filename F:\My Documents\Uploads\08. A Time for Love.wav

Pre-gap length 0:00:02.34

Peak level 50.8 %
Track quality 99.9 %
Copy CRC 9185D9C9
Copy OK

Track 9

Filename F:\My Documents\Uploads\09. Get Out of Town.wav

Pre-gap length 0:00:02.36

Peak level 67.3 %
Track quality 100.0 %
Copy CRC 95DD7D98
Copy OK

Track 10

Filename F:\My Documents\Uploads\10. Do It Again.wav

Pre-gap length 0:00:02.34

Peak level 78.2 %
Track quality 100.0 %
Copy CRC D3E9D590
Copy OK

Track 11

Filename F:\My Documents\Uploads\11. (Being) Green.wav

Pre-gap length 0:00:02.34

Peak level 77.8 %
Track quality 100.0 %
Copy CRC 0B044665
Copy OK

Track 12

Filename F:\My Documents\Uploads\12. The Eagle and Me.wav

Pre-gap length 0:00:02.34

Peak level 95.6 %
Track quality 100.0 %
Copy CRC 9ACF3DB6
Copy OK

Track 13

Filename F:\My Documents\Uploads\13. Summer (Estate).wav

Pre-gap length 0:00:02.37

Peak level 65.6 %
Track quality 100.0 %
Copy CRC E9555363
Copy OK

Track 14

Filename F:\My Documents\Uploads\14. Baby, Baby, All the Time.wav

Pre-gap length 0:00:02.36

Peak level 78.5 %
Track quality 100.0 %
Copy CRC 4CF8B6BF
Copy OK

Track 15

Filename F:\My Documents\Uploads\15. I Wanna Be Loved.wav

Pre-gap length 0:00:02.34

Peak level 45.1 %
Track quality 100.0 %
Copy CRC C84B0D6D
Copy OK

Track 16

Filename F:\My Documents\Uploads\16. Hit the Road, Jack.wav

Pre-gap length 0:00:02.34

Peak level 95.2 %
Track quality 100.0 %
Copy CRC 493E68AC
Copy OK

No errors occurred

End of status report

All thanks go to the audiA8d3

More Music in My Blog
Follow My RSS Channel