Subcategories

Shonen Knife - Brown Mushrooms And Other Delights (CDS 1993) RESTORED

Posted By: Rehabilly
Shonen Knife - Brown Mushrooms And Other Delights (CDS 1993) RESTORED

Shonen Knife - Brown Mushrooms And Other Delights (CDS)
EAC | FLAC+CUE+LOG or MP3 CBR 320 | 14:48 min | 100 or 34 MB
The lead single from the "Rock Animals" album

Here's a chance to pick up Strawberry Cream Puff, a nice song about Naoko's obsession with the things, without having to dig up the Japanese version of Rock Animals. Plus, you get SHONEN KNIFE's take on a classic the Kinks' song. Those are the highlights of this EP, which preceded the release of Rock Animals…




Tracklist:

01. Brown Mushrooms (Single Version)
02. Butterfly Boy (F.I. Mix)
03. Strawberry Cream Puff
04. Till The End Of The Day

Track 1 & 3 written by Naoko Yamano, 2 by Michie Nakatani
& 4 by Ray Davies (The Kinks cover)


Exact Audio Copy V0.99 prebeta 5 from 4. May 2009

EAC extraction logfile from 6. July 2010, 21:19

Shonen Knife / Brown Mushrooms And Other Delights

Used drive : PIONEER DVD-RW DVR-116D Adapter: 1 ID: 0

Read mode : Secure
Utilize accurate stream : Yes
Defeat audio cache : Yes
Make use of C2 pointers : No

Read offset correction : 96
Overread into Lead-In and Lead-Out : No
Fill up missing offset samples with silence : Yes
Delete leading and trailing silent blocks : No
Null samples used in CRC calculations : Yes
Used interface : Installed external ASPI interface

Used output format : Internal WAV Routines
Sample format : 44.100 Hz; 16 Bit; Stereo


TOC of the extracted CD

Track | Start | Length | Start sector | End sector
––––––––––––––––––––––––––––-
1 | 0:00.00 | 4:16.02 | 0 | 19201
2 | 4:16.02 | 5:03.15 | 19202 | 41941
3 | 9:19.17 | 3:16.70 | 41942 | 56711
4 | 12:36.12 | 2:11.55 | 56712 | 66591


Range status and errors

Selected range

Filename C:\AvaxHome.ru\1993- Brown Mushrooms And Other Delights (CDS)\Shonen Knife - Brown Mushrooms And Other Delights (CDS).wav

Peak level 97.5 %
Range quality 100.0 %
Test CRC 1C85FFA0
Copy CRC 1C85FFA0
Copy OK

No errors occurred


AccurateRip summary

Track 1 accurately ripped (confidence 2) [22DB9E45]
Track 2 accurately ripped (confidence 3) [DCDD6EE2]
Track 3 accurately ripped (confidence 2) [4D776893]
Track 4 accurately ripped (confidence 2) [78B2295F]

All tracks accurately ripped

End of status report



Produced by Page Porrazzo & Shonen Knife
Track "4" is mixed in MONO by Ohji Hayashi.

• Naoko Yamano - vocals, guitars
• Michie Nakatani – bass, vocals
• Atsuko Yamano - drums, vocals

Release Date: November 23, 1993
Label: Virgin Records America, Inc.
Catalog No.: V25H-38414-2

The Right choice*
http://www.uploadable.ch/file/43FTryz5DFAH/SHK193BMCDS902FC.rar

lossy.mp3
http://www.uploadable.ch/file/9rFF8rr7gjeu/SHK193BMCDS20GC.rar


* EAC Image, embedded cuesheet & more, foobar2000 ready, etc.
(all CUEs, LOGs and other technical info includes in the internal "CD_Support" archive)
Covers packed in both types of archives.