Subcategories

Silje Nergaard - For You A Thousand Times (2017)

Posted By: Domestos
Silje Nergaard - For You A Thousand Times (2017)

Silje Nergaard - For You A Thousand Times (2017)
EAC Rip | APE (image+.cue, log) ~ 270.07 Mb | 46:38 | Covers
Vocal Jazz | Country: Norway | Label: Okeh

Silje Nergaard is without question Norway’s all-time best selling Jazz artist worldwide with 15 albums released over a career that spans 20 years. From the first moment she entered the music scene at the age of 16, Silje established herself as one of Norway’s strongest songwriters.

In her album ‘For You A Thousand Times’, Silje Nergaard presents short stories about the unique power arising from memories. Just like music, memories are capable of connecting people regardless of time and space. In every song Nergaard portrays people or scenes who inspired her and describes past encounters or personal experiences from images in her heart.

One of the most intimate moments of the album can be found in the song ‘Hush Little Bird’, a lullaby for her Ethiopian adopted son Jonah, who babbles in the language from his earlier life just before falling asleep. His words can be heard as an intro to the song. Nergaard also used the recording of an African coconut seller advertising his produce in the summer ballad ‘Cocco Bello’. “This is a meeting between two very different cultures but for a brief moment they melt into one”.

With ‘For You A Thousand Times’ Nergaard enters into a more electric world. Her rousing melodies are placed into subtly arranged soundscapes made of warm analogue keyboards, electric bass, funky drums and African percussion. A long musical journey through landscapes spanning from tropical heatwaves to the winter nights of Norway.

Track List:
1. It's Gonna Rain (4:23)
2. For You a Thousand Times (5:08)
3. Breathe (4:49)
4. Cocco Bello (5:49)
5. Amy (3:25)
6. SleepWalking (4:19)
7. Run Run Run (4:32)
8. Hush Little Bird (5:25)
9. Jaded Childhood Dreams (3:39)
10. Winter Moon (4:53)

Silje Nergaard - For You A Thousand Times (2017)

Exact Audio Copy V1.3 from 2. September 2016

Отчёт EAC об извлечении, выполненном 3. ноября 2017, 21:52

Silje Nergaard / For You a Thousand Times

Дисковод: HL-DT-STDVDRAM GSA-T20N Adapter: 1 ID: 0

Режим чтения : Достоверность
Использование точного потока : Да
Отключение кэша аудио : Да
Использование указателей C2 : Нет

Коррекция смещения при чтении : 667
Способность читать области Lead-in и Lead-out : Нет
Заполнение пропущенных сэмплов тишиной : Да
Удаление блоков с тишиной в начале и конце : Нет
При вычислениях CRC использовались нулевые сэмплы : Да
Интерфейс : Встроенный Win32-интерфейс для Win NT/2000

Выходной формат : Пользовательский кодировщик
Выбранный битрейт : 768 kBit/s
Качество : Высокий
Добавление ID3-тега : Нет
Утилита сжатия : { M } onkey's { A } udio { C } ompressor (версия 4.26 - сентябрь 2017).exe
Дополнительные параметры : %dest% -t "DiscID=%cddbid%" -t "Comment= ~ ^ ` @ трудился РУ€_ик @ ` ^ ~ " -t "Artist=%artist%" -t "Album=%albumtitle%" -t "Album Artist=%albumartist%" -t "Year=%year%" -t "Genre=%genre%" MAC.exe %source% %dest% -c4000 -V

TOC извлечённого CD

Трек | Старт | Длительность | Начальный сектор | Конечный сектор
––––––––––––––––––––––––––––––––––-
1 | 0:00.00 | 4:24.01 | 0 | 19800
2 | 4:24.01 | 5:12.67 | 19801 | 43267
3 | 9:36.68 | 4:50.22 | 43268 | 65039
4 | 14:27.15 | 5:52.54 | 65040 | 91493
5 | 20:19.69 | 3:25.59 | 91494 | 106927
6 | 23:45.53 | 4:19.64 | 106928 | 126416
7 | 28:05.42 | 4:32.74 | 126417 | 146890
8 | 32:38.41 | 5:26.28 | 146891 | 171368
9 | 38:04.69 | 3:40.16 | 171369 | 187884
10 | 41:45.10 | 4:53.52 | 187885 | 209911

Характеристики диапазона извлечения и сообщения об ошибках

Выбранный диапазон

Имя файла C:\РУ€_ик\Silje Nergaard - For You a Thousand Times.wav

Пиковый уровень 100.0 %
Скорость извлечения 1.3 X
Качество диапазона 100.0 %
CRC теста F1B8528C
CRC копии F1B8528C
Копирование… OK

Ошибок не произошло

AccurateRip: сводка

Трек 1 отсутствует в базе данных
Трек 2 отсутствует в базе данных
Трек 3 отсутствует в базе данных
Трек 4 отсутствует в базе данных
Трек 5 отсутствует в базе данных
Трек 6 отсутствует в базе данных
Трек 7 отсутствует в базе данных
Трек 8 отсутствует в базе данных
Трек 9 отсутствует в базе данных
Трек 10 отсутствует в базе данных

Ни одного трека нет в базе AccurateRip

Конец отчёта

–– CUETools DB Plugin V2.1.6

[CTDB TOCID: TW5yLJcVjC_z9MCSR3uX3slFK_o-] found
Submit result: TW5yLJcVjC_z9MCSR3uX3slFK_o- has been confirmed
Track | CTDB Status
1 | (12/12) Accurately ripped
2 | (12/12) Accurately ripped
3 | (12/12) Accurately ripped
4 | (12/12) Accurately ripped
5 | (12/12) Accurately ripped
6 | (12/12) Accurately ripped
7 | (12/12) Accurately ripped
8 | (12/12) Accurately ripped
9 | (12/12) Accurately ripped
10 | (12/12) Accurately ripped

==== Контрольная сумма отчёта AA323D5A1B3B39BD5F57EF3A0D5C3A4A4B1A0BFA4020F159FC8079B77600102D ====

All thanks go to the wvaac

More Music in My Blog
Follow My RSS Channel