Subcategories

Small Faces - Greatest Hits (1995)

Posted By: L@ter
Small Faces - Greatest Hits (1995)

Small Faces - Greatest Hits (1995)
EAC Rip | FLAC, IMG+CUE, LOG | 210 MB | 36,32 min. | Scans
Label: Wagram/ONN 65 | Rock, Other Styles | Compilation | RAR 3% Rec.

Small Faces were an English rock and roll band from East London, heavily influenced by American rhythm and blues. The group was founded in 1965 by members Steve Marriott, Ronnie Lane, Kenney Jones, and Jimmy Winston, although by 1966 Winston was replaced by Ian McLagan as the band's keyboardist. The band is remembered as one of the most acclaimed and influential mod groups of the 1960s, With memorable hit songs such as "Itchycoo Park", "Lazy Sunday", "All or Nothing", "Tin Soldier", and their concept album Ogdens' Nut Gone Flake, they later evolved into one of the UK's most successful psychedelic acts before disbanding in 1969. After the Small Faces disbanded, three of the members were joined by Ronnie Wood as guitarist, and Rod Stewart as their lead vocalist, both from The Jeff Beck Group, and the new line-up was renamed the Faces.  Wikipedia
Personnel

- Steve Marriott - vocals, guitar
- Ronnie Lane - backing vocals, bass guitar
- Kenney Jones - drums
- Ian McLagan - keyboards
- Jimmy Winston - vocals, keyboards


Tracklist

01. Itchycoo Park
02. My Minds Eye
03. Collibosher
04. Running Wild
05. Sha La La La Lee
06. Red Balloon
07. That Man
08. Wide Eyed Girl on The Wall
09. Come On Children
10. Autumn Stone
11. Sorry She's Mine
12. Understanding

Exact Audio Copy V0.99 prebeta 5 from 4. May 2009

EAC extraction logfile from 21. February 2010, 14:19

Small Faces / Greatest Hits

Used drive : HL-DT-STDVD-RAM GH22NP20 Adapter: 0 ID: 0

Read mode : Secure
Utilize accurate stream : Yes
Defeat audio cache : Yes
Make use of C2 pointers : No

Read offset correction : 102
Overread into Lead-In and Lead-Out : No
Fill up missing offset samples with silence : Yes
Delete leading and trailing silent blocks : No
Null samples used in CRC calculations : Yes
Used interface : Native Win32 interface for Win NT & 2000

Used output format : User Defined Encoder
Selected bitrate : 768 kBit/s
Quality : High
Add ID3 tag : No
Command line compressor : C:\Program Files\Exact Audio Copy\FLAC\FLAC.EXE
Additional command line options : -6 -V -T "ARTIST=%a" -T "TITLE=%t" -T "ALBUM=%g" -T "DATE=%y" -T "TRACKNUMBER=%n" -T "GENRE=%m" -T "COMMENT=%e" %s -o %d


TOC of the extracted CD

Track | Start | Length | Start sector | End sector
––––––––––––––––––––––––––––-
1 | 0:00.33 | 2:51.15 | 33 | 12872
2 | 2:51.48 | 2:05.12 | 12873 | 22259
3 | 4:56.60 | 3:13.23 | 22260 | 36757
4 | 8:10.08 | 3:15.07 | 36758 | 51389
5 | 11:25.15 | 2:53.18 | 51390 | 64382
6 | 14:18.33 | 4:13.60 | 64383 | 83417
7 | 18:32.18 | 2:09.35 | 83418 | 93127
8 | 20:41.53 | 2:48.45 | 93128 | 105772
9 | 23:30.23 | 3:28.17 | 105773 | 121389
10 | 26:58.40 | 4:01.05 | 121390 | 139469
11 | 30:59.45 | 2:46.53 | 139470 | 151972
12 | 33:46.23 | 2:46.00 | 151973 | 164422


Range status and errors

Selected range

Filename C:\Small Faces - Greatest Hits.wav

Peak level 86.2 %
Range quality 99.9 %
Copy CRC CB0D47AE
Copy OK

No errors occurred


AccurateRip summary

Track 1 not present in database
Track 2 not present in database
Track 3 not present in database
Track 4 not present in database
Track 5 not present in database
Track 6 not present in database
Track 7 not present in database
Track 8 not present in database
Track 9 not present in database
Track 10 not present in database
Track 11 not present in database
Track 12 not present in database

None of the tracks are present in the AccurateRip database

End of status report


REM GENRE Rock
REM DATE 1997
REM DISCID 9008900C
REM COMMENT "ExactAudioCopy v0.99pb5"
PERFORMER "Small Faces"
TITLE "Greatest Hits"
FILE "Small Faces - Greatest Hits.flac" WAVE
TRACK 01 AUDIO
TITLE "Itchycoo Park"
PERFORMER "Small Faces"
INDEX 00 00:00:00
INDEX 01 00:00:33
TRACK 02 AUDIO
TITLE "My Minds Eye"
PERFORMER "Small Faces"
INDEX 00 02:49:45
INDEX 01 02:51:48
TRACK 03 AUDIO
TITLE "Collibosher"
PERFORMER "Small Faces"
INDEX 00 04:55:25
INDEX 01 04:56:60
TRACK 04 AUDIO
TITLE "Running Wild"
PERFORMER "Small Faces"
INDEX 00 08:08:20
INDEX 01 08:10:08
TRACK 05 AUDIO
TITLE "Sha La La La Lee"
PERFORMER "Small Faces"
INDEX 00 11:23:38
INDEX 01 11:25:15
TRACK 06 AUDIO
TITLE "Red Balloon"
PERFORMER "Small Faces"
INDEX 00 14:16:53
INDEX 01 14:18:33
TRACK 07 AUDIO
TITLE "That Man"
PERFORMER "Small Faces"
INDEX 00 18:30:33
INDEX 01 18:32:18
TRACK 08 AUDIO
TITLE "Wide Eyed Girl on The Wall"
PERFORMER "Small Faces"
INDEX 00 20:39:65
INDEX 01 20:41:53
TRACK 09 AUDIO
TITLE "Come on Children"
PERFORMER "Small Faces"
INDEX 00 23:28:45
INDEX 01 23:30:23
TRACK 10 AUDIO
TITLE "Autumn Stone"
PERFORMER "Small Faces"
INDEX 00 26:56:65
INDEX 01 26:58:40
TRACK 11 AUDIO
TITLE "Sorry She's Mine"
PERFORMER "Small Faces"
INDEX 00 30:57:30
INDEX 01 30:59:45
TRACK 12 AUDIO
TITLE "Understanding"
PERFORMER "Small Faces"
INDEX 00 33:44:25
INDEX 01 33:46:23