Subcategories

Snarky Puppy - The Only Constant (2006) {Sitmom Records 0001}

Posted By: ruskaval
Snarky Puppy - The Only Constant (2006) {Sitmom Records 0001}

Snarky Puppy - The Only Constant (2006) {Sitmom Records 0001}
EAC rip (secure mode) | FLAC (tracks)+CUE+LOG -> 255 Mb | MP3 @320 -> 103 Mb
Full Artwork @ 300 dpi (jpg) -> 9 Mb | 5% repair rar
© 2006 Sitmom Records | 0001
Jazz / Jazz Funk / Electric Jazz

Here's where it all started! Made all the way back in 2005 and released in '06, The Only Constant is a snapshot of the band in its infancy as students at the University of North Texas. It features 5 very, very different tracks by Michael League and has a more open and acoustic sound than any other of Snarky Puppy's albums.
Snarky Puppy - The Only Constant (2006) {Sitmom Records 0001}


Musicians

Flugelhorn, Trumpet Jay Jennings
Saxophone Clay Pritchard
Saxophone Brian Donohoe
Trombone Sara Jacovino
Electric Piano, Piano Bill Laurance
Guitar Bob Lanzetti
Guitar Chris McQueen
Bass Michael League
Drums Ross Pederson
Percussion Nate Werth

Composer/Dedicatee Michael League
Producer Michael League; Erik Herbst
Engineer Erik Herbst


Track Listing

01 Open Forum 10:35
02 Hot And Bothered 08:36
03 Precipice 08:45
04 Revisited 07:51
05 Oblongata 08:20

Exact Audio Copy V1.1 from 23. June 2015

EAC extraction logfile from 21. December 2017, 8:26

Snarky Puppy / The Only Constant

Used drive : MATSHITADVD+-RW SW830 Adapter: 1 ID: 0

Read mode : Secure
Utilize accurate stream : Yes
Defeat audio cache : Yes
Make use of C2 pointers : No

Read offset correction : 6
Overread into Lead-In and Lead-Out : No
Fill up missing offset samples with silence : Yes
Delete leading and trailing silent blocks : No
Null samples used in CRC calculations : Yes
Used interface : Native Win32 interface for Win NT & 2000
Gap handling : Appended to previous track

Used output format : User Defined Encoder
Selected bitrate : 896 kBit/s
Quality : High
Add ID3 tag : No
Command line compressor : C:\Program Files (x86)\Exact Audio Copy\Flac\flac.exe
Additional command line options : -8 -V -T "ARTIST=%artist%" -T "TITLE=%title%" -T "ALBUM=%albumtitle%" -T "DATE=%year%" -T "TRACKNUMBER=%tracknr%" -T "TOTALTRACKS=%numtracks%" -T "GENRE=%genre%" -T "ALBUMARTIST=%albumartist%" -T "ALBUM ARTIST=%albumartist%" -T "COMMENT=EAC Secure Mode, Test & Copy, AccurateRip, FLAC -8" %source%


TOC of the extracted CD

Track | Start | Length | Start sector | End sector
––––––––––––––––––––––––––––-
1 | 0:00.00 | 10:34.61 | 0 | 47610
2 | 10:34.61 | 8:36.32 | 47611 | 86342
3 | 19:11.18 | 8:45.09 | 86343 | 125726
4 | 27:56.27 | 7:51.13 | 125727 | 161064
5 | 35:47.40 | 8:20.35 | 161065 | 198599


Track 1

Filename G:\New Rips\Snarky Puppy - The Only Constant (2006) [FLAC]\01 - Open Forum.wav

Pre-gap length 0:00:02.00

Peak level 97.7 %
Extraction speed 5.4 X
Track quality 100.0 %
Test CRC C0AD4605
Copy CRC C0AD4605
Cannot be verified as accurate (confidence 2) [123C5F3B], AccurateRip returned [3EA68B7C] (AR v2)
Copy OK

Track 2

Filename G:\New Rips\Snarky Puppy - The Only Constant (2006) [FLAC]\02 - Hot And Bothered.wav

Pre-gap length 0:00:02.24

Peak level 97.7 %
Extraction speed 6.4 X
Track quality 100.0 %
Test CRC 9895392E
Copy CRC 9895392E
Cannot be verified as accurate (confidence 2) [A2DE23E2], AccurateRip returned [482F89F3] (AR v2)
Copy OK

Track 3

Filename G:\New Rips\Snarky Puppy - The Only Constant (2006) [FLAC]\03 - Precipice.wav

Pre-gap length 0:00:02.34

Peak level 97.7 %
Extraction speed 7.1 X
Track quality 100.0 %
Test CRC A55C2285
Copy CRC A55C2285
Cannot be verified as accurate (confidence 2) [04AD168C], AccurateRip returned [05DD29D4] (AR v2)
Copy OK

Track 4

Filename G:\New Rips\Snarky Puppy - The Only Constant (2006) [FLAC]\04 - Revisited.wav

Pre-gap length 0:00:02.25

Peak level 97.7 %
Extraction speed 7.8 X
Track quality 100.0 %
Test CRC 89C14194
Copy CRC 89C14194
Cannot be verified as accurate (confidence 2) [2F8DE9A8], AccurateRip returned [B53FB3EA] (AR v2)
Copy OK

Track 5

Filename G:\New Rips\Snarky Puppy - The Only Constant (2006) [FLAC]\05 - Oblongata.wav

Peak level 97.7 %
Extraction speed 8.4 X
Track quality 100.0 %
Test CRC B12FE435
Copy CRC B12FE435
Cannot be verified as accurate (confidence 2) [E9A5A6AC], AccurateRip returned [05806F64] (AR v2)
Copy OK


No tracks could be verified as accurate
You may have a different pressing from the one(s) in the database

No errors occurred

End of status report

–– CUETools DB Plugin V2.1.6

[CTDB TOCID: b9yMllW1QD_h8hTBcTy0pIASBP0-] found
Submit result: b9yMllW1QD_h8hTBcTy0pIASBP0- has been confirmed
Track | CTDB Status
1 | (12/12) Accurately ripped
2 | (12/12) Accurately ripped
3 | (12/12) Accurately ripped
4 | (12/12) Accurately ripped
5 | (12/12) Accurately ripped


==== Log checksum EAD8E9174C9516232A954ACE1E3CE801D75B60E04743174416588DFBBBBF7146 ====


Snarky Puppy - The Only Constant (2006) {Sitmom Records 0001}

Snarky Puppy - The Only Constant (2006) {Sitmom Records 0001}



===