Subcategories

Soft Machine Legacy - Steam (2006) {2014 Japan Mini LP SHM-CD Remaster VSCD4265}

Posted By: ruskaval
Soft Machine Legacy - Steam (2006) {2014 Japan Mini LP SHM-CD Remaster VSCD4265}

Soft Machine Legacy - Steam (2006) {2014 Japan Mini LP SHM-CD Remaster VSCD4265}
EAC rip (secure mode) | FLAC (tracks)+CUE+LOG -> 394 Mb | MP3 @320 -> 154 Mb
Full Artwork @ 600 dpi (png) -> 338 Mb | 5% repair rar | Canterbury Scene Vol.1 Series
© 2006, 2014 Vivid Sound / MoonJune Records | VSCD-4265
Jazz / Jazz Rock / Rock / Avant-Garde Jazz / Prog Rock

Cardboard sleeve reissue from Soft Machine Legacy features SHM-CD format. This series features the following albums: "The Soft Machine Legacy," "Live In Zaandam," "Live Adventures," and "Steam."
Potent jazz-rock fusion – British "Canterbury" style – from the legendary Soft Machine alumni. Live in Zaandam is the first salvo from exclusive MoonJune artists' Soft Machine Legacy, showcasing visceral grooves with sizzling solos and telepathic interplay.
Soft Machine Legacy - Steam (2006) {2014 Japan Mini LP SHM-CD Remaster VSCD4265}

Combining free improvisations with inspired new writing from Hopper, Etheridge and Travis, Soft Machine Legacy's new studio release, Steam, illustrates the band's chameleon-like abilities. Absent are the keyboards that so defined 1970s Soft Machine; in their place are modern samplings, loopings and sonic processing. The band uses these treatments to create some breaktaking textures – expansive soundscapes that were not possible during Soft Machine's heyday.The seemingly limitless possibilities of the band will not only appeal to fans of 1970's Soft Machine, but to anyone who likes their fusion wide open, spontaneous, and brimming with potent grooves and fiery energy. Between Etheridge's broad, adventurous sonic endeavors, Hopper's legendary bass loops and "fuzztronics", and Travis' system of sampling his saxophones and flutes in real time (layering some unpredictable harmonies), SML often sound much larger than a quartet.It all adds up to a first-rate offering of powerful new material and highly-charged performances from the progressive music legends.
Soft Machine Legacy - Steam (2006) {2014 Japan Mini LP SHM-CD Remaster VSCD4265}


Personnel:
JOHN ETHERIDGE: electric guitar
HUGH HOPPER: bass guitar, loops
JOHN MARSHALL: drums, percussion
THEO TRAVIS: tenor & soprano sax, flute, loops

Recorded by John Hiseman, at Temple Studios, Syrrey, England, on December 28-30, 2006.

tracklist:
01 - Footloose
02 - The Steamer
03 - The Big Man
04 - Chloe & The Pirates
05 - In The Back Room
06 - The Last Day
07 - Firefly
08 - So English
09 - Dave Acto
10 - Anything To Anywhere

Exact Audio Copy V1.1 from 23. June 2015

EAC extraction logfile from 23. September 2016, 14:28

Soft Machine Legacy / Steam

Used drive : HL-DT-STDVDRAM GP50NW41 Adapter: 1 ID: 0

Read mode : Secure
Utilize accurate stream : Yes
Defeat audio cache : Yes
Make use of C2 pointers : No

Read offset correction : 6
Overread into Lead-In and Lead-Out : No
Fill up missing offset samples with silence : Yes
Delete leading and trailing silent blocks : No
Null samples used in CRC calculations : Yes
Used interface : Native Win32 interface for Win NT & 2000
Gap handling : Appended to previous track

Used output format : User Defined Encoder
Selected bitrate : 1024 kBit/s
Quality : High
Add ID3 tag : No
Command line compressor : C:\Program Files (x86)\FLAC Frontend\tools\flac.exe
Additional command line options : -8 -V -T "ARTIST=%artist%" -T "TITLE=%title%" -T "ALBUM=%albumtitle%" -T "DATE=%year%" -T "TRACKNUMBER=%tracknr%" -T "TOTALTRACKS=%numtracks%" -T "GENRE=%genre%" -T "ALBUMARTIST=%albumartist%" -T "ALBUM ARTIST=%albumartist%" -T "COMMENT=EAC Secure Mode, Test & Copy, AccurateRip, FLAC -8" %source%


TOC of the extracted CD

Track | Start | Length | Start sector | End sector
––––––––––––––––––––––––––––-
1 | 0:00.00 | 8:47.50 | 0 | 39574
2 | 8:47.50 | 4:38.66 | 39575 | 60490
3 | 13:26.41 | 5:10.10 | 60491 | 83750
4 | 18:36.51 | 7:27.61 | 83751 | 117336
5 | 26:04.37 | 7:11.42 | 117337 | 149703
6 | 33:16.04 | 5:20.50 | 149704 | 173753
7 | 38:36.54 | 6:42.41 | 173754 | 203944
8 | 45:19.20 | 8:30.25 | 203945 | 242219
9 | 53:49.45 | 6:26.59 | 242220 | 271228
10 | 60:16.29 | 5:18.39 | 271229 | 295117


Track 1

Filename D:\_EAC\Soft Machine Legacy - Steam (2006) [FLAC] {VSCD4265}\01 - Footloose.wav

Pre-gap length 0:00:02.00

Peak level 100.0 %
Extraction speed 3.3 X
Track quality 100.0 %
Test CRC C8D6CB98
Copy CRC C8D6CB98
Cannot be verified as accurate (confidence 4) [6BE60DA9], AccurateRip returned [E57FB96A] (AR v2)
Copy OK

Track 2

Filename D:\_EAC\Soft Machine Legacy - Steam (2006) [FLAC] {VSCD4265}\02 - The Steamer.wav

Peak level 100.0 %
Extraction speed 3.0 X
Track quality 99.9 %
Test CRC FCBC6BFF
Copy CRC FCBC6BFF
Cannot be verified as accurate (confidence 4) [A378D234], AccurateRip returned [50DD09BE] (AR v2)
Copy OK

Track 3

Filename D:\_EAC\Soft Machine Legacy - Steam (2006) [FLAC] {VSCD4265}\03 - The Big Man.wav

Peak level 100.0 %
Extraction speed 4.0 X
Track quality 100.0 %
Test CRC 67B2DEA0
Copy CRC 67B2DEA0
Cannot be verified as accurate (confidence 4) [8367517C], AccurateRip returned [08211426] (AR v2)
Copy OK

Track 4

Filename D:\_EAC\Soft Machine Legacy - Steam (2006) [FLAC] {VSCD4265}\04 - Chloe & The Pirates.wav

Peak level 100.0 %
Extraction speed 4.5 X
Track quality 100.0 %
Test CRC 62C2A22B
Copy CRC 62C2A22B
Cannot be verified as accurate (confidence 4) [FE3D38B5], AccurateRip returned [26730017] (AR v2)
Copy OK

Track 5

Filename D:\_EAC\Soft Machine Legacy - Steam (2006) [FLAC] {VSCD4265}\05 - In The Back Room.wav

Peak level 100.0 %
Extraction speed 4.9 X
Track quality 100.0 %
Test CRC D7B39141
Copy CRC D7B39141
Cannot be verified as accurate (confidence 3) [7276BB15], AccurateRip returned [69A6C420] (AR v2)
Copy OK

Track 6

Filename D:\_EAC\Soft Machine Legacy - Steam (2006) [FLAC] {VSCD4265}\06 - The Last Day.wav

Peak level 100.0 %
Extraction speed 4.2 X
Track quality 99.9 %
Test CRC 4C49AC02
Copy CRC 4C49AC02
Cannot be verified as accurate (confidence 4) [EF5DEEA1], AccurateRip returned [8BC61D80] (AR v2)
Copy OK

Track 7

Filename D:\_EAC\Soft Machine Legacy - Steam (2006) [FLAC] {VSCD4265}\07 - Firefly.wav

Peak level 100.0 %
Extraction speed 5.4 X
Track quality 100.0 %
Test CRC 8E0812EF
Copy CRC 8E0812EF
Cannot be verified as accurate (confidence 4) [44571E99], AccurateRip returned [BFBE797F] (AR v2)
Copy OK

Track 8

Filename D:\_EAC\Soft Machine Legacy - Steam (2006) [FLAC] {VSCD4265}\08 - So English.wav

Peak level 100.0 %
Extraction speed 5.9 X
Track quality 100.0 %
Test CRC 50D3D66C
Copy CRC 50D3D66C
Cannot be verified as accurate (confidence 4) [5DE1CB9B], AccurateRip returned [E374D6FE] (AR v2)
Copy OK

Track 9

Filename D:\_EAC\Soft Machine Legacy - Steam (2006) [FLAC] {VSCD4265}\09 - Dave Acto.wav

Peak level 100.0 %
Extraction speed 5.2 X
Track quality 99.9 %
Test CRC AA4AFE70
Copy CRC AA4AFE70
Cannot be verified as accurate (confidence 4) [5A958E90], AccurateRip returned [04E2A030] (AR v2)
Copy OK

Track 10

Filename D:\_EAC\Soft Machine Legacy - Steam (2006) [FLAC] {VSCD4265}\10 - Anything To Anywhere.wav

Peak level 100.0 %
Extraction speed 6.1 X
Track quality 100.0 %
Test CRC 312EBF00
Copy CRC 312EBF00
Cannot be verified as accurate (confidence 4) [AA31F205], AccurateRip returned [BD6E4E15] (AR v2)
Copy OK


No tracks could be verified as accurate
You may have a different pressing from the one(s) in the database

No errors occurred

End of status report

==== Log checksum 835BA333818458515EA6AB420D1D5A6339873B8233660375CCF0054477FD188E ====


Soft Machine Legacy - Steam (2006) {2014 Japan Mini LP SHM-CD Remaster VSCD4265}

Soft Machine Legacy - Steam (2006) {2014 Japan Mini LP SHM-CD Remaster VSCD4265}




NEXT -> More Soft Machine & others Japan Cardboard Sleeve (mini LP) on the way…