Subcategories

Sonic Syndicate - Eden Fire

Posted By: Prdlous
Sonic Syndicate - Eden Fire

Sonic Syndicate - Eden Fire
Metal | 2005 | EAC | APE | Tracks + Cue | 321 MB

Sonic Syndicate is a six-piece metalcore band from Falkenberg, Sweden who have strong influences from Swedish bands such as In Flames and Soilwork. Originally formed in 2002 under the name Fallen Angels, by Richard, Roger and Robin Sjunnesson they recorded three demos, Fall from Heaven, Black Lotus and Extinction. In 2005 they changed their name to Sonic Syndicate, signed with Pivotal Rockordings, and recorded their debut studio album, Eden Fire. Following tours with Avatar, Himsa, and Amon Amarth, the band entered a contest held by Nuclear Blast Records along with nearly 1500 other entrants. Sonic Syndicate was one of the three winners and was offered a recording contract with Nuclear Blast. After working at Black Lounge Studios with producer Jonas Kjellgren (also guitarist for Scar Symmetry), Sonic Syndicate released Only Inhuman on May 18, 2007. A video for the single “Denied” soon followed, directed by Patric Ullaeus. Due to their success under Nuclear Blast, vocalists Richard and Roland also managed to earn a song on the Nuclear Blast Allstar album titled Out of the Dark, accompanied by vocalists such as Anders Friden of In Flames, Bjorn Strid of Soilwork, and many others. Sonic Syndicate played at the Wacken Open Air Festival 2007 and several other European festivals. In the winter of 2007, accompanied Amon Amarth as they toured th US. The band participated in the “Darkness over X-Mas Tour” with Caliban and Heaven Shall Burn, and toured extensively across Europe with Dark Tranquillity and Soilwork. In May 2008 they returned to America supporting Nightwish.

Tracklist:
01. Jailbreak
02. Enhance My Nightmare
03. History Repeats Itself
04. Zion Must Fall
05. Misanthropic Coil
06. Lament of Innocence
07. Prelude to Extinction
08. Soulstone Splinter
09. Crowned in Despair
10. Where the Black Lotus Grows


EAC Log:

Exact Audio Copy V0.99 prebeta 4 from 23. January 2008
EAC extraction logfile from 13. July 2009, 16:59
Sonic Syndicate / Eden Fire
Used drive : MITSUMI CR-48XETE Adapter: 1 ID: 0
Read mode : Secure
Utilize accurate stream : Yes
Defeat audio cache : Yes
Make use of C2 pointers : No
Read offset correction : 12
Overread into Lead-In and Lead-Out : No
Fill up missing offset samples with silence : Yes
Delete leading and trailing silent blocks : No
Null samples used in CRC calculations : Yes
Used interface : Native Win32 interface for Win NT & 2000
Used output format : Internal WAV Routines
Sample format : 44.100 Hz; 16 Bit; Stereo
TOC of the extracted CD
Track | Start | Length | Start sector | End sector
––––––––––––––––––––––––––––-
1 | 0:00.00 | 4:12.45 | 0 | 18944
2 | 4:12.45 | 5:10.06 | 18945 | 42200
3 | 9:22.51 | 3:52.05 | 42201 | 59605
4 | 13:14.56 | 4:31.30 | 59606 | 79960
5 | 17:46.11 | 3:53.48 | 79961 | 97483
6 | 21:39.59 | 3:43.37 | 97484 | 114245
7 | 25:23.21 | 4:00.36 | 114246 | 132281
8 | 29:23.57 | 4:18.21 | 132282 | 151652
9 | 33:42.03 | 4:33.51 | 151653 | 172178
10 | 38:15.54 | 4:47.38 | 172179 | 193741
Range status and errors
Selected range
Filename H:\Sonic Syndicate\Sonic Syndicate - 2005 - Eden Fire\Sonic Syndicate - Eden Fire.wav
Peak level 98.8 %
Range quality 100.0 %
Test CRC 39E31F74
Copy CRC 39E31F74
Copy OK
No errors occurred
AccurateRip summary
Track 1 accurately ripped (confidence 2) [1A985F96]
Track 2 accurately ripped (confidence 2) [FF539E27]
Track 3 accurately ripped (confidence 2) [EBF6B85A]
Track 4 accurately ripped (confidence 2) [0EA67D97]
Track 5 accurately ripped (confidence 2) [7138C273]
Track 6 accurately ripped (confidence 2) [2A9599A8]
Track 7 accurately ripped (confidence 2) [6A325F9C]
Track 8 accurately ripped (confidence 2) [7351C17F]
Track 9 accurately ripped (confidence 2) [51B75F43]
Track 10 accurately ripped (confidence 2) [D9C6D721]
All tracks accurately ripped
End of status report


Download:

Netload
http://netload.in/dateigMtj7Hg5Fp/18-08-09.00-prdlous-of-sms-uploaders.part1.rar.htm
http://netload.in/dateiTQ5klaFNmV/18-08-09.00-prdlous-of-sms-uploaders.part2.rar.htm

Rapidshare
http://rapidshare.com/files/268765226/18-08-09.00-prdlous-of-sms-uploaders.part1.rar
http://rapidshare.com/files/268766072/18-08-09.00-prdlous-of-sms-uploaders.part2.rar

Hotfile
http://hotfile.com/dl/10444128/7faaa77/18-08-09.00-prdlous-of-sms-uploaders.part1.rar.html
http://hotfile.com/dl/10444195/40bee14/18-08-09.00-prdlous-of-sms-uploaders.part2.rar.html