Subcategories

Sonny Rollins - Love At First Sight (1980) {Milestone OJCCD-753-2 rel 1992}

Posted By: ruskaval
Sonny Rollins - Love At First Sight (1980) {Milestone OJCCD-753-2 rel 1992}

Sonny Rollins - Love At First Sight (1980) {Milestone OJCCD-753-2 rel 1992}
EAC rip (secure mode) | FLAC (tracks)+CUE+LOG -> 198 Mb | MP3 @320 -> 86 Mb
Full Artwork @ 300 dpi (jpg) -> 7 Mb | 5% repair rar
© 1980, 1992 Milestone / Fantasy / OJC | OJCCD-753-2
Jazz / Post Bop / Saxophone

Sonny Rollins has an all-star backup band on this 1980 release: keyboardist George Duke, bassist Stanley Clarke, drummer Al Foster and on some selections percussionist Bill Summers. The music ranges from "The Very Thought of You" and a remake of "Strode Rode" to some more lightweight group originals. Decent music but nothing that memorable occurs.
Rollins began the '80s with a session that intercut some of his old philosophies with supposed modernists like Duke and Clarke, though both are called on to perform in neo-traditional roles. The result is a diffident rather than a genuinely contrary record: not bad, with a nice "The Very Thought Of You" and a sweet original called "Little Lu," but the perfunctory retread of the ancient Rollins classic "Strode Rode" shows up the lightweight cast and situation.
Sonny Rollins - Love At First Sight (1980) {Milestone OJCCD-753-2 rel 1992}


Personnel:
Sonny Rollins - tenor saxophone, lyricon
George Duke - acoustic piano, electric piano
Stanley Clarke - electric bass
Al Foster - drums
Bill Summers - congas, percussion

tracklist:
01 - Little Lu
02 - The Dream That We Fell Out Of
03 - Strode Rode
04 - The Very Thought Of You
05 - Caress
06 - Double Feature

Exact Audio Copy V0.99 prebeta 5 from 4. May 2009

EAC extraction logfile from 22. December 2010, 1:28

Sonny Rollins / Love At First Sight

Used drive : TSSTcorpCDDVDW SH-S203N Adapter: 0 ID: 2

Read mode : Secure
Utilize accurate stream : Yes
Defeat audio cache : Yes
Make use of C2 pointers : No

Read offset correction : 6
Overread into Lead-In and Lead-Out : No
Fill up missing offset samples with silence : Yes
Delete leading and trailing silent blocks : No
Null samples used in CRC calculations : Yes
Used interface : Installed external ASPI interface
Gap handling : Appended to previous track

Used output format : User Defined Encoder
Selected bitrate : 768 kBit/s
Quality : High
Add ID3 tag : No
Command line compressor : C:\Program Files\Exact Audio Copy\Flac\flac.exe
Additional command line options : -8 -V -T "ARTIST=%a" -T "TITLE=%t" -T "ALBUM=%g" -T "DATE=%y" -T "TRACKNUMBER=%n" -T "TOTALTRACKS=%x" -T "GENRE=%m" -T "ALBUMARTIST=%v" -T "ALBUM ARTIST=%v" -T "COMMENT=EAC V0.99 pb5, Secure Mode, Test & Copy, AccurateRip,


TOC of the extracted CD

Track | Start | Length | Start sector | End sector
––––––––––––––––––––––––––––-
1 | 0:00.00 | 6:41.50 | 0 | 30124
2 | 6:41.50 | 4:17.12 | 30125 | 49411
3 | 10:58.62 | 7:37.10 | 49412 | 83696
4 | 18:35.72 | 5:40.28 | 83697 | 109224
5 | 24:16.25 | 7:28.57 | 109225 | 142881
6 | 31:45.07 | 4:53.73 | 142882 | 164929


Track 1

Filename J:\New Rips\Sonny Rollins - Love At First Sight (1992) [FLAC] {Milestone OJCCD-753-2 rec 1980}\01 - Little Lu.wav

Pre-gap length 0:00:02.00

Peak level 99.6 %
Track quality 100.0 %
Test CRC D5F25191
Copy CRC D5F25191
Track not present in AccurateRip database
Copy OK

Track 2

Filename J:\New Rips\Sonny Rollins - Love At First Sight (1992) [FLAC] {Milestone OJCCD-753-2 rec 1980}\02 - The Dream That We Fell Out Of.wav

Pre-gap length 0:00:00.77

Peak level 73.6 %
Track quality 100.0 %
Test CRC A6845695
Copy CRC A6845695
Track not present in AccurateRip database
Copy OK

Track 3

Filename J:\New Rips\Sonny Rollins - Love At First Sight (1992) [FLAC] {Milestone OJCCD-753-2 rec 1980}\03 - Strode Rode.wav

Pre-gap length 0:00:00.40

Peak level 89.1 %
Track quality 100.0 %
Test CRC A6CB3BC7
Copy CRC A6CB3BC7
Track not present in AccurateRip database
Copy OK

Track 4

Filename J:\New Rips\Sonny Rollins - Love At First Sight (1992) [FLAC] {Milestone OJCCD-753-2 rec 1980}\04 - The Very Thought Of You.wav

Pre-gap length 0:00:04.00

Peak level 55.0 %
Track quality 99.9 %
Test CRC 0E99FB81
Copy CRC 0E99FB81
Track not present in AccurateRip database
Copy OK

Track 5

Filename J:\New Rips\Sonny Rollins - Love At First Sight (1992) [FLAC] {Milestone OJCCD-753-2 rec 1980}\05 - Caress.wav

Pre-gap length 0:00:00.10

Peak level 100.0 %
Track quality 100.0 %
Test CRC 0A3DB89E
Copy CRC 0A3DB89E
Track not present in AccurateRip database
Copy OK

Track 6

Filename J:\New Rips\Sonny Rollins - Love At First Sight (1992) [FLAC] {Milestone OJCCD-753-2 rec 1980}\06 - Double Feature.wav

Pre-gap length 0:00:00.46

Peak level 67.7 %
Track quality 100.0 %
Test CRC DBE8610D
Copy CRC DBE8610D
Track not present in AccurateRip database
Copy OK


None of the tracks are present in the AccurateRip database

No errors occurred

End of status report


Sonny Rollins - Love At First Sight (1980) {Milestone OJCCD-753-2 rel 1992}

Sonny Rollins - Love At First Sight (1980) {Milestone OJCCD-753-2 rel 1992}


All thanks goes to the original releaser!