Subcategories

Sonny Stitt - Stitt Plays Bird (1963) {Atlantic Japan WPCR-25116 Mini LP 24bit remastered rel 2006}

Posted By: ruskaval
Sonny Stitt - Stitt Plays Bird (1963) {Atlantic Japan WPCR-25116 Mini LP 24bit remastered rel 2006}

Sonny Stitt - Stitt Plays Bird (1963) {Atlantic Japan WPCR-25116 Mini LP 24bit remastered rel 2006}
EAC rip (secure mode) | FLAC (tracks)+CUE+LOG -> 316 Mb | MP3 @320 -> 113 Mb
Full Artwork @ 600 dpi (png) -> 41 Mb | 5% repair rar | 24bit remastered | Mini LP
© 1963, 2006 Atlantic / Warner Music Japan | WPCR-25116
Jazz / Bebop / Bop / Saxophone

Special Feature / Bonus Track: 2 bonus tracks. After years of staying free of comparisons with Charlie Parker, Sonny Stitt steps confidently into a set of compositions by the late, great one – sounding really wonderful in his own interpretations of these classics! The album's got the same simple and focused still as Stitt's best work on Roost – and although the compositions are all by Bird, the overall sound is still very much Sonny's own – especially given the wonderful sense of space and timing brought to some of the performances! The group's an unusual one, especially for Stitt – and features John Lewis on piano, Jim Hall on guitar, Richard Davis on bass, and Connie Kay on drums – all offering a slightly more modern take on Bird than might be expected – especially through the angular lines on Hall's guitar.

Personnel:
Sonny Stitt - alto saxophone
John Lewis - piano
Jim Hall - guitar
Richard Davis - bass
Connie Kay - drums

tracklist:
01 - Ornithology
02 - Scrapple From The Apple
03 - My Little Suede Shoes
04 - Parker's Mood
05 - Au Private
06 - KO-KO
07 - Confirmation
08 - Hootie Blues
09 - Constellation
10 - Now's The Time
11 - Yardbird Suite

EAC extraction logfile from 25. September 2007, 23:35 for CD
Sonny Stitt / Stitt Plays Bird (Japan 24-bit)

Used drive : PLEXTOR CD-R PX-W4012S Adapter: 0 ID: 4
Read mode : Secure with NO C2, accurate stream, disable cache
Read offset correction : 98
Overread into Lead-In and Lead-Out : Yes

Used output format : C:\Program Files\FLAC\flac.exe (User Defined Encoder)
320 kBit/s
Additional command line options : -8 -A tukey(0.25) -A gauss(0.1875) -b 4096 -V -T "artist=%a" -T "title=%t" -T "album=%g" -T "date=%y" -T "tracknumber=%n" -T "genre=%m" -T "comment=EAC 0.95 b4 secure / FLAC 1.2.0 q8 / Gap Detection Met

Other options :
Fill up missing offset samples with silence : Yes
Delete leading and trailing silent blocks : No
Native Win32 interface for Win NT & 2000


Track 1
Filename C:\Documents and Settings\daedalus\Desktop\scratch\Sic Transit\Sonny Stitt - Still Plays Bird (1966) [FLAC] {Japan 24-bit}\01 - Ornithology.wav

Pre-gap length 0:00:02.00

Peak level 100.0 %
Track quality 100.0 %
Test CRC D35D8FAC
Copy CRC D35D8FAC
Copy OK

Track 2
Filename C:\Documents and Settings\daedalus\Desktop\scratch\Sic Transit\Sonny Stitt - Still Plays Bird (1966) [FLAC] {Japan 24-bit}\02 - Scrapple From The Apple.wav

Pre-gap length 0:00:02.35

Peak level 100.0 %
Track quality 100.0 %
Test CRC 00E08102
Copy CRC 00E08102
Copy OK

Track 3
Filename C:\Documents and Settings\daedalus\Desktop\scratch\Sic Transit\Sonny Stitt - Still Plays Bird (1966) [FLAC] {Japan 24-bit}\03 - My Little Suede Shoes.wav

Pre-gap length 0:00:03.10

Peak level 100.0 %
Track quality 100.0 %
Test CRC 54135609
Copy CRC 54135609
Copy OK

Track 4
Filename C:\Documents and Settings\daedalus\Desktop\scratch\Sic Transit\Sonny Stitt - Still Plays Bird (1966) [FLAC] {Japan 24-bit}\04 - Parker's Mood.wav

Pre-gap length 0:00:02.05

Peak level 100.0 %
Track quality 100.0 %
Test CRC F7A0F27D
Copy CRC F7A0F27D
Copy OK

Track 5
Filename C:\Documents and Settings\daedalus\Desktop\scratch\Sic Transit\Sonny Stitt - Still Plays Bird (1966) [FLAC] {Japan 24-bit}\05 - Au Private.wav

Pre-gap length 0:00:02.33

Peak level 100.0 %
Track quality 100.0 %
Test CRC F2E74346
Copy CRC F2E74346
Copy OK

Track 6
Filename C:\Documents and Settings\daedalus\Desktop\scratch\Sic Transit\Sonny Stitt - Still Plays Bird (1966) [FLAC] {Japan 24-bit}\06 - KO-KO.wav

Pre-gap length 0:00:00.71

Peak level 100.0 %
Track quality 99.9 %
Test CRC E3B69286
Copy CRC E3B69286
Copy OK

Track 7
Filename C:\Documents and Settings\daedalus\Desktop\scratch\Sic Transit\Sonny Stitt - Still Plays Bird (1966) [FLAC] {Japan 24-bit}\07 - Confirmation.wav

Pre-gap length 0:00:02.46

Peak level 100.0 %
Track quality 99.9 %
Test CRC 0E03B2D0
Copy CRC 0E03B2D0
Copy OK

Track 8
Filename C:\Documents and Settings\daedalus\Desktop\scratch\Sic Transit\Sonny Stitt - Still Plays Bird (1966) [FLAC] {Japan 24-bit}\08 - Hootie Blues.wav

Pre-gap length 0:00:01.72

Peak level 100.0 %
Track quality 99.9 %
Test CRC 94F3432E
Copy CRC 94F3432E
Copy OK

Track 9
Filename C:\Documents and Settings\daedalus\Desktop\scratch\Sic Transit\Sonny Stitt - Still Plays Bird (1966) [FLAC] {Japan 24-bit}\09 - Constellation.wav

Pre-gap length 0:00:01.20

Peak level 100.0 %
Track quality 100.0 %
Test CRC A7C12F59
Copy CRC A7C12F59
Copy OK

Track 10
Filename C:\Documents and Settings\daedalus\Desktop\scratch\Sic Transit\Sonny Stitt - Still Plays Bird (1966) [FLAC] {Japan 24-bit}\10 - Now's The Time.wav

Pre-gap length 0:00:03.20

Peak level 100.0 %
Track quality 99.9 %
Test CRC 5C459AA4
Copy CRC 5C459AA4
Copy OK

Track 11
Filename C:\Documents and Settings\daedalus\Desktop\scratch\Sic Transit\Sonny Stitt - Still Plays Bird (1966) [FLAC] {Japan 24-bit}\11 - Yardbird Suite.wav

Pre-gap length 0:00:02.20

Peak level 100.0 %
Track quality 100.0 %
Test CRC F1B10FC0
Copy CRC F1B10FC0
Copy OK

No errors occured


End of status report


Sonny Stitt 			  		 	 	  		 	    	 			   		  	   		 	    		  	   	 			   		  	   		      		 	 	  	 			   		  		  		  					 - Stitt Plays Bird (1963) {Atlantic Japan WPCR-25116 Mini LP 24bit remastered rel 2006}

Sonny Stitt - Stitt Plays Bird (1963) {Atlantic Japan WPCR-25116 Mini LP 24bit remastered rel 2006}



===