Subcategories

Soul Asylum - Say What You Will, Clarence ... Karl Sold The Truck (1988)

Posted By: luckburz
Soul Asylum - Say What You Will, Clarence ... Karl Sold The Truck (1988)

Soul Asylum - Say What You Will, Clarence … Karl Sold The Truck
EAC+LOG+CUE | APE: 266 MB | Artwork | 5% Recovery Info
Label/Cat#: Twintone # TTR 8439-2 | Country/Year: US 1988
Genre: Rock | Style: Alternative Rock

MD5 [X] CUE [X] LOG [X] INFO TEXT [X] ARTWORK [X]

selfrip [] not my rip [X]

Soul Asylum - Say What You Will, Clarence ... Karl Sold The Truck (1988)


EAC extraction logfile from 7. April 2009, 18:04 for CD
Soul Asylum / Say What You Will, Clarence … …Karl Sold the Truck

Used drive : TSSTcorpCD/DVDW SH-S182D Adapter: 0 ID: 2
Read mode : Secure with NO C2, accurate stream, disable cache
Read offset correction : 6
Overread into Lead-In and Lead-Out : No

Used output format : Internal WAV Routines
44.100 Hz; 16 Bit; Stereo

Other options :
Fill up missing offset samples with silence : Yes
Delete leading and trailing silent blocks : No
Native Win32 interface for Win NT & 2000


Range status and errors
Selected range
Filename F:\upload\Soul Asylum - Say What You Will, Clarence … Karl Sold The Truck\CDImage.wav

Peak level 100.0 %
Range quality 100.0 %
CRC E8150AEF
Copy OK

No errors occured

End of status report

auCDtect: CD records authenticity detector, version 0.8.2
Copyright © 2004 Oleg Berngardt. All rights reserved.
Copyright © 2004 Alexander Djourik. All rights reserved.

Detect mode (0..40 with 0 = most accurate): 8 (default)


––––––––––––––––––––––––––––––
[Soul Asylum - Say What You Will, Clarence … …Karl Sold the Truck.wav]
Detected average hi-boundary frequency: 2.022022e+004 Hz
Detected average lo-boundary frequency: 1.391393e+004 Hz
Detected average hi-cut frequency: 2.179232e+004 Hz
Detected average lo-cut frequency: 9.268881e+003 Hz
Maximum probablis boundary frequency: 2.189100e+004 Hz
Coefficient of nonlinearity of a phase: 2.571346e-001
First order smothness: 3.971535e-001
Second order smothness: 3.819044e-001
––––––––––––––––––––––––––––––
This track looks like CDDA with probability 100%.

foobar2000 1.1.14a / Dynamic Range Meter 1.1.1
log date: 2013-07-01 22:05:59

––––––––––––––––––––––––––––––––––––––––
Analyzed: Soul Asylum / Say What You Will, Clarence … …Karl Sold the Truck
––––––––––––––––––––––––––––––––––––––––

DR Peak RMS Duration Track
––––––––––––––––––––––––––––––––––––––––
DR12 -0.67 dB -13.62 dB 2:08 01-Draggin Me Down
DR13 0.00 dB -13.60 dB 2:46 02-Long Day
DR12 0.00 dB -13.40 dB 2:32 03-Money Talks
DR13 0.00 dB -14.11 dB 3:42 04-Voodoo Doll
DR13 -0.40 dB -15.51 dB 3:44 05-Stranger
DR11 -2.16 dB -13.99 dB 1:54 06-Do You Know
DR12 -0.75 dB -14.01 dB 0:52 07-Sick of that Song
DR12 -0.11 dB -14.01 dB 5:09 08-Religiavision
DR12 -1.36 dB -14.66 dB 2:08 09-Spacehead
DR13 -0.21 dB -14.76 dB 2:20 10-Walking
DR11 -0.57 dB -14.02 dB 2:24 11-Broken Glass
DR12 -1.22 dB -15.73 dB 5:17 12-Masquerade
DR12 -1.44 dB -14.31 dB 2:45 13-Happy
DR10 -0.54 dB -13.28 dB 3:27 14-Black and Blue
––––––––––––––––––––––––––––––––––––––––

Number of tracks: 14
Official DR value: DR12

Samplerate: 44100 Hz
Channels: 2
Bits per sample: 16
Bitrate: 905 kbps
Codec: Monkey's Audio
================================================================================



CD Info:

Soul Asylum - Say What You Will, Clarence … Karl Sold The Truck

Label: Twin/Tone Records
Catalog#: TTR 8439-2
Format: CD, Album
Country: US
Released: 1988
Genre: Rock
Style: Alternative Rock

Tracklist:

1 Draggin Me Down 2:08
2 Long Day 2:45
3 Money Talks 2:31
4 Voodoo Doll 3:42
5 Stranger 3:44
6 Do You Know 1:54
7 Sick Of That Song 0:52
8 Religavision 5:08
9 Spacehead 2:08
10 Walking 2:19
11 Broken Glass 2:23
12 Masquerade 4:16
13 Happy 3:44
14 Black And Blue 3:28

Credits:

Bass – Karl Mueller
Co-producer – Blake Gumprecht
Drums – Pat Morley
Engineer – Steve Fjelstad
Guitar, Vocals – Dan Murphy
Guitar, Vocals, Saxophone – Dave Pirner
Producer – Bob Mould
Written-By – Dave Pirner

Notes:

Released August 24, 1984 this album sold 6,738 vinyl copies and 2,639 cassettes before being released (along with additional tracks) on CD in 1988.

Soul Asylum - Say What You Will, Clarence ... Karl Sold The Truck (1988)


review by John Dougan

Produced by Hüsker Dü's Bob Mould, it's unsurprising that Soul Asylum's debut record shares the same tendencies as the Hüskers to loud, fast punk rock. Compared to the more structured songs he would go on to write, Dave Pirner was jumpy with nervous energy, and the songs reflect this frantic need to communicate and make some noise. Fans of poststardom Soul Asylum might find this a bit too much to handle, but it remains expressive speed rock that will leave you breathless. allmusicguide

Thanks to ten6tenten71!

Soul Asylum - Say What You Will, Clarence ... Karl Sold The Truck (1988)


all of my uploads in my blog
________________

Download:

Music
Artwork

________________