Subcategories

Spirit - It Shall Be: Ode & Epic Recordings 1968–1972 (2018)

Posted By: delpotro
Spirit - It Shall Be: Ode & Epic Recordings 1968–1972 (2018)

Spirit - It Shall Be: Ode & Epic Recordings 1968–1972 (2018)
XLD Rip | FLAC (tracks+log+.cue) - 1,91 Gb | MP3 CBR 320 kbps - 886 Mb | 06:26:54
Psychedelic Rock, Progressive Rock | Label: Esoteric Recordings

NEW REMASTERED 5 CD CLAMSHELL BOXED SET FEATURING EVERY RECORDING RELEASED BY THE LEGENDARY SPIRIT FOR ODE & EPIC RECORDS BETWEEN 1968 – 1972.

INCLUDES THE ENTIRE MONO MIX OF THE 1968 ALBUM SPIRIT ON CD FOR THE FIRST TIME, ALONG WITH THE SOUNDTRACK TO THE FILM THE MODEL SHOP, THE ORIGINAL 1968 STEREO MIX OF THE FAMILY THAT PLAYS TOGETHER, ASSOCIATED OUT-TAKES, SINGLES AND ALTERNATE MIXES UNDERTAKEN IN 1991 FOR THE TIME CIRCLE COMPILATION.

Esoteric Recordings are pleased to announce the release of a new 5CD remastered clamshell box set by the legendary American band SPIRIT. Formed in Los Angeles in 1967 from the remnants of The Red Roosters, SPIRIT was one of the great bands to emerge on the US West Coast in the Psychedelic era. Featuring the talents of 16 year old guitarist Randy California (who had played guitar with Jimi Hendrix in New York the previous year), his step-father drummer Ed Cassidy along with Jay Ferguson (vocals, percussion), John Locke (keyboards) and Mark Andes (bass), Spirit signed to producer Lou Adler’s newly established Ode Records label in late 1967. Their self-titled debut album appeared some months later and demonstrated the breadth and diversity of the band covering psychedelic, rock and jazz influences and featuring such legendary cuts as Fresh Garbage, Uncle Jack, Topanga Windows, Mechanical World , Elijah and Taurus (the subject of a court case decades later when it was alleged Led Zeppelin had taken the musical structure of the piece as a basis for Stairway to Heaven). The band’s follow-up album, The Family That Plays Together, spawned the hit single I’ve Got a Line on You and was one of their finest works thanks to material such as It Shall Be, Aren’t You Glad, Silky Sam and Darlin’ If. Leading up to the recording of 1969’s Clear album Spirit recorded the soundtrack to Jaques Demy’s film The Model Shop. In 1970 Spirit recorded the classic The Twelve Dreams of Doctor Sardonicus for Epic Records, from which the single Animal Zoo was taken and included excellent material such as Nature’s Way, Mr Skin, Space Child, Morning Will Come and Soldier. Sadly the original line- up of Spirit fell apart some months later leaving just Ed Cassidy and John Locke to assemble a new incarnation of Spirit for 1972’s Feedback, which saw brothers Al and John Staehely join the band on bass and drums respectively. Spirit went on hiatus soon after, although California and Cassidy would continue to tour and record as Spirit on and off until California’s untimely death in 1997.

Newly re-mastered, this anthology features all of Spirit’s recordings for the Ode and Epic labels between 1968 and 1972 and notably includes the entire mono mix of the band’s self-titled debut album (appearing on CD for the first time), the complete soundtrack to the film The Model Shop, along with original 1968 stereo mix of The Family That Plays Together, associated out-takes, singles and alternate mixes undertaken in 1991 for the Time Circle compilation. It Shall Be also includes an illustrated booklet with essay by Malcolm Dome featuring archive interviews with Randy California and Ed Cassidy.
Tracklist:

Disc: 1
TAKEN FROM THE STEREO ALBUM “SPIRIT” RELEASED IN 1968
1. Fresh Garbage
2. Uncle Jack
3. Mechanical World
4. Taurus
5. Girl in Your Eye
6. Straight Arrow
7. Topanga Windows
8. Gramophone Man
9. Water Woman
10. The Great Canyon Fire in General
11. Elijah

TAKEN FROM THE ALBUM “THE FAMILY THAT PLAYS TOGETHER” – RELEASED IN 1968
12. I Got a Line on You (Original 1968 Stereo Mix)
13. It Shall Be (Original 1968 Stereo Mix)
14. Poor Richard (Original 1968 Stereo Mix)
15. Silky Sam (Original 1968 Stereo Mix)
16. The Drunkard (Original 1968 Stereo Mix)
17. Darlin' If (Original 1968 Stereo Mix)
18. All the Same (Original 1968 Stereo Mix)
19. Jewish (Original 1968 Stereo Mix)
20. Dream Within a Dream (Original 1968 Stereo Mix)
21. She Smiled (Original 1968 Stereo Mix)
22. Aren't You Glad (Original 1968 Stereo Mix)

Disc: 2
TAKEN FROM THE FILM SOUNDTRACK “THE MODEL SHOP” – RECORDED IN 1968
1. The Moving Van
2. Mellow Fellow
3. Now or Anywhere
4. Fog
5. Green Gorilla
6. Model Shop I
7. Model Shop II (Clear)
8. The Rehearsal Theme
9. Song for Lola
10. Eventide
11. Coral
12. Aren't You Glad (Demo)

TAKEN FROM THE ALBUM “CLEAR” RELEASED IN 1969
13. Dark Eyed Woman
14. Apple Orchard
15. So Little Time to Fly
16. Ground Hog
17. Cold Wind
18. Policeman's Ball
19. Ice
20. Give a Life, Take a Life
21. I'm Truckin'
22. Clear
23. Caught
24. New Dope in Town

Disc: 3
AKEN FROM THE ALBUM “THE TWELVE DREAMS OF DOCTOR SARDONICUS” – RELEASED IN 1970
1. Prelude - Nothing to Hide
2. Nature's Way
3. Animal Zoo
4. Love Has Found a Way
5. Why Can't I Be Free?
6. Mr Skin
7. Space Child
8. When I Touch You
9. Street Worm
10. Life Has Just Begun
11. Morning Will Come
12. Soldier

RECORDED IN 1970 DURING SESSIONS FOR “THE TWELVE DREAMS OF DOCTOR SARDONICUS”
13. Rougher Road

TAKEN FROM THE ALBUM “FEEDBACK” RELEASED IN 1972
14. Chelsea Girls
15. Cadillac Cowboys
16. Puesta Del Scam
17. Ripe and Ready
18. Darkness
19. Earth Shaker
20. Mellow Morning
21. Right on Time
22. Trancas Fog-Out
23. Witch

Disc: 4
TAKEN FROM THE MONO ALBUM “SPIRIT” RELEASED IN 1968 PREVIOUSLY UNRELEASED ON CD
1. Fresh Garbage (Mono Mix)
2. Uncle Jack (Mono Mix)
3. Mechanical World (Mono Mix)
4. Taurus (Mono Mix)
5. Girl in Your Eye (Mono Mix)
6. Straight Arrow (Mono Mix)
7. Topanga Windows (Mono Mix)
8. Gramophone Man (Mono Mix)
9. Water Woman (Mono Mix)
10. The Great Canyon Fire in General (Mono Mix)
11. Elijah (Mono Mix)

RECORDED IN 1968 DURING SESSIONS FOR “SPIRIT”
12. Veruska
13. Free Spirit
14. If I Had a Woman
15. Elijah (Alternate Take 2)

TAKEN FROM THE 1991 COMPILATION “TIME CIRCLE”
16. I Got a Line on You ("Time Circle" Mix)
17. It Shall Be ("Time Circle" Mix)
18. Poor Richard ("Time Circle" Mix)
19. Silky Sam ("Time Circle" Mix)

Disc: 5
TAKEN FROM THE 1991 COMPILATION “TIME CIRCLE”
1. Scherozode ("Time Circle" Mix)
2. All the Same ("Time Circle" Mix)
3. A Dream Within a Dream ("Time Circle" Mix)
4. Aren't You Glad ("Time Circle" Mix)
5. Eventide ("Time Circle" Mix)
6. Model Shop Theme ("Time Circle" Mix)
7. Green Gorilla ("Time Circle" Mix)
8. Rehearsal Theme ("Time Circle" Mix)

RECORDED IN 1968 DURING SESSIONS FOR “THE FAMILY THAT PLAYS TOGETHER”
9. Fog
10. So Little to Say
11. Mellow Fellow
12. Now or Anywhere
13. Space Chile

RECORDED IN 1969 DURING SESSIONS FOR “CLEAR”
14. Fuller Brush Man
15. Coral

A & B-SIDES OF SINGLE – RELEASED IN 1970
16. 1984
17. Sweet Stella Baby

A & B-SIDES OF SINGLE – RELEASED IN 1970
18. Animal Zoo (Mono Single Version)
19. Red Light Roll on

RECORDED AND MIXED IN 1970
20. Morning Will Come (Mono Mix)

X Lossless Decoder version 20170729 (150.3)

XLD extraction logfile from 2018-05-10 20:07:16 -0400

Spirit / It Shall Be: Ode & Epic Recordings 1968–1972 CD1

Used drive : PIONEER BD-RW BDR-XD05 (revision 3.01)
Media type : Pressed CD

Ripper mode : XLD Secure Ripper
Disable audio cache : OK for the drive with a cache less than 1375KiB
Make use of C2 pointers : NO
Read offset correction : 667
Max retry count : 20
Gap status : Analyzed, Appended (except HTOA)

TOC of the extracted CD
Track | Start | Length | Start sector | End sector
––––––––––––––––––––––––––––-
1 | 00:00:00 | 03:11:69 | 0 | 14393
2 | 03:11:69 | 02:43:38 | 14394 | 26656
3 | 05:55:32 | 05:15:01 | 26657 | 50282
4 | 11:10:33 | 02:37:07 | 50283 | 62064
5 | 13:47:40 | 03:15:37 | 62065 | 76726
6 | 17:03:02 | 02:51:28 | 76727 | 89579
7 | 19:54:30 | 03:36:43 | 89580 | 105822
8 | 23:30:73 | 03:49:49 | 105823 | 123046
9 | 27:20:47 | 02:11:28 | 123047 | 132899
10 | 29:32:00 | 02:46:73 | 132900 | 145422
11 | 32:18:73 | 10:46:04 | 145423 | 193876
12 | 43:05:02 | 02:36:01 | 193877 | 205577
13 | 45:41:03 | 03:02:50 | 205578 | 219277
14 | 48:43:53 | 02:28:32 | 219278 | 230409
15 | 51:12:10 | 03:48:00 | 230410 | 247509
16 | 55:00:10 | 02:27:51 | 247510 | 258585
17 | 57:27:61 | 03:39:64 | 258586 | 275074
18 | 61:07:50 | 04:47:36 | 275075 | 296635
19 | 65:55:11 | 02:48:01 | 296636 | 309236
20 | 68:43:12 | 03:02:33 | 309237 | 322919
21 | 71:45:45 | 02:24:23 | 322920 | 333742
22 | 74:09:68 | 05:34:30 | 333743 | 358822

AccurateRip Summary (DiscID: 003e3bec-03e9492e-4a12b016)
Track 01 : OK (v2, confidence 2/2)
Track 02 : OK (v2, confidence 2/2)
Track 03 : OK (v2, confidence 2/2)
Track 04 : OK (v2, confidence 2/2)
Track 05 : OK (v2, confidence 2/2)
Track 06 : OK (v2, confidence 2/2)
Track 07 : OK (v2, confidence 2/2)
Track 08 : OK (v2, confidence 2/2)
Track 09 : OK (v2, confidence 2/2)
Track 10 : OK (v2, confidence 2/2)
Track 11 : OK (v2, confidence 2/2)
Track 12 : OK (v2, confidence 2/2)
Track 13 : OK (v2, confidence 2/2)
Track 14 : OK (v2, confidence 2/2)
Track 15 : OK (v2, confidence 2/2)
Track 16 : OK (v2, confidence 2/2)
Track 17 : OK (v2, confidence 2/2)
Track 18 : OK (v2, confidence 2/2)
Track 19 : OK (v2, confidence 2/2)
Track 20 : OK (v2, confidence 2/2)
Track 21 : OK (v2, confidence 2/2)
Track 22 : OK (v2, confidence 2/2)
->All tracks accurately ripped.

All Tracks
Statistics
Read error : 0
Jitter error (maybe fixed) : 0
Retry sector count : 0
Damaged sector count : 0

Track 01
Filename : /XLD Rips/Spirit - It Shall Be/CD1/01 Spirit - Fresh Garbage.flac
Pre-gap length : 00:02:00

CRC32 hash (test run) : 1EB6A78D
CRC32 hash : 1EB6A78D
CRC32 hash (skip zero) : F08F6797
AccurateRip v1 signature : 41CEDBCF
AccurateRip v2 signature : 407D2666
->Accurately ripped (v2, confidence 2/2)
Statistics
Read error : 0
Jitter error (maybe fixed) : 0
Retry sector count : 0
Damaged sector count : 0

Track 02
Filename : /XLD Rips/Spirit - It Shall Be/CD1/02 Spirit - Uncle Jack.flac

CRC32 hash (test run) : 0E98442E
CRC32 hash : 0E98442E
CRC32 hash (skip zero) : 02261076
AccurateRip v1 signature : F9DC789C
AccurateRip v2 signature : 171F0FEA
->Accurately ripped (v2, confidence 2/2)
Statistics
Read error : 0
Jitter error (maybe fixed) : 0
Retry sector count : 0
Damaged sector count : 0

Track 03
Filename : /XLD Rips/Spirit - It Shall Be/CD1/03 Spirit - Mechanical World.flac

CRC32 hash (test run) : 871359E5
CRC32 hash : 871359E5
CRC32 hash (skip zero) : 0DB5AFE5
AccurateRip v1 signature : B9ABA55A
AccurateRip v2 signature : 77AA5BB2
->Accurately ripped (v2, confidence 2/2)
Statistics
Read error : 0
Jitter error (maybe fixed) : 0
Retry sector count : 0
Damaged sector count : 0

Track 04
Filename : /XLD Rips/Spirit - It Shall Be/CD1/04 Spirit - Taurus.flac

CRC32 hash (test run) : 37159B1F
CRC32 hash : 37159B1F
CRC32 hash (skip zero) : 6E3DA78E
AccurateRip v1 signature : 7037C259
AccurateRip v2 signature : 54944DC6
->Accurately ripped (v2, confidence 2/2)
Statistics
Read error : 0
Jitter error (maybe fixed) : 0
Retry sector count : 0
Damaged sector count : 0

Track 05
Filename : /XLD Rips/Spirit - It Shall Be/CD1/05 Spirit - The Girl In Your Eye.flac

CRC32 hash (test run) : CB8EC40F
CRC32 hash : CB8EC40F
CRC32 hash (skip zero) : 985F7EE1
AccurateRip v1 signature : 06102E4A
AccurateRip v2 signature : CF99DC86
->Accurately ripped (v2, confidence 2/2)
Statistics
Read error : 0
Jitter error (maybe fixed) : 0
Retry sector count : 0
Damaged sector count : 0

Track 06
Filename : /XLD Rips/Spirit - It Shall Be/CD1/06 Spirit - Straight Arrow.flac
Pre-gap length : 00:00:21

CRC32 hash (test run) : C3AA592D
CRC32 hash : C3AA592D
CRC32 hash (skip zero) : 390DAF62
AccurateRip v1 signature : 87068FD7
AccurateRip v2 signature : 5004C067
->Accurately ripped (v2, confidence 2/2)
Statistics
Read error : 0
Jitter error (maybe fixed) : 0
Retry sector count : 0
Damaged sector count : 0

Track 07
Filename : /XLD Rips/Spirit - It Shall Be/CD1/07 Spirit - Topanga Windows.flac
Pre-gap length : 00:00:53

CRC32 hash (test run) : 9CBF6BE0
CRC32 hash : 9CBF6BE0
CRC32 hash (skip zero) : C959AB20
AccurateRip v1 signature : 97B25FC3
AccurateRip v2 signature : DA047E00
->Accurately ripped (v2, confidence 2/2)
Statistics
Read error : 0
Jitter error (maybe fixed) : 0
Retry sector count : 0
Damaged sector count : 0

Track 08
Filename : /XLD Rips/Spirit - It Shall Be/CD1/08 Spirit - Gramophone Man.flac

CRC32 hash (test run) : 3BA8149E
CRC32 hash : 3BA8149E
CRC32 hash (skip zero) : E0C90507
AccurateRip v1 signature : 4A00D254
AccurateRip v2 signature : F06B24D5
->Accurately ripped (v2, confidence 2/2)
Statistics
Read error : 0
Jitter error (maybe fixed) : 0
Retry sector count : 0
Damaged sector count : 0

Track 09
Filename : /XLD Rips/Spirit - It Shall Be/CD1/09 Spirit - Water Woman.flac

CRC32 hash (test run) : 4AEE6562
CRC32 hash : 4AEE6562
CRC32 hash (skip zero) : AA4F138D
AccurateRip v1 signature : B59E8A6E
AccurateRip v2 signature : 457177AB
->Accurately ripped (v2, confidence 2/2)
Statistics
Read error : 0
Jitter error (maybe fixed) : 0
Retry sector count : 0
Damaged sector count : 0

Track 10
Filename : /XLD Rips/Spirit - It Shall Be/CD1/10 Spirit - The Great Canyon.flac

CRC32 hash (test run) : 539A7DD6
CRC32 hash : 539A7DD6
CRC32 hash (skip zero) : C1726E33
AccurateRip v1 signature : 66A85D40
AccurateRip v2 signature : 79635F4B
->Accurately ripped (v2, confidence 2/2)
Statistics
Read error : 0
Jitter error (maybe fixed) : 0
Retry sector count : 0
Damaged sector count : 0

Track 11
Filename : /XLD Rips/Spirit - It Shall Be/CD1/11 Spirit - Elijah.flac
Pre-gap length : 00:00:38

CRC32 hash (test run) : 166A0AC6
CRC32 hash : 166A0AC6
CRC32 hash (skip zero) : ABC6B67F
AccurateRip v1 signature : F52998AF
AccurateRip v2 signature : D5D7EF31
->Accurately ripped (v2, confidence 2/2)
Statistics
Read error : 0
Jitter error (maybe fixed) : 0
Retry sector count : 0
Damaged sector count : 0

Track 12
Filename : /XLD Rips/Spirit - It Shall Be/CD1/12 Spirit - I Got A Line On You [Original Stereo Mix].flac
Pre-gap length : 00:03:57

CRC32 hash (test run) : EBD0CC5B
CRC32 hash : EBD0CC5B
CRC32 hash (skip zero) : 869849DD
AccurateRip v1 signature : 2E4228DE
AccurateRip v2 signature : D6907726
->Accurately ripped (v2, confidence 2/2)
Statistics
Read error : 0
Jitter error (maybe fixed) : 0
Retry sector count : 0
Damaged sector count : 0

Track 13
Filename : /XLD Rips/Spirit - It Shall Be/CD1/13 Spirit - It Shall Be [Original Stereo Mix].flac

CRC32 hash (test run) : 764FF0A9
CRC32 hash : 764FF0A9
CRC32 hash (skip zero) : 1764A5C2
AccurateRip v1 signature : 95E2F3F8
AccurateRip v2 signature : 92981A1F
->Accurately ripped (v2, confidence 2/2)
Statistics
Read error : 0
Jitter error (maybe fixed) : 0
Retry sector count : 0
Damaged sector count : 0

Track 14
Filename : /XLD Rips/Spirit - It Shall Be/CD1/14 Spirit - Poor Richard [Original Stereo Mix].flac

CRC32 hash (test run) : D9902355
CRC32 hash : D9902355
CRC32 hash (skip zero) : 50BFFF1E
AccurateRip v1 signature : 3C96B165
AccurateRip v2 signature : 378E0AF4
->Accurately ripped (v2, confidence 2/2)
Statistics
Read error : 0
Jitter error (maybe fixed) : 0
Retry sector count : 0
Damaged sector count : 0

Track 15
Filename : /XLD Rips/Spirit - It Shall Be/CD1/15 Spirit - Silky Sam [Original Stereo Mix].flac

CRC32 hash (test run) : ED26E765
CRC32 hash : ED26E765
CRC32 hash (skip zero) : 7FBB09A5
AccurateRip v1 signature : 309F4D44
AccurateRip v2 signature : EE455EFA
->Accurately ripped (v2, confidence 2/2)
Statistics
Read error : 0
Jitter error (maybe fixed) : 0
Retry sector count : 0
Damaged sector count : 0

Track 16
Filename : /XLD Rips/Spirit - It Shall Be/CD1/16 Spirit - The Drunkard [Original Stereo Mix].flac

CRC32 hash (test run) : 419BF1DF
CRC32 hash : 419BF1DF
CRC32 hash (skip zero) : D7A96398
AccurateRip v1 signature : E00B8DC0
AccurateRip v2 signature : E3183108
->Accurately ripped (v2, confidence 2/2)
Statistics
Read error : 0
Jitter error (maybe fixed) : 0
Retry sector count : 0
Damaged sector count : 0

Track 17
Filename : /XLD Rips/Spirit - It Shall Be/CD1/17 Spirit - Darlin' If [Original Stereo Mix].flac
Pre-gap length : 00:00:59

CRC32 hash (test run) : F66D52C8
CRC32 hash : F66D52C8
CRC32 hash (skip zero) : 5C21F5F0
AccurateRip v1 signature : 7775B65C
AccurateRip v2 signature : 93060D42
->Accurately ripped (v2, confidence 2/2)
Statistics
Read error : 0
Jitter error (maybe fixed) : 0
Retry sector count : 0
Damaged sector count : 0

Track 18
Filename : /XLD Rips/Spirit - It Shall Be/CD1/18 Spirit - All The Same [Original Stereo Mix].flac
Pre-gap length : 00:01:57

CRC32 hash (test run) : 8554E303
CRC32 hash : 8554E303
CRC32 hash (skip zero) : 48AB0897
AccurateRip v1 signature : 964D6B10
AccurateRip v2 signature : AA3096A3
->Accurately ripped (v2, confidence 2/2)
Statistics
Read error : 0
Jitter error (maybe fixed) : 0
Retry sector count : 0
Damaged sector count : 0

Track 19
Filename : /XLD Rips/Spirit - It Shall Be/CD1/19 Spirit - Jewish [Original Stereo Mix].flac
Pre-gap length : 00:00:62

CRC32 hash (test run) : E68E0498
CRC32 hash : E68E0498
CRC32 hash (skip zero) : 834FAD58
AccurateRip v1 signature : 140DD68E
AccurateRip v2 signature : 4E735DAB
->Accurately ripped (v2, confidence 2/2)
Statistics
Read error : 0
Jitter error (maybe fixed) : 0
Retry sector count : 0
Damaged sector count : 0

Track 20
Filename : /XLD Rips/Spirit - It Shall Be/CD1/20 Spirit - Dream Within A Dream [Original Stereo Mix].flac
Pre-gap length : 00:01:18

CRC32 hash (test run) : 9294E4ED
CRC32 hash : 9294E4ED
CRC32 hash (skip zero) : ACD0922A
AccurateRip v1 signature : 350AEEF8
AccurateRip v2 signature : 409101EA
->Accurately ripped (v2, confidence 2/2)
Statistics
Read error : 0
Jitter error (maybe fixed) : 0
Retry sector count : 0
Damaged sector count : 0

Track 21
Filename : /XLD Rips/Spirit - It Shall Be/CD1/21 Spirit - She Smiled [Original Stereo Mix].flac
Pre-gap length : 00:01:34

CRC32 hash (test run) : 1E33980A
CRC32 hash : 1E33980A
CRC32 hash (skip zero) : 17E433C3
AccurateRip v1 signature : 790ABD55
AccurateRip v2 signature : 0F386BBD
->Accurately ripped (v2, confidence 2/2)
Statistics
Read error : 0
Jitter error (maybe fixed) : 0
Retry sector count : 0
Damaged sector count : 0

Track 22
Filename : /XLD Rips/Spirit - It Shall Be/CD1/22 Spirit - Aren't You Glad [Original Stereo Mix].flac
Pre-gap length : 00:01:31

CRC32 hash (test run) : CE7CAFDC
CRC32 hash : CE7CAFDC
CRC32 hash (skip zero) : 6DD98878
AccurateRip v1 signature : DD89CE99
AccurateRip v2 signature : DFE72740
->Accurately ripped (v2, confidence 2/2)
Statistics
Read error : 0
Jitter error (maybe fixed) : 0
Retry sector count : 0
Damaged sector count : 0

No errors occurred

End of status report

––-BEGIN XLD SIGNATURE––-
h0dZGJNSUV.MsfFVhXUR9qvSjbYVH6bYxbjNO4R4BV0FcI_dymVz1GoGEJ2yRdb7MMirZWHJyyItqktRbBEkLhnqFqyw2ggYL7T4VoS
––-END XLD SIGNATURE––-

X Lossless Decoder version 20170729 (150.3)

XLD extraction logfile from 2018-05-10 20:31:16 -0400

Spirit / It Shall Be: Ode & Epic Recordings 1968–1972 CD2

Used drive : PIONEER BD-RW BDR-XD05 (revision 3.01)
Media type : Pressed CD

Ripper mode : XLD Secure Ripper
Disable audio cache : OK for the drive with a cache less than 1375KiB
Make use of C2 pointers : NO
Read offset correction : 667
Max retry count : 20
Gap status : Analyzed, Appended (except HTOA)

TOC of the extracted CD
Track | Start | Length | Start sector | End sector
––––––––––––––––––––––––––––-
1 | 00:00:00 | 01:56:68 | 0 | 8767
2 | 01:56:68 | 02:50:09 | 8768 | 21526
3 | 04:47:02 | 04:39:72 | 21527 | 42523
4 | 09:26:74 | 02:25:35 | 42524 | 53433
5 | 11:52:34 | 02:13:31 | 53434 | 63439
6 | 14:05:65 | 02:02:06 | 63440 | 72595
7 | 16:07:71 | 04:09:19 | 72596 | 91289
8 | 20:17:15 | 01:11:40 | 91290 | 96654
9 | 21:28:55 | 05:47:14 | 96655 | 122693
10 | 27:15:69 | 03:56:64 | 122694 | 140457
11 | 31:12:58 | 04:22:40 | 140458 | 160147
12 | 35:35:23 | 05:28:12 | 160148 | 184759
13 | 41:03:35 | 03:08:05 | 184760 | 198864
14 | 44:11:40 | 04:05:01 | 198865 | 217240
15 | 48:16:41 | 02:49:20 | 217241 | 229935
16 | 51:05:61 | 03:03:50 | 229936 | 243710
17 | 54:09:36 | 03:24:01 | 243711 | 259011
18 | 57:33:37 | 02:21:21 | 259012 | 269607
19 | 59:54:58 | 05:49:72 | 269608 | 295854
20 | 65:44:55 | 03:21:51 | 295855 | 310980
21 | 69:06:31 | 02:26:44 | 310981 | 321974
22 | 71:33:00 | 04:09:17 | 321975 | 340666
23 | 75:42:17 | 03:12:67 | 340667 | 355133
24 | 78:55:09 | 04:23:69 | 355134 | 374927

AccurateRip Summary (DiscID: 00444d2f-04b5b23d-95138718)
Track 01 : OK (v2, confidence 2/2)
Track 02 : OK (v2, confidence 2/2)
Track 03 : OK (v2, confidence 2/2)
Track 04 : OK (v2, confidence 2/2)
Track 05 : OK (v2, confidence 2/2)
Track 06 : OK (v2, confidence 2/2)
Track 07 : OK (v2, confidence 2/2)
Track 08 : OK (v2, confidence 2/2)
Track 09 : OK (v2, confidence 2/2)
Track 10 : OK (v2, confidence 2/2)
Track 11 : OK (v2, confidence 2/2)
Track 12 : OK (v2, confidence 2/2)
Track 13 : OK (v2, confidence 2/2)
Track 14 : OK (v2, confidence 2/2)
Track 15 : OK (v2, confidence 2/2)
Track 16 : OK (v2, confidence 2/2)
Track 17 : OK (v2, confidence 2/2)
Track 18 : OK (v2, confidence 2/2)
Track 19 : OK (v2, confidence 2/2)
Track 20 : OK (v2, confidence 2/2)
Track 21 : OK (v2, confidence 2/2)
Track 22 : OK (v2, confidence 2/2)
Track 23 : OK (v2, confidence 2/2)
Track 24 : OK (v2, confidence 2/2)
->All tracks accurately ripped.

All Tracks
Statistics
Read error : 0
Jitter error (maybe fixed) : 0
Retry sector count : 0
Damaged sector count : 0

Track 01
Filename : /XLD Rips/Spirit - It Shall Be/CD2/01 Spirit - The Moving Van.flac
Pre-gap length : 00:02:00

CRC32 hash (test run) : 10E5529D
CRC32 hash : 10E5529D
CRC32 hash (skip zero) : 5D567411
AccurateRip v1 signature : E385212F
AccurateRip v2 signature : 866629D9
->Accurately ripped (v2, confidence 2/2)
Statistics
Read error : 0
Jitter error (maybe fixed) : 0
Retry sector count : 0
Damaged sector count : 0

Track 02
Filename : /XLD Rips/Spirit - It Shall Be/CD2/02 Spirit - Mellow Fellow.flac

CRC32 hash (test run) : 877B88CF
CRC32 hash : 877B88CF
CRC32 hash (skip zero) : 803F82FE
AccurateRip v1 signature : C7689B19
AccurateRip v2 signature : 954BA0AA
->Accurately ripped (v2, confidence 2/2)
Statistics
Read error : 0
Jitter error (maybe fixed) : 0
Retry sector count : 0
Damaged sector count : 0

Track 03
Filename : /XLD Rips/Spirit - It Shall Be/CD2/03 Spirit - Now Or Anywhere.flac

CRC32 hash (test run) : BDE7D650
CRC32 hash : BDE7D650
CRC32 hash (skip zero) : FC4504B7
AccurateRip v1 signature : 0502D734
AccurateRip v2 signature : 42CBD0F3
->Accurately ripped (v2, confidence 2/2)
Statistics
Read error : 0
Jitter error (maybe fixed) : 0
Retry sector count : 0
Damaged sector count : 0

Track 04
Filename : /XLD Rips/Spirit - It Shall Be/CD2/04 Spirit - Fog.flac
Pre-gap length : 00:00:42

CRC32 hash (test run) : 065D848A
CRC32 hash : 065D848A
CRC32 hash (skip zero) : CB8562C9
AccurateRip v1 signature : 3FAA5156
AccurateRip v2 signature : 90F9AA4C
->Accurately ripped (v2, confidence 2/2)
Statistics
Read error : 0
Jitter error (maybe fixed) : 0
Retry sector count : 0
Damaged sector count : 0

Track 05
Filename : /XLD Rips/Spirit - It Shall Be/CD2/05 Spirit - Green Gorilla.flac
Pre-gap length : 00:01:00

CRC32 hash (test run) : 8EA5FDA5
CRC32 hash : 8EA5FDA5
CRC32 hash (skip zero) : 5E1FCCC6
AccurateRip v1 signature : 911A979D
AccurateRip v2 signature : 2EC30C4C
->Accurately ripped (v2, confidence 2/2)
Statistics
Read error : 0
Jitter error (maybe fixed) : 0
Retry sector count : 0
Damaged sector count : 0

Track 06
Filename : /XLD Rips/Spirit - It Shall Be/CD2/06 Spirit - Model Shop I.flac

CRC32 hash (test run) : 796F12EC
CRC32 hash : 796F12EC
CRC32 hash (skip zero) : BC52A772
AccurateRip v1 signature : AE7CDC51
AccurateRip v2 signature : E8EBDC38
->Accurately ripped (v2, confidence 2/2)
Statistics
Read error : 0
Jitter error (maybe fixed) : 0
Retry sector count : 0
Damaged sector count : 0

Track 07
Filename : /XLD Rips/Spirit - It Shall Be/CD2/07 Spirit - Model Shop II.flac

CRC32 hash (test run) : E20AE69F
CRC32 hash : E20AE69F
CRC32 hash (skip zero) : DFA60B8C
AccurateRip v1 signature : C424C9A2
AccurateRip v2 signature : 05B4FA89
->Accurately ripped (v2, confidence 2/2)
Statistics
Read error : 0
Jitter error (maybe fixed) : 0
Retry sector count : 0
Damaged sector count : 0

Track 08
Filename : /XLD Rips/Spirit - It Shall Be/CD2/08 Spirit - The Rehearsal Theme.flac
Pre-gap length : 00:01:30

CRC32 hash (test run) : 206FDA08
CRC32 hash : 206FDA08
CRC32 hash (skip zero) : E566A3F2
AccurateRip v1 signature : 33FFA794
AccurateRip v2 signature : F7E313EB
->Accurately ripped (v2, confidence 2/2)
Statistics
Read error : 0
Jitter error (maybe fixed) : 0
Retry sector count : 0
Damaged sector count : 0

Track 09
Filename : /XLD Rips/Spirit - It Shall Be/CD2/09 Spirit - Song For Lola.flac

CRC32 hash (test run) : 26E4FEEE
CRC32 hash : 26E4FEEE
CRC32 hash (skip zero) : 3A4008F4
AccurateRip v1 signature : 35E41388
AccurateRip v2 signature : 96C6EB28
->Accurately ripped (v2, confidence 2/2)
Statistics
Read error : 0
Jitter error (maybe fixed) : 0
Retry sector count : 0
Damaged sector count : 0

Track 10
Filename : /XLD Rips/Spirit - It Shall Be/CD2/10 Spirit - Eventide.flac

CRC32 hash (test run) : 01167F21
CRC32 hash : 01167F21
CRC32 hash (skip zero) : 79374478
AccurateRip v1 signature : CFCA09BD
AccurateRip v2 signature : 92AC1162
->Accurately ripped (v2, confidence 2/2)
Statistics
Read error : 0
Jitter error (maybe fixed) : 0
Retry sector count : 0
Damaged sector count : 0

Track 11
Filename : /XLD Rips/Spirit - It Shall Be/CD2/11 Spirit - Coral.flac

CRC32 hash (test run) : 51051754
CRC32 hash : 51051754
CRC32 hash (skip zero) : 1E0656B4
AccurateRip v1 signature : 94E15AED
AccurateRip v2 signature : F86B0B42
->Accurately ripped (v2, confidence 2/2)
Statistics
Read error : 0
Jitter error (maybe fixed) : 0
Retry sector count : 0
Damaged sector count : 0

Track 12
Filename : /XLD Rips/Spirit - It Shall Be/CD2/12 Spirit - Aren't You Glad [Demo].flac

CRC32 hash (test run) : D0952D85
CRC32 hash : D0952D85
CRC32 hash (skip zero) : B1CD64E3
AccurateRip v1 signature : 90D82995
AccurateRip v2 signature : EA4CB7C5
->Accurately ripped (v2, confidence 2/2)
Statistics
Read error : 0
Jitter error (maybe fixed) : 0
Retry sector count : 0
Damaged sector count : 0

Track 13
Filename : /XLD Rips/Spirit - It Shall Be/CD2/13 Spirit - Dark Eyed Woman.flac
Pre-gap length : 00:02:15

CRC32 hash (test run) : F7CF44CF
CRC32 hash : F7CF44CF
CRC32 hash (skip zero) : F8CD1891
AccurateRip v1 signature : F697B54B
AccurateRip v2 signature : D6BADE33
->Accurately ripped (v2, confidence 2/2)
Statistics
Read error : 0
Jitter error (maybe fixed) : 0
Retry sector count : 0
Damaged sector count : 0

Track 14
Filename : /XLD Rips/Spirit - It Shall Be/CD2/14 Spirit - Apple Orchard.flac
Pre-gap length : 00:01:10

CRC32 hash (test run) : 567CE89B
CRC32 hash : 567CE89B
CRC32 hash (skip zero) : 20C660DD
AccurateRip v1 signature : 945E7D48
AccurateRip v2 signature : 4BDA0230
->Accurately ripped (v2, confidence 2/2)
Statistics
Read error : 0
Jitter error (maybe fixed) : 0
Retry sector count : 0
Damaged sector count : 0

Track 15
Filename : /XLD Rips/Spirit - It Shall Be/CD2/15 Spirit - So Little Time To Fly.flac
Pre-gap length : 00:01:36

CRC32 hash (test run) : 85CB6C39
CRC32 hash : 85CB6C39
CRC32 hash (skip zero) : 9D5D9AC0
AccurateRip v1 signature : 372E9001
AccurateRip v2 signature : EFF3BEA6
->Accurately ripped (v2, confidence 2/2)
Statistics
Read error : 0
Jitter error (maybe fixed) : 0
Retry sector count : 0
Damaged sector count : 0

Track 16
Filename : /XLD Rips/Spirit - It Shall Be/CD2/16 Spirit - Ground Hog.flac
Pre-gap length : 00:01:27

CRC32 hash (test run) : 3BE80A65
CRC32 hash : 3BE80A65
CRC32 hash (skip zero) : 553F4796
AccurateRip v1 signature : 2A5CDBF2
AccurateRip v2 signature : 93FF208C
->Accurately ripped (v2, confidence 2/2)
Statistics
Read error : 0
Jitter error (maybe fixed) : 0
Retry sector count : 0
Damaged sector count : 0

Track 17
Filename : /XLD Rips/Spirit - It Shall Be/CD2/17 Spirit - Cold Wind.flac
Pre-gap length : 00:00:66

CRC32 hash (test run) : 77A5E32D
CRC32 hash : 77A5E32D
CRC32 hash (skip zero) : 0693C9CA
AccurateRip v1 signature : 5164BE3B
AccurateRip v2 signature : 2D24E23B
->Accurately ripped (v2, confidence 2/2)
Statistics
Read error : 0
Jitter error (maybe fixed) : 0
Retry sector count : 0
Damaged sector count : 0

Track 18
Filename : /XLD Rips/Spirit - It Shall Be/CD2/18 Spirit - Policeman's Ball.flac
Pre-gap length : 00:00:71

CRC32 hash (test run) : 64691EC5
CRC32 hash : 64691EC5
CRC32 hash (skip zero) : 8F6F5C61
AccurateRip v1 signature : 2FEDF3BE
AccurateRip v2 signature : 16777A5F
->Accurately ripped (v2, confidence 2/2)
Statistics
Read error : 0
Jitter error (maybe fixed) : 0
Retry sector count : 0
Damaged sector count : 0

Track 19
Filename : /XLD Rips/Spirit - It Shall Be/CD2/19 Spirit - Ice.flac

CRC32 hash (test run) : DF3A4486
CRC32 hash : DF3A4486
CRC32 hash (skip zero) : 08710D5C
AccurateRip v1 signature : 3559B008
AccurateRip v2 signature : 77F4650E
->Accurately ripped (v2, confidence 2/2)
Statistics
Read error : 0
Jitter error (maybe fixed) : 0
Retry sector count : 0
Damaged sector count : 0

Track 20
Filename : /XLD Rips/Spirit - It Shall Be/CD2/20 Spirit - Give A Life, Take A Life.flac
Pre-gap length : 00:02:07

CRC32 hash (test run) : 51526656
CRC32 hash : 51526656
CRC32 hash (skip zero) : A1F536A2
AccurateRip v1 signature : 673FE141
AccurateRip v2 signature : A49E5F4C
->Accurately ripped (v2, confidence 2/2)
Statistics
Read error : 0
Jitter error (maybe fixed) : 0
Retry sector count : 0
Damaged sector count : 0

Track 21
Filename : /XLD Rips/Spirit - It Shall Be/CD2/21 Spirit - I'm Truckin'.flac
Pre-gap length : 00:01:14

CRC32 hash (test run) : FAC98742
CRC32 hash : FAC98742
CRC32 hash (skip zero) : 1AE01C15
AccurateRip v1 signature : 7D624DC7
AccurateRip v2 signature : 5A83A5D5
->Accurately ripped (v2, confidence 2/2)
Statistics
Read error : 0
Jitter error (maybe fixed) : 0
Retry sector count : 0
Damaged sector count : 0

Track 22
Filename : /XLD Rips/Spirit - It Shall Be/CD2/22 Spirit - Clear.flac
Pre-gap length : 00:01:55

CRC32 hash (test run) : E488B5EE
CRC32 hash : E488B5EE
CRC32 hash (skip zero) : 59D34804
AccurateRip v1 signature : 11827D0A
AccurateRip v2 signature : 5FDBD969
->Accurately ripped (v2, confidence 2/2)
Statistics
Read error : 0
Jitter error (maybe fixed) : 0
Retry sector count : 0
Damaged sector count : 0

Track 23
Filename : /XLD Rips/Spirit - It Shall Be/CD2/23 Spirit - Caught.flac
Pre-gap length : 00:01:22

CRC32 hash (test run) : 1F348985
CRC32 hash : 1F348985
CRC32 hash (skip zero) : A8D581EE
AccurateRip v1 signature : 6F01165C
AccurateRip v2 signature : B030273F
->Accurately ripped (v2, confidence 2/2)
Statistics
Read error : 0
Jitter error (maybe fixed) : 0
Retry sector count : 0
Damaged sector count : 0

Track 24
Filename : /XLD Rips/Spirit - It Shall Be/CD2/24 Spirit - New Dope In Town.flac
Pre-gap length : 00:01:47

CRC32 hash (test run) : 9841AB48
CRC32 hash : 9841AB48
CRC32 hash (skip zero) : 02844B10
AccurateRip v1 signature : DB379199
AccurateRip v2 signature : 535498DE
->Accurately ripped (v2, confidence 2/2)
Statistics
Read error : 0
Jitter error (maybe fixed) : 0
Retry sector count : 0
Damaged sector count : 0

No errors occurred

End of status report

––-BEGIN XLD SIGNATURE––-
Qt4xtfF1uMXuhyh1v2TG_fRb6LsLoigpLbgwX8oOLS.V8hKOYJRtoxViJf.ZMwemrbtSf5zoZf6HBAc45pGPj92KZl_1xZFb1goUuue
––-END XLD SIGNATURE––-

X Lossless Decoder version 20170729 (150.3)

XLD extraction logfile from 2018-05-10 20:57:14 -0400

Spirit / It Shall Be: Ode & Epic Recordings 1968–1972 CD3

Used drive : PIONEER BD-RW BDR-XD05 (revision 3.01)
Media type : Pressed CD

Ripper mode : XLD Secure Ripper
Disable audio cache : OK for the drive with a cache less than 1375KiB
Make use of C2 pointers : NO
Read offset correction : 667
Max retry count : 20
Gap status : Analyzed, Appended (except HTOA)

TOC of the extracted CD
Track | Start | Length | Start sector | End sector
––––––––––––––––––––––––––––-
1 | 00:00:00 | 03:43:71 | 0 | 16795
2 | 03:43:71 | 02:40:14 | 16796 | 28809
3 | 06:24:10 | 03:10:59 | 28810 | 43118
4 | 09:34:69 | 02:42:09 | 43119 | 55277
5 | 12:17:03 | 01:05:28 | 55278 | 60180
6 | 13:22:31 | 04:01:14 | 60181 | 78269
7 | 17:23:45 | 03:25:26 | 78270 | 93670
8 | 20:48:71 | 05:37:22 | 93671 | 118967
9 | 26:26:18 | 03:43:26 | 118968 | 135718
10 | 30:09:44 | 03:29:63 | 135719 | 151456
11 | 33:39:32 | 02:50:69 | 151457 | 164275
12 | 36:30:26 | 02:47:30 | 164276 | 176830
13 | 39:17:56 | 03:21:06 | 176831 | 191911
14 | 42:38:62 | 03:29:08 | 191912 | 207594
15 | 46:07:70 | 03:37:71 | 207595 | 223940
16 | 49:45:66 | 02:01:74 | 223941 | 233089
17 | 51:47:65 | 03:52:49 | 233090 | 250538
18 | 55:40:39 | 04:47:61 | 250539 | 272124
19 | 60:28:25 | 03:54:48 | 272125 | 289722
20 | 64:22:73 | 02:22:19 | 289723 | 300391
21 | 66:45:17 | 02:47:41 | 300392 | 312957
22 | 69:32:58 | 02:37:08 | 312958 | 324740
23 | 72:09:66 | 05:21:03 | 324741 | 348818

AccurateRip Summary (DiscID: 003e3e6b-04146794-46122a17)
Track 01 : OK (v2, confidence 2/2)
Track 02 : OK (v2, confidence 2/2)
Track 03 : OK (v2, confidence 2/2)
Track 04 : OK (v2, confidence 2/2)
Track 05 : OK (v2, confidence 2/2)
Track 06 : OK (v2, confidence 2/2)
Track 07 : OK (v2, confidence 2/2)
Track 08 : OK (v2, confidence 2/2)
Track 09 : OK (v2, confidence 2/2)
Track 10 : OK (v2, confidence 2/2)
Track 11 : OK (v2, confidence 2/2)
Track 12 : OK (v2, confidence 2/2)
Track 13 : OK (v2, confidence 2/2)
Track 14 : OK (v2, confidence 2/2)
Track 15 : OK (v2, confidence 2/2)
Track 16 : OK (v2, confidence 2/2)
Track 17 : OK (v2, confidence 2/2)
Track 18 : OK (v2, confidence 2/2)
Track 19 : OK (v2, confidence 2/2)
Track 20 : OK (v2, confidence 2/2)
Track 21 : OK (v2, confidence 2/2)
Track 22 : OK (v2, confidence 2/2)
Track 23 : OK (v2, confidence 2/2)
->All tracks accurately ripped.

All Tracks
Statistics
Read error : 0
Jitter error (maybe fixed) : 0
Retry sector count : 0
Damaged sector count : 0

Track 01
Filename : /XLD Rips/Spirit - It Shall Be/CD3/01 Spirit - Prelude – Nothing To Hide.flac
Pre-gap length : 00:02:00

CRC32 hash (test run) : B9758F99
CRC32 hash : B9758F99
CRC32 hash (skip zero) : B074482C
AccurateRip v1 signature : AF39D724
AccurateRip v2 signature : 72B91B0D
->Accurately ripped (v2, confidence 2/2)
Statistics
Read error : 0
Jitter error (maybe fixed) : 0
Retry sector count : 0
Damaged sector count : 0

Track 02
Filename : /XLD Rips/Spirit - It Shall Be/CD3/02 Spirit - Nature's Way.flac
Pre-gap length : 00:00:16

CRC32 hash (test run) : 278A79BE
CRC32 hash : 278A79BE
CRC32 hash (skip zero) : 7E9D9C00
AccurateRip v1 signature : 67047727
AccurateRip v2 signature : 0235FEC3
->Accurately ripped (v2, confidence 2/2)
Statistics
Read error : 0
Jitter error (maybe fixed) : 0
Retry sector count : 0
Damaged sector count : 0

Track 03
Filename : /XLD Rips/Spirit - It Shall Be/CD3/03 Spirit - Animal Zoo.flac

CRC32 hash (test run) : D9FAE8FD
CRC32 hash : D9FAE8FD
CRC32 hash (skip zero) : B95E848E
AccurateRip v1 signature : 7C6858EB
AccurateRip v2 signature : 813A7B87
->Accurately ripped (v2, confidence 2/2)
Statistics
Read error : 0
Jitter error (maybe fixed) : 0
Retry sector count : 0
Damaged sector count : 0

Track 04
Filename : /XLD Rips/Spirit - It Shall Be/CD3/04 Spirit - Love Has Found A Way.flac

CRC32 hash (test run) : 11B35C72
CRC32 hash : 11B35C72
CRC32 hash (skip zero) : F7541000
AccurateRip v1 signature : 66BD6F54
AccurateRip v2 signature : CDB0F05D
->Accurately ripped (v2, confidence 2/2)
Statistics
Read error : 0
Jitter error (maybe fixed) : 0
Retry sector count : 0
Damaged sector count : 0

Track 05
Filename : /XLD Rips/Spirit - It Shall Be/CD3/05 Spirit - Why Can't I Be Free?.flac

CRC32 hash (test run) : 4B953D4E
CRC32 hash : 4B953D4E
CRC32 hash (skip zero) : CD8127EA
AccurateRip v1 signature : A855058A
AccurateRip v2 signature : F19509C3
->Accurately ripped (v2, confidence 2/2)
Statistics
Read error : 0
Jitter error (maybe fixed) : 0
Retry sector count : 0
Damaged sector count : 0

Track 06
Filename : /XLD Rips/Spirit - It Shall Be/CD3/06 Spirit - Mr. Skin.flac

CRC32 hash (test run) : 5B1C5FCE
CRC32 hash : 5B1C5FCE
CRC32 hash (skip zero) : 0F94D6D1
AccurateRip v1 signature : 5726BA4E
AccurateRip v2 signature : D41CA099
->Accurately ripped (v2, confidence 2/2)
Statistics
Read error : 0
Jitter error (maybe fixed) : 0
Retry sector count : 0
Damaged sector count : 0

Track 07
Filename : /XLD Rips/Spirit - It Shall Be/CD3/07 Spirit - Space Child.flac
Pre-gap length : 00:00:44

CRC32 hash (test run) : EEB4E0AB
CRC32 hash : EEB4E0AB
CRC32 hash (skip zero) : C133436C
AccurateRip v1 signature : 8886AA12
AccurateRip v2 signature : 76EB24EF
->Accurately ripped (v2, confidence 2/2)
Statistics
Read error : 0
Jitter error (maybe fixed) : 0
Retry sector count : 0
Damaged sector count : 0

Track 08
Filename : /XLD Rips/Spirit - It Shall Be/CD3/08 Spirit - When I Touch You.flac

CRC32 hash (test run) : D2D13FA3
CRC32 hash : D2D13FA3
CRC32 hash (skip zero) : 7A224094
AccurateRip v1 signature : DFAFF181
AccurateRip v2 signature : 4C201F70
->Accurately ripped (v2, confidence 2/2)
Statistics
Read error : 0
Jitter error (maybe fixed) : 0
Retry sector count : 0
Damaged sector count : 0

Track 09
Filename : /XLD Rips/Spirit - It Shall Be/CD3/09 Spirit - Street Worm.flac

CRC32 hash (test run) : 65D7FF12
CRC32 hash : 65D7FF12
CRC32 hash (skip zero) : C71B2556
AccurateRip v1 signature : B7C02A7C
AccurateRip v2 signature : 90B94623
->Accurately ripped (v2, confidence 2/2)
Statistics
Read error : 0
Jitter error (maybe fixed) : 0
Retry sector count : 0
Damaged sector count : 0

Track 10
Filename : /XLD Rips/Spirit - It Shall Be/CD3/10 Spirit - Life Has Just Begun.flac
Pre-gap length : 00:00:74

CRC32 hash (test run) : 4627D2A2
CRC32 hash : 4627D2A2
CRC32 hash (skip zero) : 733A8820
AccurateRip v1 signature : EFF1D7FE
AccurateRip v2 signature : 6C56C876
->Accurately ripped (v2, confidence 2/2)
Statistics
Read error : 0
Jitter error (maybe fixed) : 0
Retry sector count : 0
Damaged sector count : 0

Track 11
Filename : /XLD Rips/Spirit - It Shall Be/CD3/11 Spirit - Morning Will Come.flac

CRC32 hash (test run) : 9F5BB3B8
CRC32 hash : 9F5BB3B8
CRC32 hash (skip zero) : 69482354
AccurateRip v1 signature : 9E00C95F
AccurateRip v2 signature : A15C964F
->Accurately ripped (v2, confidence 2/2)
Statistics
Read error : 0
Jitter error (maybe fixed) : 0
Retry sector count : 0
Damaged sector count : 0

Track 12
Filename : /XLD Rips/Spirit - It Shall Be/CD3/12 Spirit - Soldier.flac

CRC32 hash (test run) : C69FA59D
CRC32 hash : C69FA59D
CRC32 hash (skip zero) : 70DDD809
AccurateRip v1 signature : ECC19AFD
AccurateRip v2 signature : E83030CA
->Accurately ripped (v2, confidence 2/2)
Statistics
Read error : 0
Jitter error (maybe fixed) : 0
Retry sector count : 0
Damaged sector count : 0

Track 13
Filename : /XLD Rips/Spirit - It Shall Be/CD3/13 Spirit - Rougher Road.flac
Pre-gap length : 00:03:71

CRC32 hash (test run) : A488ACAB
CRC32 hash : A488ACAB
CRC32 hash (skip zero) : 78A73C03
AccurateRip v1 signature : E85770E8
AccurateRip v2 signature : 95AE5CCD
->Accurately ripped (v2, confidence 2/2)
Statistics
Read error : 0
Jitter error (maybe fixed) : 0
Retry sector count : 0
Damaged sector count : 0

Track 14
Filename : /XLD Rips/Spirit - It Shall Be/CD3/14 Spirit - Chelsea Girls.flac
Pre-gap length : 00:04:39

CRC32 hash (test run) : 745A5080
CRC32 hash : 745A5080
CRC32 hash (skip zero) : 54A23B92
AccurateRip v1 signature : 54C988F2
AccurateRip v2 signature : CF952AD8
->Accurately ripped (v2, confidence 2/2)
Statistics
Read error : 0
Jitter error (maybe fixed) : 0
Retry sector count : 0
Damaged sector count : 0

Track 15
Filename : /XLD Rips/Spirit - It Shall Be/CD3/15 Spirit - Cadillac Cowboys.flac
Pre-gap length : 00:00:64

CRC32 hash (test run) : E6B624EB
CRC32 hash : E6B624EB
CRC32 hash (skip zero) : 18E384D7
AccurateRip v1 signature : 3AC737CA
AccurateRip v2 signature : D8A60BAE
->Accurately ripped (v2, confidence 2/2)
Statistics
Read error : 0
Jitter error (maybe fixed) : 0
Retry sector count : 0
Damaged sector count : 0

Track 16
Filename : /XLD Rips/Spirit - It Shall Be/CD3/16 Spirit - Puesta Del Scam.flac
Pre-gap length : 00:00:64

CRC32 hash (test run) : A5E819CA
CRC32 hash : A5E819CA
CRC32 hash (skip zero) : ABE54C53
AccurateRip v1 signature : DA935D68
AccurateRip v2 signature : 59560E6C
->Accurately ripped (v2, confidence 2/2)
Statistics
Read error : 0
Jitter error (maybe fixed) : 0
Retry sector count : 0
Damaged sector count : 0

Track 17
Filename : /XLD Rips/Spirit - It Shall Be/CD3/17 Spirit - Ripe And Ready.flac

CRC32 hash (test run) : 0174D20E
CRC32 hash : 0174D20E
CRC32 hash (skip zero) : 6B5D93B8
AccurateRip v1 signature : EB7415B7
AccurateRip v2 signature : 1634D3FB
->Accurately ripped (v2, confidence 2/2)
Statistics
Read error : 0
Jitter error (maybe fixed) : 0
Retry sector count : 0
Damaged sector count : 0

Track 18
Filename : /XLD Rips/Spirit - It Shall Be/CD3/18 Spirit - Darkness.flac
Pre-gap length : 00:02:12

CRC32 hash (test run) : 4BBE2AE2
CRC32 hash : 4BBE2AE2
CRC32 hash (skip zero) : 20EEBE41
AccurateRip v1 signature : AC5AD370
AccurateRip v2 signature : 1DC8882E
->Accurately ripped (v2, confidence 2/2)
Statistics
Read error : 0
Jitter error (maybe fixed) : 0
Retry sector count : 0
Damaged sector count : 0

Track 19
Filename : /XLD Rips/Spirit - It Shall Be/CD3/19 Spirit - Earth Shaker.flac
Pre-gap length : 00:00:70

CRC32 hash (test run) : 9754D2C8
CRC32 hash : 9754D2C8
CRC32 hash (skip zero) : 27993627
AccurateRip v1 signature : 8AD1E3ED
AccurateRip v2 signature : D4CB33EB
->Accurately ripped (v2, confidence 2/2)
Statistics
Read error : 0
Jitter error (maybe fixed) : 0
Retry sector count : 0
Damaged sector count : 0

Track 20
Filename : /XLD Rips/Spirit - It Shall Be/CD3/20 Spirit - Mellow Morning.flac
Pre-gap length : 00:01:29

CRC32 hash (test run) : F90BAE4D
CRC32 hash : F90BAE4D
CRC32 hash (skip zero) : C4AAD117
AccurateRip v1 signature : 7F9E6A04
AccurateRip v2 signature : EF6923F8
->Accurately ripped (v2, confidence 2/2)
Statistics
Read error : 0
Jitter error (maybe fixed) : 0
Retry sector count : 0
Damaged sector count : 0

Track 21
Filename : /XLD Rips/Spirit - It Shall Be/CD3/21 Spirit - Right On Time.flac
Pre-gap length : 00:00:68

CRC32 hash (test run) : 89949191
CRC32 hash : 89949191
CRC32 hash (skip zero) : 66328E2F
AccurateRip v1 signature : 11E41770
AccurateRip v2 signature : 59AB3DA9
->Accurately ripped (v2, confidence 2/2)
Statistics
Read error : 0
Jitter error (maybe fixed) : 0
Retry sector count : 0
Damaged sector count : 0

Track 22
Filename : /XLD Rips/Spirit - It Shall Be/CD3/22 Spirit - Trancas Fog-Out.flac
Pre-gap length : 00:01:20

CRC32 hash (test run) : 205086DE
CRC32 hash : 205086DE
CRC32 hash (skip zero) : D2AD1E35
AccurateRip v1 signature : E9E6E2F9
AccurateRip v2 signature : FDCBAC14
->Accurately ripped (v2, confidence 2/2)
Statistics
Read error : 0
Jitter error (maybe fixed) : 0
Retry sector count : 0
Damaged sector count : 0

Track 23
Filename : /XLD Rips/Spirit - It Shall Be/CD3/23 Spirit - Witch.flac

CRC32 hash (test run) : CD682D43
CRC32 hash : CD682D43
CRC32 hash (skip zero) : 891C7A70
AccurateRip v1 signature : 349D0B80
AccurateRip v2 signature : A6227ABF
->Accurately ripped (v2, confidence 2/2)
Statistics
Read error : 0
Jitter error (maybe fixed) : 0
Retry sector count : 0
Damaged sector count : 0

No errors occurred

End of status report

––-BEGIN XLD SIGNATURE––-
7WZe0KfjQeVtiLFzBfv78AJ3FzTuavfPPfZuakhlMjaVHf6vLfpRW7IC44CIfRc8CbVbVXuCzNNMtF1ysf18yBaBQjTwyXPkxDOC9Pe
––-END XLD SIGNATURE––-

X Lossless Decoder version 20170729 (150.3)

XLD extraction logfile from 2018-05-10 19:16:12 -0400

Spirit / It Shall Be: Ode & Epic Recordings 1968–1972 CD4

Used drive : PIONEER BD-RW BDR-XD05 (revision 3.01)
Media type : Pressed CD

Ripper mode : XLD Secure Ripper
Disable audio cache : OK for the drive with a cache less than 1375KiB
Make use of C2 pointers : NO
Read offset correction : 667
Max retry count : 20
Gap status : Analyzed, Appended (except HTOA)

TOC of the extracted CD
Track | Start | Length | Start sector | End sector
––––––––––––––––––––––––––––-
1 | 00:00:00 | 03:12:34 | 0 | 14433
2 | 03:12:34 | 02:44:73 | 14434 | 26806
3 | 05:57:32 | 05:13:19 | 26807 | 50300
4 | 11:10:51 | 02:35:46 | 50301 | 61971
5 | 13:46:22 | 03:06:64 | 61972 | 75985
6 | 16:53:11 | 02:49:43 | 75986 | 88703
7 | 19:42:54 | 03:32:01 | 88704 | 104604
8 | 23:14:55 | 03:51:71 | 104605 | 122000
9 | 27:06:51 | 02:08:71 | 122001 | 131671
10 | 29:15:47 | 02:47:21 | 131672 | 144217
11 | 32:02:68 | 10:44:51 | 144218 | 192568
12 | 42:47:44 | 02:51:29 | 192569 | 205422
13 | 45:38:73 | 04:27:57 | 205423 | 225504
14 | 50:06:55 | 03:12:73 | 225505 | 239977
15 | 53:19:53 | 09:42:73 | 239978 | 283700
16 | 63:02:51 | 02:48:44 | 283701 | 296344
17 | 65:51:20 | 03:28:47 | 296345 | 311991
18 | 69:19:67 | 02:29:11 | 311992 | 323177
19 | 71:49:03 | 04:12:10 | 323178 | 342087

AccurateRip Summary (DiscID: 00317607-02c4beb7-1311d113)
Track 01 : OK (v2, confidence 2/2)
Track 02 : OK (v2, confidence 2/2)
Track 03 : OK (v2, confidence 2/2)
Track 04 : OK (v2, confidence 2/2)
Track 05 : OK (v2, confidence 2/2)
Track 06 : OK (v2, confidence 2/2)
Track 07 : OK (v2, confidence 2/2)
Track 08 : OK (v2, confidence 2/2)
Track 09 : OK (v2, confidence 2/2)
Track 10 : OK (v2, confidence 2/2)
Track 11 : OK (v2, confidence 2/2)
Track 12 : OK (v2, confidence 2/2)
Track 13 : OK (v2, confidence 2/2)
Track 14 : OK (v2, confidence 2/2)
Track 15 : OK (v2, confidence 2/2)
Track 16 : OK (v2, confidence 2/2)
Track 17 : OK (v2, confidence 2/2)
Track 18 : OK (v2, confidence 2/2)
Track 19 : OK (v2, confidence 2/2)
->All tracks accurately ripped.

All Tracks
Statistics
Read error : 0
Jitter error (maybe fixed) : 0
Retry sector count : 0
Damaged sector count : 0

Track 01
Filename : /XLD Rips/Spirit - It Shall Be/CD4/01 Spirit - Fresh Garbage (mono mix).flac
Pre-gap length : 00:02:00

CRC32 hash (test run) : CCA7995D
CRC32 hash : CCA7995D
CRC32 hash (skip zero) : 5D799F86
AccurateRip v1 signature : 55747E75
AccurateRip v2 signature : 6DCBF216
->Accurately ripped (v2, confidence 2/2)
Statistics
Read error : 0
Jitter error (maybe fixed) : 0
Retry sector count : 0
Damaged sector count : 0

Track 02
Filename : /XLD Rips/Spirit - It Shall Be/CD4/02 Spirit - Uncle Jack (mono mix).flac

CRC32 hash (test run) : 12090511
CRC32 hash : 12090511
CRC32 hash (skip zero) : B04C2838
AccurateRip v1 signature : 3C506B9C
AccurateRip v2 signature : 40A2B006
->Accurately ripped (v2, confidence 2/2)
Statistics
Read error : 0
Jitter error (maybe fixed) : 0
Retry sector count : 0
Damaged sector count : 0

Track 03
Filename : /XLD Rips/Spirit - It Shall Be/CD4/03 Spirit - Mechanical World (mono mix).flac

CRC32 hash (test run) : A5BAA845
CRC32 hash : A5BAA845
CRC32 hash (skip zero) : 85F38C00
AccurateRip v1 signature : 420C2EEC
AccurateRip v2 signature : 827C86A0
->Accurately ripped (v2, confidence 2/2)
Statistics
Read error : 0
Jitter error (maybe fixed) : 0
Retry sector count : 0
Damaged sector count : 0

Track 04
Filename : /XLD Rips/Spirit - It Shall Be/CD4/04 Spirit - Taurus (mono mix).flac

CRC32 hash (test run) : FA4A9AC2
CRC32 hash : FA4A9AC2
CRC32 hash (skip zero) : F14147B0
AccurateRip v1 signature : 9EA8DB10
AccurateRip v2 signature : D0E26A8A
->Accurately ripped (v2, confidence 2/2)
Statistics
Read error : 0
Jitter error (maybe fixed) : 0
Retry sector count : 0
Damaged sector count : 0

Track 05
Filename : /XLD Rips/Spirit - It Shall Be/CD4/05 Spirit - Girl In Your Eye (mono mix).flac

CRC32 hash (test run) : 14509ECF
CRC32 hash : 14509ECF
CRC32 hash (skip zero) : 3F526813
AccurateRip v1 signature : D95F3028
AccurateRip v2 signature : 454252DD
->Accurately ripped (v2, confidence 2/2)
Statistics
Read error : 0
Jitter error (maybe fixed) : 0
Retry sector count : 0
Damaged sector count : 0

Track 06
Filename : /XLD Rips/Spirit - It Shall Be/CD4/06 Spirit - Straight Arrow (mono mix).flac

CRC32 hash (test run) : CE2D64EA
CRC32 hash : CE2D64EA
CRC32 hash (skip zero) : 8B105AB9
AccurateRip v1 signature : 25AE0A5D
AccurateRip v2 signature : 5ED6330A
->Accurately ripped (v2, confidence 2/2)
Statistics
Read error : 0
Jitter error (maybe fixed) : 0
Retry sector count : 0
Damaged sector count : 0

Track 07
Filename : /XLD Rips/Spirit - It Shall Be/CD4/07 Spirit - Topanga Windows (mono mix).flac
Pre-gap length : 00:02:51

CRC32 hash (test run) : DB50AB8E
CRC32 hash : DB50AB8E
CRC32 hash (skip zero) : D62AAF48
AccurateRip v1 signature : 6BB3F7F1
AccurateRip v2 signature : 10FFB0CD
->Accurately ripped (v2, confidence 2/2)
Statistics
Read error : 0
Jitter error (maybe fixed) : 0
Retry sector count : 0
Damaged sector count : 0

Track 08
Filename : /XLD Rips/Spirit - It Shall Be/CD4/08 Spirit - Gramophone Man (mono mix).flac

CRC32 hash (test run) : 01047BB2
CRC32 hash : 01047BB2
CRC32 hash (skip zero) : 6BB595D3
AccurateRip v1 signature : C62FBD1A
AccurateRip v2 signature : 76622A5E
->Accurately ripped (v2, confidence 2/2)
Statistics
Read error : 0
Jitter error (maybe fixed) : 0
Retry sector count : 0
Damaged sector count : 0

Track 09
Filename : /XLD Rips/Spirit - It Shall Be/CD4/09 Spirit - Water Woman (mono mix).flac

CRC32 hash (test run) : F6EB8D7A
CRC32 hash : F6EB8D7A
CRC32 hash (skip zero) : E021EA8D
AccurateRip v1 signature : 7527219C
AccurateRip v2 signature : 03BA970D
->Accurately ripped (v2, confidence 2/2)
Statistics
Read error : 0
Jitter error (maybe fixed) : 0
Retry sector count : 0
Damaged sector count : 0

Track 10
Filename : /XLD Rips/Spirit - It Shall Be/CD4/10 Spirit - The Great Canyon Fire In General (mono mix).flac

CRC32 hash (test run) : 962C0538
CRC32 hash : 962C0538
CRC32 hash (skip zero) : D2683FFE
AccurateRip v1 signature : 5D8F78C5
AccurateRip v2 signature : 17CEF28E
->Accurately ripped (v2, confidence 2/2)
Statistics
Read error : 0
Jitter error (maybe fixed) : 0
Retry sector count : 0
Damaged sector count : 0

Track 11
Filename : /XLD Rips/Spirit - It Shall Be/CD4/11 Spirit - Elijah (mono mix).flac

CRC32 hash (test run) : 7156C26F
CRC32 hash : 7156C26F
CRC32 hash (skip zero) : 34A8A10F
AccurateRip v1 signature : 1A8B17A1
AccurateRip v2 signature : CCFCEDA8
->Accurately ripped (v2, confidence 2/2)
Statistics
Read error : 0
Jitter error (maybe fixed) : 0
Retry sector count : 0
Damaged sector count : 0

Track 12
Filename : /XLD Rips/Spirit - It Shall Be/CD4/12 Spirit - Veruska (from the Spirit sessions 1968).flac
Pre-gap length : 00:05:04

CRC32 hash (test run) : 17843406
CRC32 hash : 17843406
CRC32 hash (skip zero) : 86CE869E
AccurateRip v1 signature : B30E5919
AccurateRip v2 signature : 68706A64
->Accurately ripped (v2, confidence 2/2)
Statistics
Read error : 0
Jitter error (maybe fixed) : 0
Retry sector count : 0
Damaged sector count : 0

Track 13
Filename : /XLD Rips/Spirit - It Shall Be/CD4/13 Spirit - Free Spirit (from the Spirit sessions 1968).flac
Pre-gap length : 00:01:04

CRC32 hash (test run) : F1BBB24F
CRC32 hash : F1BBB24F
CRC32 hash (skip zero) : AD90F71C
AccurateRip v1 signature : 7E03105F
AccurateRip v2 signature : 5E18C852
->Accurately ripped (v2, confidence 2/2)
Statistics
Read error : 0
Jitter error (maybe fixed) : 0
Retry sector count : 0
Damaged sector count : 0

Track 14
Filename : /XLD Rips/Spirit - It Shall Be/CD4/14 Spirit - If I Had A Woman (from the Spirit sessions 1968).flac
Pre-gap length : 00:01:14

CRC32 hash (test run) : DC2EE1F4
CRC32 hash : DC2EE1F4
CRC32 hash (skip zero) : A9BB1A8B
AccurateRip v1 signature : F3D865D7
AccurateRip v2 signature : E5CBEB73
->Accurately ripped (v2, confidence 2/2)
Statistics
Read error : 0
Jitter error (maybe fixed) : 0
Retry sector count : 0
Damaged sector count : 0

Track 15
Filename : /XLD Rips/Spirit - It Shall Be/CD4/15 Spirit - Elijah (alternate take from the Spirit sessions 1968).flac
Pre-gap length : 00:01:42

CRC32 hash (test run) : 6EAC8C18
CRC32 hash : 6EAC8C18
CRC32 hash (skip zero) : 901703B6
AccurateRip v1 signature : 5AD6AC0C
AccurateRip v2 signature : 216E07CA
->Accurately ripped (v2, confidence 2/2)
Statistics
Read error : 0
Jitter error (maybe fixed) : 0
Retry sector count : 0
Damaged sector count : 0

Track 16
Filename : /XLD Rips/Spirit - It Shall Be/CD4/16 Spirit - I Got A Line On You ("Time Circle" mix).flac
Pre-gap length : 00:01:42

CRC32 hash (test run) : 868B2B3D
CRC32 hash : 868B2B3D
CRC32 hash (skip zero) : 92EEA2A0
AccurateRip v1 signature : 5AF3DE1C
AccurateRip v2 signature : 2AAB7C15
->Accurately ripped (v2, confidence 2/2)
Statistics
Read error : 0
Jitter error (maybe fixed) : 0
Retry sector count : 0
Damaged sector count : 0

Track 17
Filename : /XLD Rips/Spirit - It Shall Be/CD4/17 Spirit - It Shall Be ("Time Circle" mix).flac
Pre-gap length : 00:01:08

CRC32 hash (test run) : 441DA2E4
CRC32 hash : 441DA2E4
CRC32 hash (skip zero) : DB9D75C5
AccurateRip v1 signature : A0CDE701
AccurateRip v2 signature : 8B64107B
->Accurately ripped (v2, confidence 2/2)
Statistics
Read error : 0
Jitter error (maybe fixed) : 0
Retry sector count : 0
Damaged sector count : 0

Track 18
Filename : /XLD Rips/Spirit - It Shall Be/CD4/18 Spirit - Poor Richard ("Time Circle" mix).flac

CRC32 hash (test run) : 2CB029DA
CRC32 hash : 2CB029DA
CRC32 hash (skip zero) : B52C8658
AccurateRip v1 signature : DB3407A6
AccurateRip v2 signature : DC9A6336
->Accurately ripped (v2, confidence 2/2)
Statistics
Read error : 0
Jitter error (maybe fixed) : 0
Retry sector count : 0
Damaged sector count : 0

Track 19
Filename : /XLD Rips/Spirit - It Shall Be/CD4/19 Spirit - Silky Sam ("Time Circle" mix).flac

CRC32 hash (test run) : 65685D85
CRC32 hash : 65685D85
CRC32 hash (skip zero) : 6E113184
AccurateRip v1 signature : 3982DE73
AccurateRip v2 signature : 1444548C
->Accurately ripped (v2, confidence 2/2)
Statistics
Read error : 0
Jitter error (maybe fixed) : 0
Retry sector count : 0
Damaged sector count : 0

No errors occurred

End of status report

––-BEGIN XLD SIGNATURE––-
uVaYAwgCfVqLWVRb31.5XTN6r61uHg_RzMv2rTdgOMRJi3PANM1n4hWd3O12HFvaJrqe5sJvgkssvpC8hxN2h03W5th1yEl3ZITmx50
––-END XLD SIGNATURE––-

X Lossless Decoder version 20170729 (150.3)

XLD extraction logfile from 2018-05-10 19:45:30 -0400

Spirit / It Shall Be: Ode & Epic Recordings 1968–1972 CD5

Used drive : PIONEER BD-RW BDR-XD05 (revision 3.01)
Media type : Pressed CD

Ripper mode : XLD Secure Ripper
Disable audio cache : OK for the drive with a cache less than 1375KiB
Make use of C2 pointers : NO
Read offset correction : 667
Max retry count : 20
Gap status : Analyzed, Appended (except HTOA)

TOC of the extracted CD
Track | Start | Length | Start sector | End sector
––––––––––––––––––––––––––––-
1 | 00:00:00 | 02:13:36 | 0 | 10010
2 | 02:13:36 | 04:41:23 | 10011 | 31108
3 | 06:54:59 | 03:01:57 | 31109 | 44740
4 | 09:56:41 | 05:35:46 | 44741 | 69911
5 | 15:32:12 | 04:22:25 | 69912 | 89586
6 | 19:54:37 | 02:58:29 | 89587 | 102965
7 | 22:52:66 | 02:19:28 | 102966 | 113418
8 | 25:12:19 | 01:14:68 | 113419 | 119036
9 | 26:27:12 | 02:26:50 | 119037 | 130036
10 | 28:53:62 | 03:01:15 | 130037 | 143626
11 | 31:55:02 | 03:49:63 | 143627 | 160864
12 | 35:44:65 | 04:23:32 | 160865 | 180621
13 | 40:08:22 | 06:26:03 | 180622 | 209574
14 | 46:34:25 | 03:21:03 | 209575 | 224652
15 | 49:55:28 | 02:04:60 | 224653 | 234012
16 | 52:00:13 | 03:39:28 | 234013 | 250465
17 | 55:39:41 | 02:58:63 | 250466 | 263878
18 | 58:38:29 | 03:05:51 | 263879 | 277804
19 | 61:44:05 | 05:44:45 | 277805 | 303649
20 | 67:28:50 | 02:50:51 | 303650 | 316450

AccurateRip Summary (DiscID: 0031fe89-02ddcc1b-1e107b14)
Track 01 : OK (v2, confidence 2/2)
Track 02 : OK (v2, confidence 2/2)
Track 03 : OK (v2, confidence 2/2)
Track 04 : OK (v2, confidence 2/2)
Track 05 : OK (v2, confidence 2/2)
Track 06 : OK (v2, confidence 2/2)
Track 07 : OK (v2, confidence 2/2)
Track 08 : OK (v2, confidence 2/2)
Track 09 : OK (v2, confidence 2/2)
Track 10 : OK (v2, confidence 2/2)
Track 11 : OK (v2, confidence 2/2)
Track 12 : OK (v2, confidence 2/2)
Track 13 : OK (v2, confidence 2/2)
Track 14 : OK (v2, confidence 2/2)
Track 15 : OK (v2, confidence 2/2)
Track 16 : OK (v2, confidence 2/2)
Track 17 : OK (v2, confidence 2/2)
Track 18 : OK (v2, confidence 2/2)
Track 19 : OK (v2, confidence 2/2)
Track 20 : OK (v2, confidence 2/2)
->All tracks accurately ripped.

All Tracks
Statistics
Read error : 0
Jitter error (maybe fixed) : 0
Retry sector count : 0
Damaged sector count : 0

Track 01
Filename : /XLD Rips/Spirit - It Shall Be/CD5/01 Spirit - Scherozode (Time Circle Mix).flac
Pre-gap length : 00:02:00

CRC32 hash (test run) : 77A6861B
CRC32 hash : 77A6861B
CRC32 hash (skip zero) : BE183417
AccurateRip v1 signature : 846723D6
AccurateRip v2 signature : 5CE77496
->Accurately ripped (v2, confidence 2/2)
Statistics
Read error : 0
Jitter error (maybe fixed) : 0
Retry sector count : 0
Damaged sector count : 0

Track 02
Filename : /XLD Rips/Spirit - It Shall Be/CD5/02 Spirit - All the Same (Time Circle Mix).flac
Pre-gap length : 00:01:32

CRC32 hash (test run) : 0A441C86
CRC32 hash : 0A441C86
CRC32 hash (skip zero) : FA95B915
AccurateRip v1 signature : 40B0BA57
AccurateRip v2 signature : 0EAAD8AF
->Accurately ripped (v2, confidence 2/2)
Statistics
Read error : 0
Jitter error (maybe fixed) : 0
Retry sector count : 0
Damaged sector count : 0

Track 03
Filename : /XLD Rips/Spirit - It Shall Be/CD5/03 Spirit - A Dream Within a Dream (Time Circle Mix).flac
Pre-gap length : 00:00:41

CRC32 hash (test run) : 76DAD64E
CRC32 hash : 76DAD64E
CRC32 hash (skip zero) : 36D6F2AA
AccurateRip v1 signature : CD36B8AD
AccurateRip v2 signature : 0C8FCAAB
->Accurately ripped (v2, confidence 2/2)
Statistics
Read error : 0
Jitter error (maybe fixed) : 0
Retry sector count : 0
Damaged sector count : 0

Track 04
Filename : /XLD Rips/Spirit - It Shall Be/CD5/04 Spirit - Aren't You Glad (Time Circle Mix).flac
Pre-gap length : 00:00:29

CRC32 hash (test run) : 893A3D58
CRC32 hash : 893A3D58
CRC32 hash (skip zero) : B15EEA20
AccurateRip v1 signature : 8D47167E
AccurateRip v2 signature : 4EEDED37
->Accurately ripped (v2, confidence 2/2)
Statistics
Read error : 0
Jitter error (maybe fixed) : 0
Retry sector count : 0
Damaged sector count : 0

Track 05
Filename : /XLD Rips/Spirit - It Shall Be/CD5/05 Spirit - Eventide (Time Circle Mix).flac
Pre-gap length : 00:01:31

CRC32 hash (test run) : 0CFC3A2E
CRC32 hash : 0CFC3A2E
CRC32 hash (skip zero) : 479F0622
AccurateRip v1 signature : C1F7D45E
AccurateRip v2 signature : 9FF7D5E0
->Accurately ripped (v2, confidence 2/2)
Statistics
Read error : 0
Jitter error (maybe fixed) : 0
Retry sector count : 0
Damaged sector count : 0

Track 06
Filename : /XLD Rips/Spirit - It Shall Be/CD5/06 Spirit - Model Shop Theme (Time Circle Mix).flac
Pre-gap length : 00:00:42

CRC32 hash (test run) : 8DA663D7
CRC32 hash : 8DA663D7
CRC32 hash (skip zero) : 33C9F217
AccurateRip v1 signature : EB73E82E
AccurateRip v2 signature : 28B31493
->Accurately ripped (v2, confidence 2/2)
Statistics
Read error : 0
Jitter error (maybe fixed) : 0
Retry sector count : 0
Damaged sector count : 0

Track 07
Filename : /XLD Rips/Spirit - It Shall Be/CD5/07 Spirit - Green Gorilla (Time Circle Mix).flac
Pre-gap length : 00:00:42

CRC32 hash (test run) : 9F628BD4
CRC32 hash : 9F628BD4
CRC32 hash (skip zero) : 7FED378A
AccurateRip v1 signature : E4887806
AccurateRip v2 signature : 0F34C0DF
->Accurately ripped (v2, confidence 2/2)
Statistics
Read error : 0
Jitter error (maybe fixed) : 0
Retry sector count : 0
Damaged sector count : 0

Track 08
Filename : /XLD Rips/Spirit - It Shall Be/CD5/08 Spirit - Rehearsal Theme (Time Circle Mix).flac
Pre-gap length : 00:00:46

CRC32 hash (test run) : DA9E422F
CRC32 hash : DA9E422F
CRC32 hash (skip zero) : 0D68F61C
AccurateRip v1 signature : DC248B9B
AccurateRip v2 signature : C4FB25FA
->Accurately ripped (v2, confidence 2/2)
Statistics
Read error : 0
Jitter error (maybe fixed) : 0
Retry sector count : 0
Damaged sector count : 0

Track 09
Filename : /XLD Rips/Spirit - It Shall Be/CD5/09 Spirit - Fog.flac
Pre-gap length : 00:02:58

CRC32 hash (test run) : 947C091F
CRC32 hash : 947C091F
CRC32 hash (skip zero) : 70C04576
AccurateRip v1 signature : D383D0CF
AccurateRip v2 signature : A8C0A50A
->Accurately ripped (v2, confidence 2/2)
Statistics
Read error : 0
Jitter error (maybe fixed) : 0
Retry sector count : 0
Damaged sector count : 0

Track 10
Filename : /XLD Rips/Spirit - It Shall Be/CD5/10 Spirit - So Little to Say.flac
Pre-gap length : 00:01:10

CRC32 hash (test run) : AADF7BE2
CRC32 hash : AADF7BE2
CRC32 hash (skip zero) : 7F853A06
AccurateRip v1 signature : AD964712
AccurateRip v2 signature : 70E8E2AB
->Accurately ripped (v2, confidence 2/2)
Statistics
Read error : 0
Jitter error (maybe fixed) : 0
Retry sector count : 0
Damaged sector count : 0

Track 11
Filename : /XLD Rips/Spirit - It Shall Be/CD5/11 Spirit - Mellow Fellow.flac
Pre-gap length : 00:01:34

CRC32 hash (test run) : 7117B1E0
CRC32 hash : 7117B1E0
CRC32 hash (skip zero) : EB01BA75
AccurateRip v1 signature : F5D4295F
AccurateRip v2 signature : 67C40F23
->Accurately ripped (v2, confidence 2/2)
Statistics
Read error : 0
Jitter error (maybe fixed) : 0
Retry sector count : 0
Damaged sector count : 0

Track 12
Filename : /XLD Rips/Spirit - It Shall Be/CD5/12 Spirit - Now or Anywhere.flac
Pre-gap length : 00:01:13

CRC32 hash (test run) : 0C3DF3FD
CRC32 hash : 0C3DF3FD
CRC32 hash (skip zero) : 9B01E339
AccurateRip v1 signature : 57EE3C0E
AccurateRip v2 signature : E789CDE3
->Accurately ripped (v2, confidence 2/2)
Statistics
Read error : 0
Jitter error (maybe fixed) : 0
Retry sector count : 0
Damaged sector count : 0

Track 13
Filename : /XLD Rips/Spirit - It Shall Be/CD5/13 Spirit - Space Chile.flac
Pre-gap length : 00:01:31

CRC32 hash (test run) : 86F0A929
CRC32 hash : 86F0A929
CRC32 hash (skip zero) : B3AE9E1F
AccurateRip v1 signature : 00B2F09C
AccurateRip v2 signature : 38E3FDEC
->Accurately ripped (v2, confidence 2/2)
Statistics
Read error : 0
Jitter error (maybe fixed) : 0
Retry sector count : 0
Damaged sector count : 0

Track 14
Filename : /XLD Rips/Spirit - It Shall Be/CD5/14 Spirit - Fuller Brush Man.flac
Pre-gap length : 00:01:28

CRC32 hash (test run) : B4B7F0C6
CRC32 hash : B4B7F0C6
CRC32 hash (skip zero) : 10B32CEC
AccurateRip v1 signature : 4D23B0C9
AccurateRip v2 signature : 27732E25
->Accurately ripped (v2, confidence 2/2)
Statistics
Read error : 0
Jitter error (maybe fixed) : 0
Retry sector count : 0
Damaged sector count : 0

Track 15
Filename : /XLD Rips/Spirit - It Shall Be/CD5/15 Spirit - Coral.flac
Pre-gap length : 00:01:21

CRC32 hash (test run) : A54DD19D
CRC32 hash : A54DD19D
CRC32 hash (skip zero) : 92F06E55
AccurateRip v1 signature : 6119E496
AccurateRip v2 signature : 9F8B971A
->Accurately ripped (v2, confidence 2/2)
Statistics
Read error : 0
Jitter error (maybe fixed) : 0
Retry sector count : 0
Damaged sector count : 0

Track 16
Filename : /XLD Rips/Spirit - It Shall Be/CD5/16 Spirit - 1984.flac
Pre-gap length : 00:02:45

CRC32 hash (test run) : 897DF773
CRC32 hash : 897DF773
CRC32 hash (skip zero) : 5CDC788C
AccurateRip v1 signature : 436F4065
AccurateRip v2 signature : 45D5A084
->Accurately ripped (v2, confidence 2/2)
Statistics
Read error : 0
Jitter error (maybe fixed) : 0
Retry sector count : 0
Damaged sector count : 0

Track 17
Filename : /XLD Rips/Spirit - It Shall Be/CD5/17 Spirit - Sweet Stella Baby.flac
Pre-gap length : 00:01:67

CRC32 hash (test run) : CFD1D917
CRC32 hash : CFD1D917
CRC32 hash (skip zero) : 1DE95C59
AccurateRip v1 signature : A57DAFF9
AccurateRip v2 signature : BB50FC70
->Accurately ripped (v2, confidence 2/2)
Statistics
Read error : 0
Jitter error (maybe fixed) : 0
Retry sector count : 0
Damaged sector count : 0

Track 18
Filename : /XLD Rips/Spirit - It Shall Be/CD5/18 Spirit - Animal Zoo (Mono Single Version).flac
Pre-gap length : 00:02:58

CRC32 hash (test run) : 793AE129
CRC32 hash : 793AE129
CRC32 hash (skip zero) : 19525C3C
AccurateRip v1 signature : 957B6725
AccurateRip v2 signature : 3DD0E316
->Accurately ripped (v2, confidence 2/2)
Statistics
Read error : 0
Jitter error (maybe fixed) : 0
Retry sector count : 0
Damaged sector count : 0

Track 19
Filename : /XLD Rips/Spirit - It Shall Be/CD5/19 Spirit - Red Light Roll On.flac
Pre-gap length : 00:02:25

CRC32 hash (test run) : EB707663
CRC32 hash : EB707663
CRC32 hash (skip zero) : 6CC74519
AccurateRip v1 signature : D0BA4198
AccurateRip v2 signature : FE88D943
->Accurately ripped (v2, confidence 2/2)
Statistics
Read error : 0
Jitter error (maybe fixed) : 0
Retry sector count : 0
Damaged sector count : 0

Track 20
Filename : /XLD Rips/Spirit - It Shall Be/CD5/20 Spirit - Morning Will Come (Mono Mix).flac
Pre-gap length : 00:02:34

CRC32 hash (test run) : 1A5E488D
CRC32 hash : 1A5E488D
CRC32 hash (skip zero) : 0B89696D
AccurateRip v1 signature : 2C3478B2
AccurateRip v2 signature : 4AD501AA
->Accurately ripped (v2, confidence 2/2)
Statistics
Read error : 0
Jitter error (maybe fixed) : 0
Retry sector count : 0
Damaged sector count : 0

No errors occurred

End of status report

––-BEGIN XLD SIGNATURE––-
4UtBgZ2b0lIYNV.3xNLQr9V4mSB1.q6cydVYeWAVRkst2m1hWy1MIAGT2CiPkhqhXR7bOptzy17bId9DC0jAsl1x3KDukCoFrjuzady
––-END XLD SIGNATURE––-

Thanks to the Original ripper prestonrhinelander !