Stan Getz Quintet - Interpretations #2 + Interpretations #1 (1953) {Poll Winners PWR 27280 rel 2011}

Posted By: ruskaval
Stan Getz Quintet - Interpretations #2 + Interpretations #1 (1953) {Poll Winners PWR 27280 rel 2011}

Stan Getz Quintet - Interpretations #2 + Interpretations #1 (1953) {Poll Winners PWR 27280 rel 2011}
EAC rip (secure mode) | FLAC (tracks)+CUE+LOG -> 328 Mb | MP3 @320 -> 185 Mb
Full Artwork @ 600 dpi (jpg) -> 206 Mb | 5% repair rar
© 1953, 2011 Norgran / Poll Winners Records | PWR 27280
Jazz / Cool / West Coast Jazz / Mainstream Jazz / Saxophone

Digitally remastered two-fer containing a pair of albums from the Jazz great on one CD: Interpretations By the Stan Getz Quintet and Interpretations By the Stan Getz Quintet #2. Both albums (which were 10-inch LPs) were given a 5-star rating in Down Beat magazine. Three additional tracks have also been included which complete all of the master takes recorded by this exact formation of the quintet, with Bob Brookmeyer, John Williams, Teddy Kotick, and Frank Isola.
5 STARS DOWN BEAT MAGAZINE

The complete albums Interpretations by the Stan Getz Quintet (Norgran MGN 1000) and Interpretations by the Stan Getz Quintet #2 (Norgran MGN 1008). Both albums (which were 10-inch LPs) were given a 5-star rating in Down Beat magazine. Three additional tracks have also been included which complete all of the master takes recorded by this exact formation of the quintet, with Bob Brookmeyer, John Williams, Teddy Kotick, and Frank Isola.

Includes 12-page booklet
DOWN BEAT original review: Interpretations by the Stan Getz Quintet # 1 & 2
“The same is true of both volumes. It is consistently ‘distinguished jazz chamber music’. Everyone blows well and the sets are well recorded. The one original, a good one, is Brookmeyer’s. Package is factory sealed and on Vol.2 there’s a fine cover portrait of poll-winner Getz.” (Nat Hentoff)
Stan Getz Quintet - Interpretations #2 + Interpretations #1 (1953) {Poll Winners PWR 27280 rel 2011}


PERSONNEL:

STAN GETZ, tenor saxophone
BOB BROOKMEYER, valve trombone
JOHN WILLIAMS, piano
TEDDY KOTICK, bass
FRANK ISOLA, drums

All tracks recorded in Los Angeles, California, July 27, August 15 & 22, 1953.

1-4: Issued as Interpretations by the Stan Getz Quintet #2 (Norgran MGN 1008).
5-10: Issued as Interpretations by the Stan Getz Quintet (Norgran MGN 1000).

*BONUS TRACKS:
11-12: Issued on Interpretations by the Stan Getz Quintet #3 (Norgran MGN 1029).
13: Issued as a single on Norgran 106-B.

Tracks:

01 MINOR BLUES 7:04
02 FASCINATIN’ RHYTHM 8:03
03 I DIDN’T KNOW WHAT TIME IT WAS 7:38
04 TANGERINE 7:02
05 LOVE AND THE WEATHER 6:33
06 SPRING IS HERE 6:09
07 CRAZY RHYTHM 5:51
08 WILLOW WEEP FOR ME 5:21
09 THE NEARNESS OF YOU 3:44
10 POT LUCK 3:54
11 IT DON’T MEAN A THING 6:21*
12 THE VARSITY DRAG 6:57*
13 POT LUCK [single version] 3:16*

Exact Audio Copy V1.3 from 2. September 2016

EAC extraction logfile from 7. June 2017, 0:27

Stan Getz Quintet / Interpretations #2 & Interpretations #1

Used drive : TSSTcorpCDDVDW SE-208DB Adapter: 1 ID: 1

Read mode : Secure
Utilize accurate stream : Yes
Defeat audio cache : Yes
Make use of C2 pointers : No

Read offset correction : 6
Overread into Lead-In and Lead-Out : No
Fill up missing offset samples with silence : Yes
Delete leading and trailing silent blocks : No
Null samples used in CRC calculations : Yes
Used interface : Native Win32 interface for Win NT & 2000
Gap handling : Appended to previous track

Used output format : User Defined Encoder
Selected bitrate : 1024 kBit/s
Quality : High
Add ID3 tag : No
Command line compressor : C:\Program Files (x86)\FLAC Frontend\tools\flac.exe
Additional command line options : -8 -V -T "ARTIST=%artist%" -T "TITLE=%title%" -T "ALBUM=%albumtitle%" -T "DATE=%year%" -T "TRACKNUMBER=%tracknr%" -T "TOTALTRACKS=%numtracks%" -T "GENRE=%genre%" -T "ALBUMARTIST=%albumartist%" -T "ALBUM ARTIST=%albumartist%" -T "COMMENT=EAC Secure Mode, Test & Copy, AccurateRip, FLAC -8" %source%


TOC of the extracted CD

Track | Start | Length | Start sector | End sector
––––––––––––––––––––––––––––-
1 | 0:00.00 | 7:04.02 | 0 | 31801
2 | 7:04.02 | 8:02.63 | 31802 | 68014
3 | 15:06.65 | 7:38.17 | 68015 | 102381
4 | 22:45.07 | 7:01.59 | 102382 | 134015
5 | 29:46.66 | 6:32.61 | 134016 | 163476
6 | 36:19.52 | 6:09.22 | 163477 | 191173
7 | 42:28.74 | 5:51.15 | 191174 | 217513
8 | 48:20.14 | 5:21.35 | 217514 | 241623
9 | 53:41.49 | 3:44.13 | 241624 | 258436
10 | 57:25.62 | 3:54.30 | 258437 | 276016
11 | 61:20.17 | 6:20.40 | 276017 | 304556
12 | 67:40.57 | 6:56.46 | 304557 | 335802
13 | 74:37.28 | 3:15.74 | 335803 | 350501


Track 1

Filename D:\_EAC\Stan Getz Quintet - Interpretations #2 & Interpretations #1 (1953) [FLAC]\01 - Minor Blues.wav

Pre-gap length 0:00:02.00

Peak level 96.3 %
Extraction speed 3.2 X
Track quality 100.0 %
Test CRC FF4D76A4
Copy CRC FF4D76A4
Cannot be verified as accurate (confidence 6) [398951E4], AccurateRip returned [668D76E2] (AR v2)
Copy OK

Track 2

Filename D:\_EAC\Stan Getz Quintet - Interpretations #2 & Interpretations #1 (1953) [FLAC]\02 - Fascinatin' Rhythm.wav

Peak level 100.0 %
Extraction speed 3.7 X
Track quality 100.0 %
Test CRC D55C74C4
Copy CRC D55C74C4
Accurately ripped (confidence 6) [BDB229EE] (AR v2)
Copy OK

Track 3

Filename D:\_EAC\Stan Getz Quintet - Interpretations #2 & Interpretations #1 (1953) [FLAC]\03 - I Didn't Know What Time It Was.wav

Peak level 96.5 %
Extraction speed 4.2 X
Track quality 100.0 %
Test CRC FC0F1F7E
Copy CRC FC0F1F7E
Accurately ripped (confidence 6) [C9532771] (AR v2)
Copy OK

Track 4

Filename D:\_EAC\Stan Getz Quintet - Interpretations #2 & Interpretations #1 (1953) [FLAC]\04 - Tangerine.wav

Peak level 97.1 %
Extraction speed 4.5 X
Track quality 100.0 %
Test CRC F567C3E0
Copy CRC F567C3E0
Accurately ripped (confidence 6) [2AD6FFD3] (AR v2)
Copy OK

Track 5

Filename D:\_EAC\Stan Getz Quintet - Interpretations #2 & Interpretations #1 (1953) [FLAC]\05 - Love And The Weather.wav

Peak level 97.9 %
Extraction speed 4.7 X
Track quality 100.0 %
Test CRC 149951FE
Copy CRC 149951FE
Accurately ripped (confidence 6) [773D1F27] (AR v2)
Copy OK

Track 6

Filename D:\_EAC\Stan Getz Quintet - Interpretations #2 & Interpretations #1 (1953) [FLAC]\06 - Spring Is Here.wav

Peak level 100.0 %
Extraction speed 5.0 X
Track quality 100.0 %
Test CRC 37A93025
Copy CRC 37A93025
Accurately ripped (confidence 6) [15F77876] (AR v2)
Copy OK

Track 7

Filename D:\_EAC\Stan Getz Quintet - Interpretations #2 & Interpretations #1 (1953) [FLAC]\07 - Crazy Rhythm.wav

Peak level 100.0 %
Extraction speed 5.2 X
Track quality 100.0 %
Test CRC 67D0F651
Copy CRC 67D0F651
Accurately ripped (confidence 6) [7B76B1CF] (AR v2)
Copy OK

Track 8

Filename D:\_EAC\Stan Getz Quintet - Interpretations #2 & Interpretations #1 (1953) [FLAC]\08 - Willow Weep For Me.wav

Peak level 100.0 %
Extraction speed 5.3 X
Track quality 100.0 %
Test CRC 96F443E5
Copy CRC 96F443E5
Accurately ripped (confidence 6) [0AE53A88] (AR v2)
Copy OK

Track 9

Filename D:\_EAC\Stan Getz Quintet - Interpretations #2 & Interpretations #1 (1953) [FLAC]\09 - The Nearness Of You.wav

Peak level 100.0 %
Extraction speed 5.2 X
Track quality 100.0 %
Test CRC 4AB1575E
Copy CRC 4AB1575E
Accurately ripped (confidence 6) [318047F2] (AR v2)
Copy OK

Track 10

Filename D:\_EAC\Stan Getz Quintet - Interpretations #2 & Interpretations #1 (1953) [FLAC]\10 - Pot Luck.wav

Peak level 100.0 %
Extraction speed 4.3 X
Track quality 99.9 %
Test CRC C640934B
Copy CRC C640934B
Accurately ripped (confidence 6) [47C2F4E9] (AR v2)
Copy OK

Track 11

Filename D:\_EAC\Stan Getz Quintet - Interpretations #2 & Interpretations #1 (1953) [FLAC]\11 - It Don't Mean A Thing (bonus track).wav

Peak level 99.7 %
Extraction speed 5.9 X
Track quality 100.0 %
Test CRC 4A826A64
Copy CRC 4A826A64
Accurately ripped (confidence 6) [9DBD16E8] (AR v2)
Copy OK

Track 12

Filename D:\_EAC\Stan Getz Quintet - Interpretations #2 & Interpretations #1 (1953) [FLAC]\12 - The Varsity Drag (bonus track).wav

Peak level 100.0 %
Extraction speed 6.2 X
Track quality 100.0 %
Test CRC 1843F479
Copy CRC 1843F479
Accurately ripped (confidence 6) [1FB92987] (AR v2)
Copy OK

Track 13

Filename D:\_EAC\Stan Getz Quintet - Interpretations #2 & Interpretations #1 (1953) [FLAC]\13 - Pot Luck (single version) (bonus track).wav

Peak level 100.0 %
Extraction speed 5.8 X
Track quality 100.0 %
Test CRC 7C69C0F5
Copy CRC 7C69C0F5
Accurately ripped (confidence 6) [E65A0819] (AR v2)
Copy OK


12 track(s) accurately ripped
1 track(s) could not be verified as accurate

Some tracks could not be verified as accurate

No errors occurred

End of status report

–– CUETools DB Plugin V2.1.6

[CTDB TOCID: Nar544QVUVWN.PMqxyxgVRDQU8s-] found
Submit result: Nar544QVUVWN.PMqxyxgVRDQU8s- has been submitted
Track | CTDB Status
1 | (3/3) Differs in 23 samples @00:00:54,00:05:66,00:25:55,00:30:21,01:59:25,02:47:16
2 | (3/3) Accurately ripped
3 | (3/3) Accurately ripped
4 | (3/3) Accurately ripped
5 | (3/3) Accurately ripped
6 | (3/3) Accurately ripped
7 | (3/3) Accurately ripped
8 | (3/3) Accurately ripped
9 | (3/3) Accurately ripped
10 | (3/3) Accurately ripped
11 | (3/3) Accurately ripped
12 | (3/3) Accurately ripped
13 | (3/3) Accurately ripped
If you are sure that your rip contains errors, you can use CUETools to repair it.


==== Log checksum 2B89260B966E36114323171C6AED08FD96A63FEFFD6970D35993AB5067DC8FD2 ====


Stan Getz Quintet - Interpretations #2 + Interpretations #1 (1953) {Poll Winners PWR 27280 rel 2011}

Stan Getz Quintet - Interpretations #2 + Interpretations #1 (1953) {Poll Winners PWR 27280 rel 2011}


special thanks to 0xxa…

All thanks goes to the original releaser!


===