Subcategories

The Stanley Brothers - The King Years 1961-1965 (2003) {4CD Collector's Box Set King Records KG-0950-2}

Posted By: ruskaval
The Stanley Brothers - The King Years 1961-1965 (2003) {4CD Collector's Box Set King Records KG-0950-2}

The Stanley Brothers - The King Years 1961-1965 (2003) {4CD Collector's Box Set King Records KG-0950-2}
EAC rip (secure mode) | FLAC (tracks)+CUE+LOG -> 1.64 Gb | MP3 @320 -> 659 Mb
Full Artwork @ 300 dpi (jpg) -> 11 Mb | 5% repair rar
© 1961-65, 2003 King Records | KG-0950-2
Bluegrass / Country / Traditional Bluegrass

Virginians Ralph and Carter Stanley, the Stanley Brothers, took the traditional Appalachian string band songs of their home and updated them into a traditionally rooted modern bluegrass sound that was singular for its authentic tone, no-frills simplicity, and at times haunting and astonishing beauty, the very model of the high lonesome sound. This expansive four-disc, 111-track box covers the later part of the middle period of their recording career, collecting virtually every side the brothers recorded for the King record label between 1961 and 1965. That's a whole lot of Stanley Brothers, but the musical quality, integrity, and execution of this storied duo never waver here, and indeed, they never really did waver one bit any time the two of them stepped in front of the microphones.
It’s been ten long years since the release of The Stanley Brothers: The Early Starday King Years 1958-1961, and though the delay has been aggravating (to say the least), it’s a blessing to finally have its 4-CD companion set available. For one thing, virtually all of the commercial recordings of the Brothers are now in print, and the new set has a healthy portion of the highlights, hitherto available, if at all, only on secondhand LPs or shoddy CD compilations. Furthermore, the juxtaposition of these with the new 3-CD Ralph Stanley set Poor Rambler, which includes the earliest recordings he made as a solo artist, illuminates a distinction too often blurred by references to “the Stanley sound.” Ralph’s turn to a more old-time-flavored “mountain” style surely reflected his artistic wishes, but as a sequential listening to both sets reveals, it was no less certainly a conscious, deliberate effort.

The 1960s were a time of trials for the Stanleys, who for the most part enjoyed neither the commercial success of Opry members such as Flatt & Scruggs nor the veneration increasingly given to Bill Monroe as the “father of bluegrass.” Unwilling to move to Nashville, and recording for an independent label, they had difficulty reaching the country music market. At the same time, despite the support of folk revivalists such as Mike Seeger and albums including Folk Song Festival and Folk Concert, their country stylings, their eclectic material, and the gaudy, cut-rate commercial trappings of their King LPs made it hard for them to find more than a tenuous foothold in folk circles. The result was that their music appealed mostly to a small, albeit intensely devoted audience in and around their native Appalachia, or those transplanted to industrial centers such as southwest Ohio.

The material on The King Years 1961-1965 ranges widely, reflecting that audience’s longings and the pressures to which it was subjected, as well as the label’s interest in reaching beyond it. There are plenty of gospel numbers, for instance, from ancient songs such as “Oh, Death” (given a full-band, stop-start reading with verses that move along at an almost jaunty pace) to new compositions such as Ralph’s recitation “Prayer Of A Truck Driver’s Son”. Lengthy traditional ballads such as “Hills Of Roan County” rub elbows with modern country ones such as “Don’t Cheat In Our Home Town”, written by producer Ray Pennington. In a demonstration of the consequences of economic marginality, backing musicians appear and disappear and reappear throughout the set, more than occasionally playing several instruments on a single session.

Yet despite the variety, the Brothers’ sound remained remarkably constant, built around their careworn, haunting vocal duet, Carter’s booming rhythm guitar, and Ralph’s stolid banjo work. With outstanding notes by Stanley expert Gary Reid and sonic quality far superior to the many compilations the label has flung toward the discount racks over the years, this collection is indispensable for avid bluegrass fans. –Jon Weisberger, No Depression

Track Listing:
Disc: 1

1. Little Bessie
2. Mother's Only Sleeping
4. Campin' In Canaan Land
5. Mother Call My Name In Prayer
6. Working On A Building
7. Somebody Touched Me
8. Dying A Sinner's Death
9. Village Church Yard
10. A Few More Years
11. Kneel At The Cross
12. My Sinful Past
13. How Mountain Girls Can Love
14. There Is A Trap
15. I See Through You
16. Thy Burdens Are Greater Than Mine
17. Fast Express
18. I'm Only Human
19. String, Eraser And Blotter
20. Keep Them Cold, Icy Fingers Off Of Me
21. Still Trying To Get To Little Rock
22. Where We'll Never Grow Old
23. When The Savior Reached Down For Me
24. Paul And Silas
25. Who Will Sing For Me
26. I'll Fly Away
27. Drinking From The Fountain
28. Leaning On The Everlasting Arms
29. Memories Of Mother

The Stanley Brothers - The King Years 1961-1965 (2003) {4CD Collector's Box Set King Records KG-0950-2}

The Stanley Brothers - The King Years 1961-1965 (2003) {4CD Collector's Box Set King Records KG-0950-2}


Disc: 2
1. Heaven's Light Is Shining On Me
2. Let Me Walk, Lord, By Your Side
3. Harbor Of Love
4. We Shall Rise
5. (Dear Girl) Can You Forgive
6. It's Alright If That's The Way You Feel
7. Drunkard's Dream
8. I Just Came From Your Wedding
9. Mama Don't Allow
10. Chickie's Old Gray Mule
11. If We Never Meet Again
12. Hand In Hand With Jesus
13. My Deceitful Heart
14. Christmas Is Near
15. I Don't Want Your Rambling Letters
16. Just Because
17. No Letter Today
18. He Went To Sleep And The Hogs Ate Him
19. My Brother's Bride
20. Six Months Ain't Long
21. Old And In The Way
22. Hills Of Roan County
23. Little Birdie
24. Pig In A Pen
25. Whiskey
26. Lips That Lie
27. Lips That Lie (alternate version)
28. Little Darling Pal Of Mine
29. Darling Nellie Gray

The Stanley Brothers - The King Years 1961-1965 (2003) {4CD Collector's Box Set King Records KG-0950-2}

The Stanley Brothers - The King Years 1961-1965 (2003) {4CD Collector's Box Set King Records KG-0950-2}


Disc: 3
1. Train 45
2. Lonesome Traveler
3. Shout Little Lulie
4. Shamrock
5. Stoney Creek
6. Stone Walls And Steel Bars
7. Standing Room Only (Outside Your Heart)
8. Lonesome Night
9. Pretty Little Miss In The Garden
10. Late Last Night
11. When You And I Were Young, Maggie/Red Wing
12. Big Booger
13. Sourwood Mountain
14. Ground Hog/Red River Valley
15. Rang Tang
16. Snow Deer
17. Five String Drag
18. Never Again
19. Don't Cheat In Our Home Town
20. Don't Step Over An Old Love
21. I Just Stood There
22. Will The Circle Be Unbroken
23. Jesus Savior, Pilot Me
24. I Just Dropped By
25. Oh Death
26. Shoutin' On The Hills Of Glory
27. Beautiful Star Of Bethlehem

The Stanley Brothers - The King Years 1961-1965 (2003) {4CD Collector's Box Set King Records KG-0950-2}

The Stanley Brothers - The King Years 1961-1965 (2003) {4CD Collector's Box Set King Records KG-0950-2}


Disc: 4
1. John Three-Sixteen
2. A Crown He Wore
3. How Beautiful Heaven Must Be
4. He's Passing This Way
5. No Burdens Pass Through
6. Building On That Rock
7. Bully Of The Town
8. Back Up And Push
9. Careless Love
10. How Bad I Do Feel
11. Rollin' On Rubber Wheels
12. Our Darlin's Gone
13. How You've Tortured My Mind
14. I'm Bound To Ride
15. God's Highway
16. The End Of The Road
17. Seek Jesus (He Still May Be Found)
18. He'll Save Your Soul Yet
19. I Feel Like Going Home
20. Take Me Home
21. Are You Ready
22. Prayer Of A Truck Driver's Son
23. What A Price
24. Vision Of The Promised Land
25. Pray For The Boys
26. Soldier's Grave

The Stanley Brothers - The King Years 1961-1965 (2003) {4CD Collector's Box Set King Records KG-0950-2}

The Stanley Brothers - The King Years 1961-1965 (2003) {4CD Collector's Box Set King Records KG-0950-2}


Exact Audio Copy V0.99 prebeta 4 from 23. January 2008

EAC extraction logfile from 25. December 2010, 1:09

The Stanley Brothers / The King Years 1961-1965 (Disc 1)

Used drive : BENQ DVD DC DW1670 Adapter: 1 ID: 0

Read mode : Secure
Utilize accurate stream : Yes
Defeat audio cache : Yes
Make use of C2 pointers : No

Read offset correction : 102
Overread into Lead-In and Lead-Out : No
Fill up missing offset samples with silence : Yes
Delete leading and trailing silent blocks : No
Null samples used in CRC calculations : Yes
Used interface : Installed external ASPI interface
Gap handling : Appended to previous track

Used output format : User Defined Encoder
Selected bitrate : 256 kBit/s
Quality : High
Add ID3 tag : No
Command line compressor : C:\Program\FLAC\flac.exe
Additional command line options : -8 -V -T "ARTIST=%a" -T "TITLE=%t" -T "ALBUM=%g" -T "DATE=%y" -T "TRACKNUMBER=%n" -T "GENRE=%m" -T "COMMENT=EAC FLAC -8" %s


TOC of the extracted CD

Track | Start | Length | Start sector | End sector
––––––––––––––––––––––––––––-
1 | 0:00.00 | 4:02.25 | 0 | 18174
2 | 4:02.25 | 2:46.37 | 18175 | 30661
3 | 6:48.62 | 2:12.46 | 30662 | 40607
4 | 9:01.33 | 2:10.35 | 40608 | 50392
5 | 11:11.68 | 2:44.36 | 50393 | 62728
6 | 13:56.29 | 2:29.40 | 62729 | 73943
7 | 16:25.69 | 2:16.35 | 73944 | 84178
8 | 18:42.29 | 2:43.74 | 84179 | 96477
9 | 21:26.28 | 2:34.09 | 96478 | 108036
10 | 24:00.37 | 2:56.06 | 108037 | 121242
11 | 26:56.43 | 2:18.58 | 121243 | 131650
12 | 29:15.26 | 2:13.73 | 131651 | 141698
13 | 31:29.24 | 1:54.35 | 141699 | 150283
14 | 33:23.59 | 3:06.37 | 150284 | 164270
15 | 36:30.21 | 2:30.69 | 164271 | 175589
16 | 39:01.15 | 2:52.45 | 175590 | 188534
17 | 41:53.60 | 2:55.03 | 188535 | 201662
18 | 44:48.63 | 2:32.64 | 201663 | 213126
19 | 47:21.52 | 2:17.17 | 213127 | 223418
20 | 49:38.69 | 2:20.25 | 223419 | 233943
21 | 51:59.19 | 2:40.18 | 233944 | 245961
22 | 54:39.37 | 2:37.37 | 245962 | 257773
23 | 57:16.74 | 2:46.45 | 257774 | 270268
24 | 60:03.44 | 2:19.68 | 270269 | 280761
25 | 62:23.37 | 2:08.12 | 280762 | 290373
26 | 64:31.49 | 2:22.69 | 290374 | 301092
27 | 66:54.43 | 2:43.36 | 301093 | 313353
28 | 69:38.04 | 2:54.23 | 313354 | 326426
29 | 72:32.27 | 2:50.73 | 326427 | 339249


Track 1

Filename C:\Documents and Settings\ellroy\Skrivbord\The Stanley Brothers - The King Years 1961-1965 (2003) [FLAC]\CD1\01 - Little Bessie.wav

Pre-gap length 0:00:02.00

Peak level 99.9 %
Track quality 100.0 %
Test CRC A487BD56
Copy CRC A487BD56
Accurately ripped (confidence 1) [E9B939A9]
Copy OK

Track 2

Filename C:\Documents and Settings\ellroy\Skrivbord\The Stanley Brothers - The King Years 1961-1965 (2003) [FLAC]\CD1\02 - Mother's Only Sleeping.wav

Pre-gap length 0:00:02.00

Peak level 99.9 %
Track quality 100.0 %
Test CRC 4968DE8D
Copy CRC 4968DE8D
Accurately ripped (confidence 1) [0D1DD9E8]
Copy OK

Track 3

Filename C:\Documents and Settings\ellroy\Skrivbord\The Stanley Brothers - The King Years 1961-1965 (2003) [FLAC]\CD1\03 - Old Country Church.wav

Pre-gap length 0:00:02.00

Peak level 99.9 %
Track quality 100.0 %
Test CRC 55DB330D
Copy CRC 55DB330D
Accurately ripped (confidence 1) [7017BFAE]
Copy OK

Track 4

Filename C:\Documents and Settings\ellroy\Skrivbord\The Stanley Brothers - The King Years 1961-1965 (2003) [FLAC]\CD1\04 - Campin' In Canaan Land.wav

Pre-gap length 0:00:02.00

Peak level 99.9 %
Track quality 100.0 %
Test CRC 508DF33C
Copy CRC 508DF33C
Accurately ripped (confidence 1) [E2B4DAD6]
Copy OK

Track 5

Filename C:\Documents and Settings\ellroy\Skrivbord\The Stanley Brothers - The King Years 1961-1965 (2003) [FLAC]\CD1\05 - Mother Call My Name In Prayer.wav

Pre-gap length 0:00:02.00

Peak level 99.9 %
Track quality 100.0 %
Test CRC DE5DC22F
Copy CRC DE5DC22F
Accurately ripped (confidence 1) [EEBB4415]
Copy OK

Track 6

Filename C:\Documents and Settings\ellroy\Skrivbord\The Stanley Brothers - The King Years 1961-1965 (2003) [FLAC]\CD1\06 - Working On A Building.wav

Pre-gap length 0:00:02.00

Peak level 99.9 %
Track quality 100.0 %
Test CRC 9ED81120
Copy CRC 9ED81120
Accurately ripped (confidence 1) [E2AC192E]
Copy OK

Track 7

Filename C:\Documents and Settings\ellroy\Skrivbord\The Stanley Brothers - The King Years 1961-1965 (2003) [FLAC]\CD1\07 - Somebody Touched Me.wav

Pre-gap length 0:00:02.00

Peak level 99.9 %
Track quality 99.9 %
Test CRC C25DC8E1
Copy CRC C25DC8E1
Accurately ripped (confidence 1) [E12A7BDB]
Copy OK

Track 8

Filename C:\Documents and Settings\ellroy\Skrivbord\The Stanley Brothers - The King Years 1961-1965 (2003) [FLAC]\CD1\08 - Dying A Sinner's Death.wav

Pre-gap length 0:00:02.00

Peak level 99.9 %
Track quality 100.0 %
Test CRC 119F2087
Copy CRC 119F2087
Accurately ripped (confidence 1) [BE058B22]
Copy OK

Track 9

Filename C:\Documents and Settings\ellroy\Skrivbord\The Stanley Brothers - The King Years 1961-1965 (2003) [FLAC]\CD1\09 - Village Church Yard.wav

Pre-gap length 0:00:02.00

Peak level 99.9 %
Track quality 100.0 %
Test CRC 2505B94E
Copy CRC 2505B94E
Accurately ripped (confidence 1) [7CE73BB5]
Copy OK

Track 10

Filename C:\Documents and Settings\ellroy\Skrivbord\The Stanley Brothers - The King Years 1961-1965 (2003) [FLAC]\CD1\10 - Few More Years.wav

Pre-gap length 0:00:02.00

Peak level 99.9 %
Track quality 100.0 %
Test CRC 50FEA1AA
Copy CRC 50FEA1AA
Accurately ripped (confidence 1) [63D4392F]
Copy OK

Track 11

Filename C:\Documents and Settings\ellroy\Skrivbord\The Stanley Brothers - The King Years 1961-1965 (2003) [FLAC]\CD1\11 - Kneel At The Cross.wav

Pre-gap length 0:00:02.00

Peak level 99.9 %
Track quality 100.0 %
Test CRC 46FAB2A3
Copy CRC 46FAB2A3
Accurately ripped (confidence 1) [7568D295]
Copy OK

Track 12

Filename C:\Documents and Settings\ellroy\Skrivbord\The Stanley Brothers - The King Years 1961-1965 (2003) [FLAC]\CD1\12 - My Sinful Past.wav

Pre-gap length 0:00:02.00

Peak level 99.9 %
Track quality 100.0 %
Test CRC D12410FC
Copy CRC D12410FC
Accurately ripped (confidence 1) [D0E50B5E]
Copy OK

Track 13

Filename C:\Documents and Settings\ellroy\Skrivbord\The Stanley Brothers - The King Years 1961-1965 (2003) [FLAC]\CD1\13 - How Mountain Girls Can Love.wav

Pre-gap length 0:00:02.00

Peak level 99.9 %
Track quality 100.0 %
Test CRC 26369816
Copy CRC 26369816
Accurately ripped (confidence 1) [91905D9E]
Copy OK

Track 14

Filename C:\Documents and Settings\ellroy\Skrivbord\The Stanley Brothers - The King Years 1961-1965 (2003) [FLAC]\CD1\14 - There Is A Trap.wav

Pre-gap length 0:00:02.00

Peak level 92.5 %
Track quality 100.0 %
Test CRC B61CACEE
Copy CRC B61CACEE
Accurately ripped (confidence 1) [23A4964E]
Copy OK

Track 15

Filename C:\Documents and Settings\ellroy\Skrivbord\The Stanley Brothers - The King Years 1961-1965 (2003) [FLAC]\CD1\15 - I See Through You.wav

Pre-gap length 0:00:02.00

Peak level 99.9 %
Track quality 100.0 %
Test CRC 98E7EB18
Copy CRC 98E7EB18
Accurately ripped (confidence 1) [00FB3768]
Copy OK

Track 16

Filename C:\Documents and Settings\ellroy\Skrivbord\The Stanley Brothers - The King Years 1961-1965 (2003) [FLAC]\CD1\16 - Thy Burdens Are Greater Than Mine.wav

Pre-gap length 0:00:02.00

Peak level 99.9 %
Track quality 100.0 %
Test CRC 1C1D5909
Copy CRC 1C1D5909
Accurately ripped (confidence 1) [C9C5E3FC]
Copy OK

Track 17

Filename C:\Documents and Settings\ellroy\Skrivbord\The Stanley Brothers - The King Years 1961-1965 (2003) [FLAC]\CD1\17 - Fast Express.wav

Pre-gap length 0:00:02.00

Peak level 99.9 %
Track quality 100.0 %
Test CRC 3D328813
Copy CRC 3D328813
Accurately ripped (confidence 1) [B57A819F]
Copy OK

Track 18

Filename C:\Documents and Settings\ellroy\Skrivbord\The Stanley Brothers - The King Years 1961-1965 (2003) [FLAC]\CD1\18 - I'm Only Human.wav

Pre-gap length 0:00:02.00

Peak level 99.9 %
Track quality 100.0 %
Test CRC 837B8988
Copy CRC 837B8988
Accurately ripped (confidence 1) [0B95F59E]
Copy OK

Track 19

Filename C:\Documents and Settings\ellroy\Skrivbord\The Stanley Brothers - The King Years 1961-1965 (2003) [FLAC]\CD1\19 - String, Eraser And Blotter.wav

Pre-gap length 0:00:02.00

Peak level 99.9 %
Track quality 100.0 %
Test CRC EF6DFCF5
Copy CRC EF6DFCF5
Accurately ripped (confidence 1) [EDA9A558]
Copy OK

Track 20

Filename C:\Documents and Settings\ellroy\Skrivbord\The Stanley Brothers - The King Years 1961-1965 (2003) [FLAC]\CD1\20 - Keep Them Cold, Icy Fingers Off Me.wav

Pre-gap length 0:00:02.00

Peak level 99.9 %
Track quality 100.0 %
Test CRC 7A9BA29E
Copy CRC 7A9BA29E
Accurately ripped (confidence 1) [BE7854AD]
Copy OK

Track 21

Filename C:\Documents and Settings\ellroy\Skrivbord\The Stanley Brothers - The King Years 1961-1965 (2003) [FLAC]\CD1\21 - Still Trying To Get To Little Rock.wav

Pre-gap length 0:00:02.00

Peak level 99.9 %
Track quality 100.0 %
Test CRC 857D8AD9
Copy CRC 857D8AD9
Accurately ripped (confidence 1) [05182C93]
Copy OK

Track 22

Filename C:\Documents and Settings\ellroy\Skrivbord\The Stanley Brothers - The King Years 1961-1965 (2003) [FLAC]\CD1\22 - Where We'll Never Grow Old.wav

Pre-gap length 0:00:02.00

Peak level 79.4 %
Track quality 100.0 %
Test CRC D758CE6C
Copy CRC D758CE6C
Accurately ripped (confidence 1) [030D8FC8]
Copy OK

Track 23

Filename C:\Documents and Settings\ellroy\Skrivbord\The Stanley Brothers - The King Years 1961-1965 (2003) [FLAC]\CD1\23 - When He Reached Down His Hand For Me.wav

Pre-gap length 0:00:02.00

Peak level 99.9 %
Track quality 100.0 %
Test CRC C8FCB9AF
Copy CRC C8FCB9AF
Accurately ripped (confidence 1) [310F96CF]
Copy OK

Track 24

Filename C:\Documents and Settings\ellroy\Skrivbord\The Stanley Brothers - The King Years 1961-1965 (2003) [FLAC]\CD1\24 - Paul And Silas.wav

Pre-gap length 0:00:02.00

Peak level 99.9 %
Track quality 100.0 %
Test CRC E823ED2E
Copy CRC E823ED2E
Accurately ripped (confidence 1) [DC793461]
Copy OK

Track 25

Filename C:\Documents and Settings\ellroy\Skrivbord\The Stanley Brothers - The King Years 1961-1965 (2003) [FLAC]\CD1\25 - Who Will Sing For Me.wav

Pre-gap length 0:00:02.00

Peak level 99.9 %
Track quality 99.9 %
Test CRC BF254503
Copy CRC BF254503
Accurately ripped (confidence 1) [39F0041F]
Copy OK

Track 26

Filename C:\Documents and Settings\ellroy\Skrivbord\The Stanley Brothers - The King Years 1961-1965 (2003) [FLAC]\CD1\26 - I'll Fly Away.wav

Pre-gap length 0:00:02.00

Peak level 99.9 %
Track quality 100.0 %
Test CRC DF50D15B
Copy CRC DF50D15B
Accurately ripped (confidence 1) [653C0884]
Copy OK

Track 27

Filename C:\Documents and Settings\ellroy\Skrivbord\The Stanley Brothers - The King Years 1961-1965 (2003) [FLAC]\CD1\27 - Drinking From The Fountain.wav

Pre-gap length 0:00:02.00

Peak level 99.9 %
Track quality 100.0 %
Test CRC E6C5B003
Copy CRC E6C5B003
Accurately ripped (confidence 1) [EB08FA65]
Copy OK

Track 28

Filename C:\Documents and Settings\ellroy\Skrivbord\The Stanley Brothers - The King Years 1961-1965 (2003) [FLAC]\CD1\28 - Leaning On The Everlasting Arms.wav

Pre-gap length 0:00:02.00

Peak level 99.9 %
Track quality 100.0 %
Test CRC 523C062A
Copy CRC 523C062A
Accurately ripped (confidence 1) [F7F9C19F]
Copy OK

Track 29

Filename C:\Documents and Settings\ellroy\Skrivbord\The Stanley Brothers - The King Years 1961-1965 (2003) [FLAC]\CD1\29 - Memories Of Mother.wav

Pre-gap length 0:00:02.00

Peak level 99.9 %
Track quality 100.0 %
Test CRC E3D93EA2
Copy CRC E3D93EA2
Accurately ripped (confidence 1) [37DC80F6]
Copy OK


All tracks accurately ripped

No errors occurred

End of status report

Exact Audio Copy V0.99 prebeta 4 from 23. January 2008

EAC extraction logfile from 25. December 2010, 14:16

The Stanley Brothers / The King Years 1961-1965 (Disc 2)

Used drive : BENQ DVD DC DW1670 Adapter: 1 ID: 0

Read mode : Secure
Utilize accurate stream : Yes
Defeat audio cache : Yes
Make use of C2 pointers : No

Read offset correction : 102
Overread into Lead-In and Lead-Out : No
Fill up missing offset samples with silence : Yes
Delete leading and trailing silent blocks : No
Null samples used in CRC calculations : Yes
Used interface : Installed external ASPI interface
Gap handling : Appended to previous track

Used output format : User Defined Encoder
Selected bitrate : 256 kBit/s
Quality : High
Add ID3 tag : No
Command line compressor : C:\Program\FLAC\flac.exe
Additional command line options : -8 -V -T "ARTIST=%a" -T "TITLE=%t" -T "ALBUM=%g" -T "DATE=%y" -T "TRACKNUMBER=%n" -T "GENRE=%m" -T "COMMENT=EAC FLAC -8" %s


TOC of the extracted CD

Track | Start | Length | Start sector | End sector
––––––––––––––––––––––––––––-
1 | 0:00.00 | 2:28.32 | 0 | 11131
2 | 2:28.32 | 3:26.48 | 11132 | 26629
3 | 5:55.05 | 2:43.01 | 26630 | 38855
4 | 8:38.06 | 2:32.42 | 38856 | 50297
5 | 11:10.48 | 3:01.48 | 50298 | 63920
6 | 14:12.21 | 2:21.72 | 63921 | 74567
7 | 16:34.18 | 2:05.12 | 74568 | 83954
8 | 18:39.30 | 2:19.68 | 83955 | 94447
9 | 20:59.23 | 2:11.29 | 94448 | 104301
10 | 23:10.52 | 2:08.16 | 104302 | 113917
11 | 25:18.68 | 2:59.64 | 113918 | 127406
12 | 28:18.57 | 3:11.05 | 127407 | 141736
13 | 31:29.62 | 2:44.02 | 141737 | 154038
14 | 34:13.64 | 2:18.65 | 154039 | 164453
15 | 36:32.54 | 2:29.25 | 164454 | 175653
16 | 39:02.04 | 2:16.35 | 175654 | 185888
17 | 41:18.39 | 2:44.74 | 185889 | 198262
18 | 44:03.38 | 2:41.64 | 198263 | 210401
19 | 46:45.27 | 2:03.34 | 210402 | 219660
20 | 48:48.61 | 2:47.37 | 219661 | 232222
21 | 51:36.23 | 2:16.38 | 232223 | 242460
22 | 53:52.61 | 4:35.35 | 242461 | 263120
23 | 58:28.21 | 1:59.22 | 263121 | 272067
24 | 60:27.43 | 2:09.53 | 272068 | 281795
25 | 62:37.21 | 2:32.46 | 281796 | 293241
26 | 65:09.67 | 2:46.09 | 293242 | 305700
27 | 67:56.01 | 2:47.39 | 305701 | 318264
28 | 70:43.40 | 2:51.51 | 318265 | 331140
29 | 73:35.16 | 2:44.15 | 331141 | 343455


Track 1

Filename C:\Documents and Settings\ellroy\Skrivbord\The Stanley Brothers - The King Years 1961-1965 (2003) [FLAC]\CD2\01 - Heaven's Light Is Shining On Me.wav

Pre-gap length 0:00:02.00

Peak level 99.9 %
Track quality 99.9 %
Test CRC D6A16458
Copy CRC D6A16458
Accurately ripped (confidence 1) [0DD0B405]
Copy OK

Track 2

Filename C:\Documents and Settings\ellroy\Skrivbord\The Stanley Brothers - The King Years 1961-1965 (2003) [FLAC]\CD2\02 - Let Me Walk, Lord, By Your Side.wav

Pre-gap length 0:00:02.00

Peak level 99.9 %
Track quality 100.0 %
Test CRC 293F5740
Copy CRC 293F5740
Accurately ripped (confidence 1) [98C6DC51]
Copy OK

Track 3

Filename C:\Documents and Settings\ellroy\Skrivbord\The Stanley Brothers - The King Years 1961-1965 (2003) [FLAC]\CD2\03 - Harbor Of Love.wav

Pre-gap length 0:00:02.00

Peak level 99.9 %
Track quality 99.9 %
Test CRC FE663314
Copy CRC FE663314
Accurately ripped (confidence 1) [6EAB8C2C]
Copy OK

Track 4

Filename C:\Documents and Settings\ellroy\Skrivbord\The Stanley Brothers - The King Years 1961-1965 (2003) [FLAC]\CD2\04 - We Shall Rise.wav

Pre-gap length 0:00:02.00

Peak level 99.9 %
Track quality 100.0 %
Test CRC DD1D1D94
Copy CRC DD1D1D94
Accurately ripped (confidence 1) [6AD12EF4]
Copy OK

Track 5

Filename C:\Documents and Settings\ellroy\Skrivbord\The Stanley Brothers - The King Years 1961-1965 (2003) [FLAC]\CD2\05 - (Dear Girl) Can You Forgive.wav

Pre-gap length 0:00:02.00

Peak level 99.9 %
Track quality 99.9 %
Test CRC 6418C280
Copy CRC 6418C280
Accurately ripped (confidence 1) [9B91D62E]
Copy OK

Track 6

Filename C:\Documents and Settings\ellroy\Skrivbord\The Stanley Brothers - The King Years 1961-1965 (2003) [FLAC]\CD2\06 - It's Alright If That's The Way You Feel.wav

Pre-gap length 0:00:02.00

Peak level 99.9 %
Track quality 100.0 %
Test CRC 2E7C9F1F
Copy CRC 2E7C9F1F
Accurately ripped (confidence 1) [19B3BAD5]
Copy OK

Track 7

Filename C:\Documents and Settings\ellroy\Skrivbord\The Stanley Brothers - The King Years 1961-1965 (2003) [FLAC]\CD2\07 - Dunkard's Dream.wav

Pre-gap length 0:00:02.00

Peak level 99.9 %
Track quality 100.0 %
Test CRC 33B10B43
Copy CRC 33B10B43
Accurately ripped (confidence 1) [18381588]
Copy OK

Track 8

Filename C:\Documents and Settings\ellroy\Skrivbord\The Stanley Brothers - The King Years 1961-1965 (2003) [FLAC]\CD2\08 - I Just Came From Your Wedding.wav

Pre-gap length 0:00:02.00

Peak level 99.9 %
Track quality 100.0 %
Test CRC 6C727FF0
Copy CRC 6C727FF0
Accurately ripped (confidence 1) [CCBD4B40]
Copy OK

Track 9

Filename C:\Documents and Settings\ellroy\Skrivbord\The Stanley Brothers - The King Years 1961-1965 (2003) [FLAC]\CD2\09 - Mama Don't Allow.wav

Pre-gap length 0:00:02.00

Peak level 99.9 %
Track quality 100.0 %
Test CRC 61DA2E20
Copy CRC 61DA2E20
Accurately ripped (confidence 1) [1479BE92]
Copy OK

Track 10

Filename C:\Documents and Settings\ellroy\Skrivbord\The Stanley Brothers - The King Years 1961-1965 (2003) [FLAC]\CD2\10 - Chickie's Old Gray Mule.wav

Pre-gap length 0:00:02.00

Peak level 79.9 %
Track quality 100.0 %
Test CRC F659237A
Copy CRC F659237A
Accurately ripped (confidence 1) [B18E106C]
Copy OK

Track 11

Filename C:\Documents and Settings\ellroy\Skrivbord\The Stanley Brothers - The King Years 1961-1965 (2003) [FLAC]\CD2\11 - If We Never Meet Again.wav

Pre-gap length 0:00:02.00

Peak level 99.9 %
Track quality 100.0 %
Test CRC BA0E47D6
Copy CRC BA0E47D6
Accurately ripped (confidence 1) [FCFA6E05]
Copy OK

Track 12

Filename C:\Documents and Settings\ellroy\Skrivbord\The Stanley Brothers - The King Years 1961-1965 (2003) [FLAC]\CD2\12 - Hand In Hand With Jesus.wav

Pre-gap length 0:00:02.00

Peak level 99.9 %
Track quality 100.0 %
Test CRC 09AB919E
Copy CRC 09AB919E
Accurately ripped (confidence 1) [396291AD]
Copy OK

Track 13

Filename C:\Documents and Settings\ellroy\Skrivbord\The Stanley Brothers - The King Years 1961-1965 (2003) [FLAC]\CD2\13 - My Deceitful Heart.wav

Pre-gap length 0:00:02.00

Peak level 99.9 %
Track quality 99.9 %
Test CRC F5ACDE7B
Copy CRC F5ACDE7B
Accurately ripped (confidence 1) [4E3F6764]
Copy OK

Track 14

Filename C:\Documents and Settings\ellroy\Skrivbord\The Stanley Brothers - The King Years 1961-1965 (2003) [FLAC]\CD2\14 - Christmas Is Near.wav

Pre-gap length 0:00:02.00

Peak level 99.9 %
Track quality 100.0 %
Test CRC E75F5ADA
Copy CRC E75F5ADA
Accurately ripped (confidence 1) [B4A9A3F8]
Copy OK

Track 15

Filename C:\Documents and Settings\ellroy\Skrivbord\The Stanley Brothers - The King Years 1961-1965 (2003) [FLAC]\CD2\15 - I Don't Want Your Rambling Letters.wav

Pre-gap length 0:00:02.00

Peak level 99.9 %
Track quality 100.0 %
Test CRC C53786D8
Copy CRC C53786D8
Accurately ripped (confidence 1) [BF792655]
Copy OK

Track 16

Filename C:\Documents and Settings\ellroy\Skrivbord\The Stanley Brothers - The King Years 1961-1965 (2003) [FLAC]\CD2\16 - Just Because.wav

Pre-gap length 0:00:02.00

Peak level 99.9 %
Track quality 99.9 %
Test CRC 1DC2992B
Copy CRC 1DC2992B
Accurately ripped (confidence 1) [1EECA8A1]
Copy OK

Track 17

Filename C:\Documents and Settings\ellroy\Skrivbord\The Stanley Brothers - The King Years 1961-1965 (2003) [FLAC]\CD2\17 - No Letter Today.wav

Pre-gap length 0:00:02.00

Peak level 99.9 %
Track quality 100.0 %
Test CRC 26E32EEA
Copy CRC 26E32EEA
Accurately ripped (confidence 1) [31EF16D5]
Copy OK

Track 18

Filename C:\Documents and Settings\ellroy\Skrivbord\The Stanley Brothers - The King Years 1961-1965 (2003) [FLAC]\CD2\18 - He Went To Sleep And The Hogs Ate Him.wav

Pre-gap length 0:00:02.00

Peak level 99.9 %
Track quality 100.0 %
Test CRC CEE8456C
Copy CRC CEE8456C
Accurately ripped (confidence 1) [BAAD15F7]
Copy OK

Track 19

Filename C:\Documents and Settings\ellroy\Skrivbord\The Stanley Brothers - The King Years 1961-1965 (2003) [FLAC]\CD2\19 - My Brother's Bride.wav

Pre-gap length 0:00:02.00

Peak level 99.9 %
Track quality 100.0 %
Test CRC 933F98E6
Copy CRC 933F98E6
Accurately ripped (confidence 1) [67FBC942]
Copy OK

Track 20

Filename C:\Documents and Settings\ellroy\Skrivbord\The Stanley Brothers - The King Years 1961-1965 (2003) [FLAC]\CD2\20 - Six Months Ain't Long.wav

Pre-gap length 0:00:02.00

Peak level 99.9 %
Track quality 100.0 %
Test CRC 808ADF44
Copy CRC 808ADF44
Accurately ripped (confidence 1) [38E400C1]
Copy OK

Track 21

Filename C:\Documents and Settings\ellroy\Skrivbord\The Stanley Brothers - The King Years 1961-1965 (2003) [FLAC]\CD2\21 - Old And In The Way.wav

Pre-gap length 0:00:02.00

Peak level 99.9 %
Track quality 100.0 %
Test CRC DE663A00
Copy CRC DE663A00
Accurately ripped (confidence 1) [082CB8EF]
Copy OK

Track 22

Filename C:\Documents and Settings\ellroy\Skrivbord\The Stanley Brothers - The King Years 1961-1965 (2003) [FLAC]\CD2\22 - Hills Of Roan County.wav

Pre-gap length 0:00:02.00

Peak level 99.9 %
Track quality 100.0 %
Test CRC DDE87330
Copy CRC DDE87330
Accurately ripped (confidence 1) [26030984]
Copy OK

Track 23

Filename C:\Documents and Settings\ellroy\Skrivbord\The Stanley Brothers - The King Years 1961-1965 (2003) [FLAC]\CD2\23 - Little Birdie.wav

Pre-gap length 0:00:02.00

Peak level 99.9 %
Track quality 100.0 %
Test CRC 387940C6
Copy CRC 387940C6
Accurately ripped (confidence 1) [ECC6AE4B]
Copy OK

Track 24

Filename C:\Documents and Settings\ellroy\Skrivbord\The Stanley Brothers - The King Years 1961-1965 (2003) [FLAC]\CD2\24 - Pig In A Pen.wav

Pre-gap length 0:00:02.00

Peak level 99.9 %
Track quality 100.0 %
Test CRC 7407396E
Copy CRC 7407396E
Accurately ripped (confidence 1) [11BA3A93]
Copy OK

Track 25

Filename C:\Documents and Settings\ellroy\Skrivbord\The Stanley Brothers - The King Years 1961-1965 (2003) [FLAC]\CD2\25 - Whiskey.wav

Pre-gap length 0:00:02.00

Peak level 99.9 %
Track quality 100.0 %
Test CRC 597639C4
Copy CRC 597639C4
Accurately ripped (confidence 1) [5DAC8D09]
Copy OK

Track 26

Filename C:\Documents and Settings\ellroy\Skrivbord\The Stanley Brothers - The King Years 1961-1965 (2003) [FLAC]\CD2\26 - Lips That Lie.wav

Pre-gap length 0:00:02.00

Peak level 99.9 %
Track quality 100.0 %
Test CRC 28656A86
Copy CRC 28656A86
Accurately ripped (confidence 1) [3D306ADA]
Copy OK

Track 27

Filename C:\Documents and Settings\ellroy\Skrivbord\The Stanley Brothers - The King Years 1961-1965 (2003) [FLAC]\CD2\27 - Lips That Lie (alternate version).wav

Pre-gap length 0:00:02.00

Peak level 99.9 %
Track quality 100.0 %
Test CRC AF7DD263
Copy CRC AF7DD263
Accurately ripped (confidence 1) [139D5BEE]
Copy OK

Track 28

Filename C:\Documents and Settings\ellroy\Skrivbord\The Stanley Brothers - The King Years 1961-1965 (2003) [FLAC]\CD2\28 - Little Darling Pal Of Mine.wav

Pre-gap length 0:00:02.00

Peak level 99.9 %
Track quality 99.9 %
Test CRC 09073CB3
Copy CRC 09073CB3
Accurately ripped (confidence 1) [FE1BC8A8]
Copy OK

Track 29

Filename C:\Documents and Settings\ellroy\Skrivbord\The Stanley Brothers - The King Years 1961-1965 (2003) [FLAC]\CD2\29 - Darling Nellie Gray.wav

Pre-gap length 0:00:02.00

Peak level 99.9 %
Track quality 100.0 %
Test CRC 0AEBBBC7
Copy CRC 0AEBBBC7
Accurately ripped (confidence 1) [E172491D]
Copy OK


All tracks accurately ripped

No errors occurred

End of status report

Exact Audio Copy V0.99 prebeta 4 from 23. January 2008

EAC extraction logfile from 25. December 2010, 15:37

The Stanley Brothers / The King Years 1961-1965 (Disc 3)

Used drive : BENQ DVD DC DW1670 Adapter: 1 ID: 0

Read mode : Secure
Utilize accurate stream : Yes
Defeat audio cache : Yes
Make use of C2 pointers : No

Read offset correction : 102
Overread into Lead-In and Lead-Out : No
Fill up missing offset samples with silence : Yes
Delete leading and trailing silent blocks : No
Null samples used in CRC calculations : Yes
Used interface : Installed external ASPI interface
Gap handling : Appended to previous track

Used output format : User Defined Encoder
Selected bitrate : 256 kBit/s
Quality : High
Add ID3 tag : No
Command line compressor : C:\Program\FLAC\flac.exe
Additional command line options : -8 -V -T "ARTIST=%a" -T "TITLE=%t" -T "ALBUM=%g" -T "DATE=%y" -T "TRACKNUMBER=%n" -T "GENRE=%m" -T "COMMENT=EAC FLAC -8" %s


TOC of the extracted CD

Track | Start | Length | Start sector | End sector
––––––––––––––––––––––––––––-
1 | 0:00.00 | 2:42.42 | 0 | 12191
2 | 2:42.42 | 2:05.68 | 12192 | 21634
3 | 4:48.35 | 1:51.03 | 21635 | 29962
4 | 6:39.38 | 1:49.43 | 29963 | 38180
5 | 8:29.06 | 2:03.33 | 38181 | 47438
6 | 10:32.39 | 2:07.17 | 47439 | 56980
7 | 12:39.56 | 2:03.57 | 56981 | 66262
8 | 14:43.38 | 2:18.72 | 66263 | 76684
9 | 17:02.35 | 2:15.39 | 76685 | 86848
10 | 19:17.74 | 2:04.34 | 86849 | 96182
11 | 21:22.33 | 2:42.27 | 96183 | 108359
12 | 24:04.60 | 2:49.31 | 108360 | 121065
13 | 26:54.16 | 2:07.64 | 121066 | 130654
14 | 29:02.05 | 2:35.70 | 130655 | 142349
15 | 31:38.00 | 2:36.47 | 142350 | 154096
16 | 34:14.47 | 2:30.36 | 154097 | 165382
17 | 36:45.08 | 1:51.59 | 165383 | 173766
18 | 38:36.67 | 2:17.01 | 173767 | 184042
19 | 40:53.68 | 2:33.49 | 184043 | 195566
20 | 43:27.42 | 2:42.14 | 195567 | 207730
21 | 46:09.56 | 2:16.50 | 207731 | 217980
22 | 48:26.31 | 2:37.01 | 217981 | 229756
23 | 51:03.32 | 2:43.71 | 229757 | 242052
24 | 53:47.28 | 2:15.41 | 242053 | 252218
25 | 56:02.69 | 2:57.61 | 252219 | 265554
26 | 59:00.55 | 2:52.70 | 265555 | 278524
27 | 61:53.50 | 3:49.53 | 278525 | 295752


Track 1

Filename C:\Documents and Settings\ellroy\Skrivbord\The Stanley Brothers - The King Years 1961-1965 (2003) [FLAC]\CD3\01 - Train 45.wav

Pre-gap length 0:00:02.00

Peak level 99.9 %
Track quality 100.0 %
Test CRC A403D300
Copy CRC A403D300
Accurately ripped (confidence 1) [03CC34B8]
Copy OK

Track 2

Filename C:\Documents and Settings\ellroy\Skrivbord\The Stanley Brothers - The King Years 1961-1965 (2003) [FLAC]\CD3\02 - Lonesome Traveler.wav

Peak level 99.9 %
Track quality 100.0 %
Test CRC EFE04B61
Copy CRC EFE04B61
Accurately ripped (confidence 1) [E256EFD8]
Copy OK

Track 3

Filename C:\Documents and Settings\ellroy\Skrivbord\The Stanley Brothers - The King Years 1961-1965 (2003) [FLAC]\CD3\03 - Shout Little Lulie.wav

Peak level 99.9 %
Track quality 100.0 %
Test CRC 3B6FA5DB
Copy CRC 3B6FA5DB
Accurately ripped (confidence 1) [964978FB]
Copy OK

Track 4

Filename C:\Documents and Settings\ellroy\Skrivbord\The Stanley Brothers - The King Years 1961-1965 (2003) [FLAC]\CD3\04 - Shamrock.wav

Peak level 99.9 %
Track quality 99.9 %
Test CRC BE847E07
Copy CRC BE847E07
Accurately ripped (confidence 1) [B34D7ECB]
Copy OK

Track 5

Filename C:\Documents and Settings\ellroy\Skrivbord\The Stanley Brothers - The King Years 1961-1965 (2003) [FLAC]\CD3\05 - Stoney Creek.wav

Peak level 99.9 %
Track quality 100.0 %
Test CRC 737A8BCE
Copy CRC 737A8BCE
Accurately ripped (confidence 1) [6883AC46]
Copy OK

Track 6

Filename C:\Documents and Settings\ellroy\Skrivbord\The Stanley Brothers - The King Years 1961-1965 (2003) [FLAC]\CD3\06 - Stone Walls And Steel Bars.wav

Peak level 99.9 %
Track quality 100.0 %
Test CRC 2EE450F1
Copy CRC 2EE450F1
Accurately ripped (confidence 1) [4387B5AD]
Copy OK

Track 7

Filename C:\Documents and Settings\ellroy\Skrivbord\The Stanley Brothers - The King Years 1961-1965 (2003) [FLAC]\CD3\07 - Standing Room Only (Outside Your Heart).wav

Peak level 99.9 %
Track quality 100.0 %
Test CRC 0171412E
Copy CRC 0171412E
Accurately ripped (confidence 1) [40929D86]
Copy OK

Track 8

Filename C:\Documents and Settings\ellroy\Skrivbord\The Stanley Brothers - The King Years 1961-1965 (2003) [FLAC]\CD3\08 - Lonesome Night.wav

Peak level 99.9 %
Track quality 100.0 %
Test CRC 04B0191E
Copy CRC 04B0191E
Accurately ripped (confidence 1) [C9B4AC00]
Copy OK

Track 9

Filename C:\Documents and Settings\ellroy\Skrivbord\The Stanley Brothers - The King Years 1961-1965 (2003) [FLAC]\CD3\09 - Pretty Little Miss In The Garden.wav

Peak level 99.9 %
Track quality 100.0 %
Test CRC 2995FD38
Copy CRC 2995FD38
Accurately ripped (confidence 1) [FA7C80FE]
Copy OK

Track 10

Filename C:\Documents and Settings\ellroy\Skrivbord\The Stanley Brothers - The King Years 1961-1965 (2003) [FLAC]\CD3\10 - (It Was) Late Last Night.wav

Peak level 99.9 %
Track quality 100.0 %
Test CRC 95B515DF
Copy CRC 95B515DF
Accurately ripped (confidence 1) [DCC3D967]
Copy OK

Track 11

Filename C:\Documents and Settings\ellroy\Skrivbord\The Stanley Brothers - The King Years 1961-1965 (2003) [FLAC]\CD3\11 - When You And I Were Young, Maggie, Red Wing.wav

Peak level 99.9 %
Track quality 99.9 %
Test CRC 9898C572
Copy CRC 9898C572
Accurately ripped (confidence 1) [0C10D50A]
Copy OK

Track 12

Filename C:\Documents and Settings\ellroy\Skrivbord\The Stanley Brothers - The King Years 1961-1965 (2003) [FLAC]\CD3\12 - Big Booger.wav

Peak level 99.9 %
Track quality 100.0 %
Test CRC 8EEC3678
Copy CRC 8EEC3678
Accurately ripped (confidence 1) [44F4FA22]
Copy OK

Track 13

Filename C:\Documents and Settings\ellroy\Skrivbord\The Stanley Brothers - The King Years 1961-1965 (2003) [FLAC]\CD3\13 - Sourwood Mountain.wav

Peak level 99.9 %
Track quality 99.9 %
Test CRC 3696959A
Copy CRC 3696959A
Accurately ripped (confidence 1) [351DEDA1]
Copy OK

Track 14

Filename C:\Documents and Settings\ellroy\Skrivbord\The Stanley Brothers - The King Years 1961-1965 (2003) [FLAC]\CD3\14 - Ground Hog aka Red River Valley.wav

Peak level 99.9 %
Track quality 100.0 %
Test CRC FE302590
Copy CRC FE302590
Accurately ripped (confidence 1) [A6470928]
Copy OK

Track 15

Filename C:\Documents and Settings\ellroy\Skrivbord\The Stanley Brothers - The King Years 1961-1965 (2003) [FLAC]\CD3\15 - Rang Tang.wav

Peak level 99.1 %
Track quality 100.0 %
Test CRC 9142542D
Copy CRC 9142542D
Accurately ripped (confidence 1) [DE8D4ACF]
Copy OK

Track 16

Filename C:\Documents and Settings\ellroy\Skrivbord\The Stanley Brothers - The King Years 1961-1965 (2003) [FLAC]\CD3\16 - Snow Deer.wav

Peak level 99.9 %
Track quality 100.0 %
Test CRC 1197466C
Copy CRC 1197466C
Accurately ripped (confidence 1) [B3BF01C1]
Copy OK

Track 17

Filename C:\Documents and Settings\ellroy\Skrivbord\The Stanley Brothers - The King Years 1961-1965 (2003) [FLAC]\CD3\17 - Five String Drag.wav

Peak level 99.9 %
Track quality 100.0 %
Test CRC 147DEB58
Copy CRC 147DEB58
Accurately ripped (confidence 1) [A962C56A]
Copy OK

Track 18

Filename C:\Documents and Settings\ellroy\Skrivbord\The Stanley Brothers - The King Years 1961-1965 (2003) [FLAC]\CD3\18 - Never Again.wav

Peak level 100.0 %
Track quality 100.0 %
Test CRC DD1213AB
Copy CRC DD1213AB
Accurately ripped (confidence 1) [1786ACB1]
Copy OK

Track 19

Filename C:\Documents and Settings\ellroy\Skrivbord\The Stanley Brothers - The King Years 1961-1965 (2003) [FLAC]\CD3\19 - Don't Cheat In Our Home Town.wav

Peak level 97.2 %
Track quality 100.0 %
Test CRC 5CA93A8E
Copy CRC 5CA93A8E
Accurately ripped (confidence 1) [E7C44662]
Copy OK

Track 20

Filename C:\Documents and Settings\ellroy\Skrivbord\The Stanley Brothers - The King Years 1961-1965 (2003) [FLAC]\CD3\20 - Don't Step Over An Old Love.wav

Peak level 99.9 %
Track quality 100.0 %
Test CRC F993ABE7
Copy CRC F993ABE7
Accurately ripped (confidence 1) [62B72386]
Copy OK

Track 21

Filename C:\Documents and Settings\ellroy\Skrivbord\The Stanley Brothers - The King Years 1961-1965 (2003) [FLAC]\CD3\21 - I Just Stood There.wav

Peak level 99.9 %
Track quality 100.0 %
Test CRC BB1415DB
Copy CRC BB1415DB
Accurately ripped (confidence 1) [8793CE41]
Copy OK

Track 22

Filename C:\Documents and Settings\ellroy\Skrivbord\The Stanley Brothers - The King Years 1961-1965 (2003) [FLAC]\CD3\22 - Will The Circle Be Unbroken.wav

Peak level 99.9 %
Track quality 100.0 %
Test CRC 51227F8A
Copy CRC 51227F8A
Accurately ripped (confidence 1) [21B3546C]
Copy OK

Track 23

Filename C:\Documents and Settings\ellroy\Skrivbord\The Stanley Brothers - The King Years 1961-1965 (2003) [FLAC]\CD3\23 - Jesus Savior, Pilot Me.wav

Peak level 99.9 %
Track quality 100.0 %
Test CRC 9792BC37
Copy CRC 9792BC37
Accurately ripped (confidence 1) [3DCD926F]
Copy OK

Track 24

Filename C:\Documents and Settings\ellroy\Skrivbord\The Stanley Brothers - The King Years 1961-1965 (2003) [FLAC]\CD3\24 - I Just Dropped By.wav

Peak level 99.9 %
Track quality 100.0 %
Test CRC 0E39AB88
Copy CRC 0E39AB88
Accurately ripped (confidence 1) [8DC5B58C]
Copy OK

Track 25

Filename C:\Documents and Settings\ellroy\Skrivbord\The Stanley Brothers - The King Years 1961-1965 (2003) [FLAC]\CD3\25 - Oh Death.wav

Peak level 99.9 %
Track quality 100.0 %
Test CRC 82C920C4
Copy CRC 82C920C4
Accurately ripped (confidence 1) [1A5D78FB]
Copy OK

Track 26

Filename C:\Documents and Settings\ellroy\Skrivbord\The Stanley Brothers - The King Years 1961-1965 (2003) [FLAC]\CD3\26 - Shouting On The Hills Of Glory.wav

Peak level 99.9 %
Track quality 100.0 %
Test CRC 7CC984D2
Copy CRC 7CC984D2
Accurately ripped (confidence 1) [23770283]
Copy OK

Track 27

Filename C:\Documents and Settings\ellroy\Skrivbord\The Stanley Brothers - The King Years 1961-1965 (2003) [FLAC]\CD3\27 - Beautiful Star Of Bethlehem.wav

Peak level 99.9 %
Track quality 100.0 %
Test CRC 661F1EDE
Copy CRC 661F1EDE
Accurately ripped (confidence 1) [DDE99570]
Copy OK


All tracks accurately ripped

No errors occurred

End of status report

Exact Audio Copy V0.99 prebeta 4 from 23. January 2008

EAC extraction logfile from 25. December 2010, 20:00

The Stanley Brothers / The King Years 1961-1965 (Disc 4)

Used drive : BENQ DVD DC DW1670 Adapter: 1 ID: 0

Read mode : Secure
Utilize accurate stream : Yes
Defeat audio cache : Yes
Make use of C2 pointers : No

Read offset correction : 102
Overread into Lead-In and Lead-Out : No
Fill up missing offset samples with silence : Yes
Delete leading and trailing silent blocks : No
Null samples used in CRC calculations : Yes
Used interface : Installed external ASPI interface
Gap handling : Appended to previous track

Used output format : User Defined Encoder
Selected bitrate : 256 kBit/s
Quality : High
Add ID3 tag : No
Command line compressor : C:\Program\FLAC\flac.exe
Additional command line options : -8 -V -T "ARTIST=%a" -T "TITLE=%t" -T "ALBUM=%g" -T "DATE=%y" -T "TRACKNUMBER=%n" -T "GENRE=%m" -T "COMMENT=EAC FLAC -8" %s


TOC of the extracted CD

Track | Start | Length | Start sector | End sector
––––––––––––––––––––––––––––-
1 | 0:00.00 | 1:56.70 | 0 | 8769
2 | 1:56.70 | 2:01.10 | 8770 | 17854
3 | 3:58.05 | 2:33.35 | 17855 | 29364
4 | 6:31.40 | 2:59.47 | 29365 | 42836
5 | 9:31.12 | 2:56.59 | 42837 | 56095
6 | 12:27.71 | 2:18.35 | 56096 | 66480
7 | 14:46.31 | 3:01.54 | 66481 | 80109
8 | 17:48.10 | 2:11.72 | 80110 | 90006
9 | 20:00.07 | 2:01.59 | 90007 | 99140
10 | 22:01.66 | 2:58.53 | 99141 | 112543
11 | 25:00.44 | 2:54.71 | 112544 | 125664
12 | 27:55.40 | 2:28.01 | 125665 | 136765
13 | 30:23.41 | 2:21.29 | 136766 | 147369
14 | 32:44.70 | 1:51.58 | 147370 | 155752
15 | 34:36.53 | 1:45.32 | 155753 | 163659
16 | 36:22.10 | 2:15.45 | 163660 | 173829
17 | 38:37.55 | 2:02.09 | 173830 | 182988
18 | 40:39.64 | 2:50.00 | 182989 | 195738
19 | 43:29.64 | 2:35.49 | 195739 | 207412
20 | 46:05.38 | 2:27.66 | 207413 | 218503
21 | 48:33.29 | 2:27.10 | 218504 | 229538
22 | 51:00.39 | 3:10.53 | 229539 | 243841
23 | 54:11.17 | 2:50.00 | 243842 | 256591
24 | 57:01.17 | 2:05.48 | 256592 | 266014
25 | 59:06.65 | 2:33.14 | 266015 | 277503
26 | 61:40.04 | 2:57.32 | 277504 | 290810


Track 1

Filename C:\Documents and Settings\ellroy\Skrivbord\The Stanley Brothers - The King Years 1961-1965 (2003) [FLAC]\CD4\01 - John Three-Sixteen.wav

Pre-gap length 0:00:02.00

Peak level 99.9 %
Track quality 100.0 %
Test CRC 699EDF1B
Copy CRC 699EDF1B
Accurately ripped (confidence 1) [7E670603]
Copy OK

Track 2

Filename C:\Documents and Settings\ellroy\Skrivbord\The Stanley Brothers - The King Years 1961-1965 (2003) [FLAC]\CD4\02 - A Crown He Wore.wav

Peak level 99.9 %
Track quality 100.0 %
Test CRC E66BA271
Copy CRC E66BA271
Accurately ripped (confidence 1) [99F49808]
Copy OK

Track 3

Filename C:\Documents and Settings\ellroy\Skrivbord\The Stanley Brothers - The King Years 1961-1965 (2003) [FLAC]\CD4\03 - How Beautiful Heaven Must Be.wav

Peak level 100.0 %
Track quality 100.0 %
Test CRC 1AC97B7D
Copy CRC 1AC97B7D
Accurately ripped (confidence 1) [F4949CF9]
Copy OK

Track 4

Filename C:\Documents and Settings\ellroy\Skrivbord\The Stanley Brothers - The King Years 1961-1965 (2003) [FLAC]\CD4\04 - He's Passing This Way.wav

Peak level 99.9 %
Track quality 99.9 %
Test CRC 7819088C
Copy CRC 7819088C
Accurately ripped (confidence 1) [8688AA86]
Copy OK

Track 5

Filename C:\Documents and Settings\ellroy\Skrivbord\The Stanley Brothers - The King Years 1961-1965 (2003) [FLAC]\CD4\05 - No Burdens Pass Through.wav

Peak level 99.9 %
Track quality 100.0 %
Test CRC 4D82586D
Copy CRC 4D82586D
Accurately ripped (confidence 1) [4FDC8FCA]
Copy OK

Track 6

Filename C:\Documents and Settings\ellroy\Skrivbord\The Stanley Brothers - The King Years 1961-1965 (2003) [FLAC]\CD4\06 - Building On That Rock.wav

Peak level 99.9 %
Track quality 99.9 %
Test CRC 8285765D
Copy CRC 8285765D
Accurately ripped (confidence 1) [D74D5CF0]
Copy OK

Track 7

Filename C:\Documents and Settings\ellroy\Skrivbord\The Stanley Brothers - The King Years 1961-1965 (2003) [FLAC]\CD4\07 - Bully Of The Town.wav

Peak level 99.9 %
Track quality 100.0 %
Test CRC E4EEE48B
Copy CRC E4EEE48B
Accurately ripped (confidence 1) [41B8DBEC]
Copy OK

Track 8

Filename C:\Documents and Settings\ellroy\Skrivbord\The Stanley Brothers - The King Years 1961-1965 (2003) [FLAC]\CD4\08 - Back Up And Push.wav

Peak level 99.9 %
Track quality 100.0 %
Test CRC 3B3F2090
Copy CRC 3B3F2090
Accurately ripped (confidence 1) [E6747689]
Copy OK

Track 9

Filename C:\Documents and Settings\ellroy\Skrivbord\The Stanley Brothers - The King Years 1961-1965 (2003) [FLAC]\CD4\09 - Careless Love.wav

Peak level 99.9 %
Track quality 100.0 %
Test CRC D3F0D57F
Copy CRC D3F0D57F
Accurately ripped (confidence 1) [4C21D97B]
Copy OK

Track 10

Filename C:\Documents and Settings\ellroy\Skrivbord\The Stanley Brothers - The King Years 1961-1965 (2003) [FLAC]\CD4\10 - How Bad Do I Feel.wav

Peak level 99.9 %
Track quality 100.0 %
Test CRC 9E12BE6A
Copy CRC 9E12BE6A
Accurately ripped (confidence 1) [8160FCA2]
Copy OK

Track 11

Filename C:\Documents and Settings\ellroy\Skrivbord\The Stanley Brothers - The King Years 1961-1965 (2003) [FLAC]\CD4\11 - Rollin' On Rubber Wheels.wav

Peak level 99.9 %
Track quality 100.0 %
Test CRC B2AFC8C2
Copy CRC B2AFC8C2
Accurately ripped (confidence 1) [79A64C9D]
Copy OK

Track 12

Filename C:\Documents and Settings\ellroy\Skrivbord\The Stanley Brothers - The King Years 1961-1965 (2003) [FLAC]\CD4\12 - Our Darlin's Gone.wav

Peak level 99.9 %
Track quality 100.0 %
Test CRC 59C323AF
Copy CRC 59C323AF
Accurately ripped (confidence 1) [6B23D86D]
Copy OK

Track 13

Filename C:\Documents and Settings\ellroy\Skrivbord\The Stanley Brothers - The King Years 1961-1965 (2003) [FLAC]\CD4\13 - How You've Tortured My Mind.wav

Peak level 99.9 %
Track quality 100.0 %
Test CRC D0520879
Copy CRC D0520879
Accurately ripped (confidence 1) [5CDED763]
Copy OK

Track 14

Filename C:\Documents and Settings\ellroy\Skrivbord\The Stanley Brothers - The King Years 1961-1965 (2003) [FLAC]\CD4\14 - I'm Bound To Ride.wav

Peak level 99.9 %
Track quality 100.0 %
Test CRC 82F89392
Copy CRC 82F89392
Accurately ripped (confidence 1) [A06CA464]
Copy OK

Track 15

Filename C:\Documents and Settings\ellroy\Skrivbord\The Stanley Brothers - The King Years 1961-1965 (2003) [FLAC]\CD4\15 - God's Highway.wav

Peak level 99.9 %
Track quality 100.0 %
Test CRC F67DB5FA
Copy CRC F67DB5FA
Accurately ripped (confidence 1) [5FC4DDAA]
Copy OK

Track 16

Filename C:\Documents and Settings\ellroy\Skrivbord\The Stanley Brothers - The King Years 1961-1965 (2003) [FLAC]\CD4\16 - The End Of The Road.wav

Peak level 99.9 %
Track quality 100.0 %
Test CRC 2811EC22
Copy CRC 2811EC22
Accurately ripped (confidence 1) [57F29842]
Copy OK

Track 17

Filename C:\Documents and Settings\ellroy\Skrivbord\The Stanley Brothers - The King Years 1961-1965 (2003) [FLAC]\CD4\17 - Seek Jesus (He Still May Be Found).wav

Peak level 99.9 %
Track quality 100.0 %
Test CRC 48887BBD
Copy CRC 48887BBD
Accurately ripped (confidence 1) [8059471C]
Copy OK

Track 18

Filename C:\Documents and Settings\ellroy\Skrivbord\The Stanley Brothers - The King Years 1961-1965 (2003) [FLAC]\CD4\18 - He'll Save Your Soul Yet.wav

Peak level 99.9 %
Track quality 99.9 %
Test CRC 47B182FA
Copy CRC 47B182FA
Accurately ripped (confidence 1) [2361CC62]
Copy OK

Track 19

Filename C:\Documents and Settings\ellroy\Skrivbord\The Stanley Brothers - The King Years 1961-1965 (2003) [FLAC]\CD4\19 - I Feel Like Going Home.wav

Peak level 99.9 %
Track quality 100.0 %
Test CRC ED39F2C4
Copy CRC ED39F2C4
Accurately ripped (confidence 1) [76146552]
Copy OK

Track 20

Filename C:\Documents and Settings\ellroy\Skrivbord\The Stanley Brothers - The King Years 1961-1965 (2003) [FLAC]\CD4\20 - Take Me Home.wav

Peak level 99.9 %
Track quality 100.0 %
Test CRC 7B90AEAC
Copy CRC 7B90AEAC
Accurately ripped (confidence 1) [1DEC8AEA]
Copy OK

Track 21

Filename C:\Documents and Settings\ellroy\Skrivbord\The Stanley Brothers - The King Years 1961-1965 (2003) [FLAC]\CD4\21 - Are You Ready.wav

Peak level 99.9 %
Track quality 100.0 %
Test CRC AF197A7C
Copy CRC AF197A7C
Accurately ripped (confidence 1) [B4EB948E]
Copy OK

Track 22

Filename C:\Documents and Settings\ellroy\Skrivbord\The Stanley Brothers - The King Years 1961-1965 (2003) [FLAC]\CD4\22 - Prayer Of A Truck Driver's Son.wav

Peak level 99.9 %
Track quality 100.0 %
Test CRC 622B523E
Copy CRC 622B523E
Accurately ripped (confidence 1) [27DE30DA]
Copy OK

Track 23

Filename C:\Documents and Settings\ellroy\Skrivbord\The Stanley Brothers - The King Years 1961-1965 (2003) [FLAC]\CD4\23 - What A Price.wav

Peak level 99.9 %
Track quality 99.9 %
Test CRC E894D3C0
Copy CRC E894D3C0
Accurately ripped (confidence 1) [106703F5]
Copy OK

Track 24

Filename C:\Documents and Settings\ellroy\Skrivbord\The Stanley Brothers - The King Years 1961-1965 (2003) [FLAC]\CD4\24 - Vision Of The Promised Land.wav

Peak level 99.9 %
Track quality 100.0 %
Test CRC 96DAF6AD
Copy CRC 96DAF6AD
Accurately ripped (confidence 1) [663984CB]
Copy OK

Track 25

Filename C:\Documents and Settings\ellroy\Skrivbord\The Stanley Brothers - The King Years 1961-1965 (2003) [FLAC]\CD4\25 - Pray For The Boys.wav

Peak level 99.9 %
Track quality 100.0 %
Test CRC 8088654E
Copy CRC 8088654E
Accurately ripped (confidence 1) [2CD2D1DB]
Copy OK

Track 26

Filename C:\Documents and Settings\ellroy\Skrivbord\The Stanley Brothers - The King Years 1961-1965 (2003) [FLAC]\CD4\26 - Soldier's Grave.wav

Peak level 99.9 %
Track quality 100.0 %
Test CRC 1876903B
Copy CRC 1876903B
Accurately ripped (confidence 1) [1FD802B8]
Copy OK


All tracks accurately ripped

No errors occurred

End of status report


The Stanley Brothers - The King Years 1961-1965 (2003) {4CD Collector's Box Set King Records KG-0950-2}


All thanks goes to the original releaser!

see more The Stanley Brothers…

NEXT -> more The Stanley Brothers on the way…


===