Subcategories

Sterling Ball, John Ferraro, Jim Cox - The Mutual Admiration Society (2018)

Posted By: Domestos
Sterling Ball, John Ferraro, Jim Cox - The Mutual Admiration Society (2018)

Sterling Ball, John Ferraro, Jim Cox - The Mutual Admiration Society (2018)
EAC Rip | FLAC (image+.cue, log) ~ 342.63 Mb | 47:56 | Scans included
Blues, Folk, Country, Instrumental | Country: USA | Label: Mascot Label Group, Favored Nations Records - FNM75432

The record features an array of incredible guests; Steve Lukather (Toto), Steve Morse (Deep Purple, Dixie Dregs, Kansas), John Petrucci (Dream Theater), Albert Lee, Jay Graydon and Steve Vai. The seeds of the The Mutual Appreciation Society were planted a long time ago, back in 1972 to be precise. A young Sterling Ball, was introduced to the sound of Albert Lee by his father, Ernie Ball. It was during his time in Country Rock band Head, Hands & Feet, who were opening for Jethro Tull at a local show and Ball went to see them two nights in a row and then for a third successive night at Hollywood’s Whiskey A Go Go. He was hooked, they met the next day and developed a life-long friendship.

Sterling and John Ferraro went to school together in Junior High; in high school, they started playing music together. After high school, Sterling joined a very small Ernie Ball Company (and later became CEO of Ernie Ball Music Man) and John went on to College at Long Beach State where he met Jim Cox. What was supposed to be a record by a drummer and bassist/guitarist turned into The Mutual Admiration Society. An unintended celebration of up to forty years of friends making music together.

Track List:
01. Payday Song
02. The In Crowd (feat. Steve Morse)
03. Checkin' Up On My Baby
04. Baby Please Don't Go (feat. Steve Lukather)
05. Treat Her Right
06. Sugar Shack (feat. Steve Vai)
07. Memphis A/K/A Memphis, Tennessee
08. Cryin' Time (feat. Albert Lee)
09. I Want You Back
10. Disney Medley (feat. John Petrucci)
11. Hey Good Lookin' (feat. Albert Lee)
12. Strip Mall Gourmet (feat. Jay Graydon)
13. Heartbroke

Sterling Ball, John Ferraro, Jim Cox - The Mutual Admiration Society (2018)

Exact Audio Copy V1.1 from 23. June 2015

EAC extraction logfile from 10. February 2018, 12:07

Sterling Ball, John Ferraro, Jim Cox / The Mutual Admiration Society (FNM75431)

Used drive : TSSTcorpDVDWBD SH-B123L Adapter: 0 ID: 4

Read mode : Secure
Utilize accurate stream : Yes
Defeat audio cache : Yes
Make use of C2 pointers : No

Read offset correction : 6
Overread into Lead-In and Lead-Out : No
Fill up missing offset samples with silence : Yes
Delete leading and trailing silent blocks : No
Null samples used in CRC calculations : Yes
Used interface : Installed external ASPI interface

Used output format : User Defined Encoder
Selected bitrate : 768 kBit/s
Quality : High
Add ID3 tag : No
Command line compressor : C:\Program Files (x86)\Exact Audio Copy\FLAC\FLAC.EXE
Additional command line options : -6 -V -T "ARTIST=%artist%" -T "TITLE=%title%" -T "ALBUM=%albumtitle%" -T "DATE=%year%" -T "TRACKNUMBER=%tracknr%" -T "GENRE=%genre%" -T "COMMENT=%comment%" -T "BAND=%albuminterpret%" -T "ALBUMARTIST=%albuminterpret%" -T "COMPOSER=%composer%" %haslyrics%–tag-from-file=LYRICS="%lyricsfile%"%haslyrics% -T "DISCNUMBER=%cdnumber%" -T "TOTALDISCS=%totalcds%" -T "TOTALTRACKS=%numtracks%" %hascover%–picture="%coverfile%"%hascover% %source% -o %dest%

TOC of the extracted CD

Track | Start | Length | Start sector | End sector
––––––––––––––––––––––––––––-
1 | 0:00.00 | 3:09.20 | 0 | 14194
2 | 3:09.20 | 3:41.70 | 14195 | 30839
3 | 6:51.15 | 3:45.64 | 30840 | 47778
4 | 10:37.04 | 2:37.38 | 47779 | 59591
5 | 13:14.42 | 4:17.33 | 59592 | 78899
6 | 17:32.00 | 3:32.65 | 78900 | 94864
7 | 21:04.65 | 3:11.48 | 94865 | 109237
8 | 24:16.38 | 3:52.52 | 109238 | 126689
9 | 28:09.15 | 3:07.66 | 126690 | 140780
10 | 31:17.06 | 4:34.57 | 140781 | 161387
11 | 35:51.63 | 2:29.73 | 161388 | 172635
12 | 38:21.61 | 3:50.43 | 172636 | 189928
13 | 42:12.29 | 5:43.69 | 189929 | 215722

Range status and errors

Selected range

Filename E:\MUSIC\Sterling Ball, John Ferraro, Jim Cox - The Mutual Admiration Society (FNM75431).wav

Peak level 98.8 %
Extraction speed 3.5 X
Range quality 100.0 %
Test CRC C2D58DD9
Copy CRC C2D58DD9
Copy OK

No errors occurred

AccurateRip summary

Track 1 not present in database
Track 2 not present in database
Track 3 not present in database
Track 4 not present in database
Track 5 not present in database
Track 6 not present in database
Track 7 not present in database
Track 8 not present in database
Track 9 not present in database
Track 10 not present in database
Track 11 not present in database
Track 12 not present in database
Track 13 not present in database

None of the tracks are present in the AccurateRip database

End of status report

==== Log checksum B2E5A50A6F2707E05722EFBAF95AC9DD122006232BCE0B949B3D71D90E4FCF16 ====

All thanks go to the rd

More Music in My Blog
Follow My RSS Channel