Subcategories

Sue Raney With The Bob Florence Group - Ridin' High (1985)

Posted By: Domestos
Sue Raney With The Bob Florence Group - Ridin' High (1985)

Sue Raney With The Bob Florence Group - Ridin' High (1985)
EAC Rip | FLAC (tracks+.cue, log) ~ 169.73 Mb | 37:38 | Scans included
Vocal Jazz, Smooth Jazz | Country: USA | Label: Trend/Discovery Records - DSCD-913

For her second album, Sue Raney teams with a quartet headed by modern jazz player Bob Florence. Raney has a marvelous, sparkling voice that she applies to a play list of both familiar and unfamiliar up-tempo material and ballads. This singer is equipped with outstanding range and excellent diction, along with an ability to make subtle adjustments in the spacing and timing of lyrical phases, giving each tune a unique interpretation.

With her flexibility and knowledge of the relevant forms of the popular/jazz songbook, Raney can go from a tender, knowing rendition of the classic "Stardust" to Michael Franks' modern, slightly fantastical "Baseball" and then right over to a lilting "I Let a Song Go Out of My Heart" without losing any vocal credibility. She handles each with equal facility. Raney is fortunate to have high-caliber partners on this undertaking. "Pure Imagination" features Florence's keyboards, as he inserts a quote from "Brazil," and the flügelhorn of Carmen Fanzone. The dulcet bass timbre of Bob Magnusson is highlighted on such cuts as "Tea for Two" and especially on "No More Blues." Ridin' High is an auspicious follow-up to her maiden album, Breathless. Fortunately, the LP has been transferred to CD; it is worth searching for. ~ AllMusic Review by Dave Nathan

Acoustic Bass – Bob Magnusson
Drums – Nick Ceroli
Engineer – Arne Frager
Flugelhorn – Carmen Fanzone
Keyboards – Bob Florence
Producer – Albert Marx
Vocals – Sue Raney

Track List:
1. How's This For Openers (Bob Florence, Fred Manley) - 2:30
2. This Happy Madness (Antonio Carlos Jobim) - 4:00
3. Stardust (Hoagy Carmichael, Mitchell Parish) - 4:00
4. Baseball (Michael Franks) - 4:18
5. I Let A Song Go Out Of My Heart (Duke Ellington, Henry Nemo, Irving Mills, John Redmond) - 3:30
6. Pure Imagination (Anthony Newley, Leslie Bricusse) - 3:40
7. Tea For Two (Irving Caesar, Vincent Youmans) - 5:15
8. Ridin' High (Cole Porter) - 2:07
9. Body And Soul (Edward Heyman, John Green, Robert Sour) - 4:36
10. No More Blues (Antonio Carlos Jobim) - 3:10

Sue Raney With The Bob Florence Group - Ridin' High (1985)

EAC extraction logfile from 29. August 2007, 5:43 for CD
Sue Raney / Ridin' High

Used drive : SONY DVD RW DW-U14A Adapter: 1 ID: 0
Read mode : Secure with NO C2, accurate stream, disable cache
Read offset correction : 120
Overread into Lead-In and Lead-Out : No

Used output format : C:\Program Files\FLAC\flac.exe (User Defined Encoder)
320 kBit/s
Additional command line options : -V -8 -T "artist=%a" -T "title=%t" -T "album=%g" -T "date=%y" -T "tracknumber=%n" -T "genre=%m" %s

Other options :
Fill up missing offset samples with silence : Yes
Delete leading and trailing silent blocks : No
Installed external ASPI interface

Track 1
Filename Z:\Jazz FLAC\Sue Raney\Sue Raney with the Bob Florence Group - Ridin' High (1985) [FLAC]\01 - How's that for openers.wav

Pre-gap length 0:00:02.00

Peak level 35.4 %
Track quality 100.0 %
Test CRC DA322283
Copy CRC DA322283
Copy OK

Track 2
Filename Z:\Jazz FLAC\Sue Raney\Sue Raney with the Bob Florence Group - Ridin' High (1985) [FLAC]\02 - This happy madness.wav

Pre-gap length 0:00:06.08

Peak level 35.2 %
Track quality 100.0 %
Test CRC 23B54B9A
Copy CRC 23B54B9A
Copy OK

Track 3
Filename Z:\Jazz FLAC\Sue Raney\Sue Raney with the Bob Florence Group - Ridin' High (1985) [FLAC]\03 - Stardust.wav

Pre-gap length 0:00:07.05

Peak level 23.3 %
Track quality 100.0 %
Test CRC DD8C3557
Copy CRC DD8C3557
Copy OK

Track 4
Filename Z:\Jazz FLAC\Sue Raney\Sue Raney with the Bob Florence Group - Ridin' High (1985) [FLAC]\04 - Baseball.wav

Pre-gap length 0:00:04.50

Peak level 42.2 %
Track quality 100.0 %
Test CRC EB4BC07A
Copy CRC EB4BC07A
Copy OK

Track 5
Filename Z:\Jazz FLAC\Sue Raney\Sue Raney with the Bob Florence Group - Ridin' High (1985) [FLAC]\05 - I let a song out of my heart.wav

Pre-gap length 0:00:04.40

Peak level 35.5 %
Track quality 99.9 %
Test CRC CF8E8076
Copy CRC CF8E8076
Copy OK

Track 6
Filename Z:\Jazz FLAC\Sue Raney\Sue Raney with the Bob Florence Group - Ridin' High (1985) [FLAC]\06 - Pure imagination.wav

Pre-gap length 0:00:04.45

Peak level 34.3 %
Track quality 100.0 %
Test CRC EAA2B585
Copy CRC EAA2B585
Copy OK

Track 7
Filename Z:\Jazz FLAC\Sue Raney\Sue Raney with the Bob Florence Group - Ridin' High (1985) [FLAC]\07 - Tea for two.wav

Pre-gap length 0:00:02.41

Peak level 28.3 %
Track quality 100.0 %
Test CRC B3F1C79E
Copy CRC B3F1C79E
Copy OK

Track 8
Filename Z:\Jazz FLAC\Sue Raney\Sue Raney with the Bob Florence Group - Ridin' High (1985) [FLAC]\08 - Ridin High.wav

Pre-gap length 0:00:02.08

Peak level 35.4 %
Track quality 100.0 %
Test CRC 8B9EFEC4
Copy CRC 8B9EFEC4
Copy OK

Track 9
Filename Z:\Jazz FLAC\Sue Raney\Sue Raney with the Bob Florence Group - Ridin' High (1985) [FLAC]\09 - Body and Soul.wav

Pre-gap length 0:00:04.42

Peak level 33.7 %
Track quality 100.0 %
Test CRC 96B94B67
Copy CRC 96B94B67
Copy OK

Track 10
Filename Z:\Jazz FLAC\Sue Raney\Sue Raney with the Bob Florence Group - Ridin' High (1985) [FLAC]\10 - No more blues.wav

Pre-gap length 0:00:03.89

Peak level 36.3 %
Track quality 100.0 %
Test CRC 0D7D613A
Copy CRC 0D7D613A
Copy OK

No errors occured

End of status report

All thanks go to the tdelyon

More Music in My Blog
Follow My RSS Channel