Subcategories

Sun Ra - We Travel The Spaceways & Bad And Beautiful (1992) {Evidence ECD22038-2 rec 1956-1961}

Posted By: ruskaval
Sun Ra - We Travel The Spaceways & Bad And Beautiful (1992) {Evidence ECD22038-2 rec 1956-1961}

Sun Ra - We Travel The Spaceways & Bad And Beautiful (1992) {Evidence ECD22038-2 rec 1956-1961}
EAC rip (secure mode) | FLAC (tracks)+CUE+LOG -> 309 Mb | MP3 @320 -> 129 Mb
Full Artwork @ 300 dpi (jpg) -> 19 Mb | 5% repair rar
© 1956-61, 1992 Evidence Music | ECD 22038-2
Jazz / Avant-Garde Jazz / Experimental Big Band / Progressive Jazz

Much like Evidence's Fate in a Pleasant Mood/When Sun Comes Out two-fer, We Travel the Spaceways/Bad and Beautiful also features one album from the Chicago period and one from the New York period. The difference is that this New York session (Bad and Beautiful) is probably the first recording made in New York, and the overall sound is more closely tied to the Chicago sound than the later New York material, where rhythm and percussion dominated any melodic elements.

The late Chicago period had the Arkestra still swinging, but moving beyond their swing and bop origins into more uncharted territory. We Travel the Spaceways marks the first appearance of the Space Chant, songs that would practically define the Arkestra in later decades. The pairing of We Travel the Spaceways and Bad and Beautiful captures an important transitional phase for the Arkestra, and makes a good starting point for the novice interested in Sun Ra.
Sun Ra - We Travel The Spaceways & Bad And Beautiful (1992) {Evidence ECD22038-2 rec 1956-1961}


Musicians
Organ, Piano Sun Ra
Trumpet Walter Strickland
Trumpet Art Hoyle
Trombone Nate Pryor
Trombone Julian Priester
Saxophone James Spaulding
Saxophone James Scales
Percussion, Space Harp, Trumpet Phil Cohran
Percussion, Saxophone Pat Patrick
Percussion Edward Skinner
Drums, Percussion Robert Barry
Drums Tommy Hunter
Bells, Percussion, Saxophone John Gilmore
Bells, Flute, Percussion, Saxophone Marshall Allen
Bass Wilbur Green
Bass Ronnie Boykins

Track Listing
We Travel The Spaceways (El Saturn LP 409) 24:04

01 Interplanetary Music 02:44
02 Eve 03:11
03 We Travel The Spaceways 03:25
04 Tapestry From An Asteroid 02:11
05 Space Loneliness 04:51
06 New Horizons 03:04
07 Velvet 04:38
Bad And Beautiful (El Saturn LP 532) 31:15
08 The Bad And The Beautiful 02:49
09 Ankh 05:14
10 Just In Time 03:52
11 Search Light Blues 05:41
12 Exotic Two 04:51
13 On The Blue Side 05:32
14 And This Is My Beloved 03:16

Exact Audio Copy V1.0 beta 3 from 29. August 2011

EAC extraction logfile from 4. September 2014, 7:58

Sun Ra / We Travel The Spaceways–Bad And Beautiful

Used drive : SONY DVD RW DRU-810A Adapter: 1 ID: 0

Read mode : Secure
Utilize accurate stream : Yes
Defeat audio cache : Yes
Make use of C2 pointers : No

Read offset correction : 618
Overread into Lead-In and Lead-Out : No
Fill up missing offset samples with silence : Yes
Delete leading and trailing silent blocks : No
Null samples used in CRC calculations : Yes
Used interface : Native Win32 interface for Win NT & 2000
Gap handling : Appended to previous track

Used output format : User Defined Encoder
Selected bitrate : 128 kBit/s
Quality : High
Add ID3 tag : No
Command line compressor : C:\Program Files (x86)\Exact Audio Copy\Flac\flac.exe
Additional command line options : -8 -V -T "ARTIST=%artist%" -T "TITLE=%title%" -T "ALBUM=%albumtitle%" -T "DATE=%year%" -T "TRACKNUMBER=%tracknr%" -T "TOTALTRACKS=%numtracks%" -T "GENRE=%genre%" -T "ALBUMARTIST=%albumartist%" -T "ALBUM ARTIST=%albumartist%" -T "COMMENT=EAC Secure Mode, Test & Copy, AccurateRip, FLAC -8" %source%


TOC of the extracted CD

Track | Start | Length | Start sector | End sector
––––––––––––––––––––––––––––-
1 | 0:00.00 | 2:43.60 | 0 | 12284
2 | 2:43.60 | 3:11.25 | 12285 | 26634
3 | 5:55.10 | 3:25.05 | 26635 | 42014
4 | 9:20.15 | 2:11.15 | 42015 | 51854
5 | 11:31.30 | 4:51.07 | 51855 | 73686
6 | 16:22.37 | 3:04.25 | 73687 | 87511
7 | 19:26.62 | 4:38.23 | 87512 | 108384
8 | 24:05.10 | 2:48.55 | 108385 | 121039
9 | 26:53.65 | 5:14.17 | 121040 | 144606
10 | 32:08.07 | 3:51.50 | 144607 | 161981
11 | 35:59.57 | 5:40.70 | 161982 | 187551
12 | 41:40.52 | 4:51.28 | 187552 | 209404
13 | 46:32.05 | 5:32.30 | 209405 | 234334
14 | 52:04.35 | 3:15.42 | 234335 | 249001


Track 1

Filename F:\New Rips\Sun Ra - We Travel The Spaceways–Bad And Beautiful (1992) [FLAC]\01 - Interplanetary Music.wav

Pre-gap length 0:00:02.00

Peak level 78.9 %
Extraction speed 4.0 X
Track quality 100.0 %
Test CRC 7231C3BD
Copy CRC 7231C3BD
Accurately ripped (confidence 4) [FF9BC965] (AR v2)
Copy OK

Track 2

Filename F:\New Rips\Sun Ra - We Travel The Spaceways–Bad And Beautiful (1992) [FLAC]\02 - Eve.wav

Pre-gap length 0:00:03.18

Peak level 98.3 %
Extraction speed 4.5 X
Track quality 100.0 %
Test CRC 3DCCDC1C
Copy CRC 3DCCDC1C
Accurately ripped (confidence 4) [E6534B01] (AR v2)
Copy OK

Track 3

Filename F:\New Rips\Sun Ra - We Travel The Spaceways–Bad And Beautiful (1992) [FLAC]\03 - We Travel The Spaceways.wav

Pre-gap length 0:00:03.45

Peak level 100.0 %
Extraction speed 4.9 X
Track quality 100.0 %
Test CRC 95F49627
Copy CRC 95F49627
Accurately ripped (confidence 4) [7FA9BF18] (AR v2)
Copy OK

Track 4

Filename F:\New Rips\Sun Ra - We Travel The Spaceways–Bad And Beautiful (1992) [FLAC]\04 - Tapestry From An Asteroid.wav

Pre-gap length 0:00:03.48

Peak level 77.5 %
Extraction speed 4.7 X
Track quality 100.0 %
Test CRC AE6CDD7C
Copy CRC AE6CDD7C
Accurately ripped (confidence 4) [97A1AD63] (AR v2)
Copy OK

Track 5

Filename F:\New Rips\Sun Ra - We Travel The Spaceways–Bad And Beautiful (1992) [FLAC]\05 - Space Loneliness.wav

Pre-gap length 0:00:04.60

Peak level 97.3 %
Extraction speed 5.8 X
Track quality 100.0 %
Test CRC 99D33FFD
Copy CRC 99D33FFD
Accurately ripped (confidence 4) [B514B731] (AR v2)
Copy OK

Track 6

Filename F:\New Rips\Sun Ra - We Travel The Spaceways–Bad And Beautiful (1992) [FLAC]\06 - New Horizons.wav

Pre-gap length 0:00:03.47

Peak level 93.7 %
Extraction speed 5.7 X
Track quality 100.0 %
Test CRC 28AF16C2
Copy CRC 28AF16C2
Accurately ripped (confidence 4) [6BE09A98] (AR v2)
Copy OK

Track 7

Filename F:\New Rips\Sun Ra - We Travel The Spaceways–Bad And Beautiful (1992) [FLAC]\07 - Velvet.wav

Pre-gap length 0:00:03.57

Peak level 90.1 %
Extraction speed 6.4 X
Track quality 100.0 %
Test CRC 8C79076C
Copy CRC 8C79076C
Accurately ripped (confidence 4) [A3927479] (AR v2)
Copy OK

Track 8

Filename F:\New Rips\Sun Ra - We Travel The Spaceways–Bad And Beautiful (1992) [FLAC]\08 - The Bad And The Beautiful.wav

Pre-gap length 0:00:03.43

Peak level 78.6 %
Extraction speed 6.2 X
Track quality 100.0 %
Test CRC 94889EF1
Copy CRC 94889EF1
Accurately ripped (confidence 4) [11CB80A2] (AR v2)
Copy OK

Track 9

Filename F:\New Rips\Sun Ra - We Travel The Spaceways–Bad And Beautiful (1992) [FLAC]\09 - Ankh.wav

Pre-gap length 0:00:03.50

Peak level 74.0 %
Extraction speed 7.0 X
Track quality 100.0 %
Test CRC 655F2594
Copy CRC 655F2594
Accurately ripped (confidence 4) [75C962E3] (AR v2)
Copy OK

Track 10

Filename F:\New Rips\Sun Ra - We Travel The Spaceways–Bad And Beautiful (1992) [FLAC]\10 - Just In Time.wav

Pre-gap length 0:00:03.27

Peak level 60.8 %
Extraction speed 7.1 X
Track quality 100.0 %
Test CRC 5B9484E7
Copy CRC 5B9484E7
Accurately ripped (confidence 4) [64B0AEDA] (AR v2)
Copy OK

Track 11

Filename F:\New Rips\Sun Ra - We Travel The Spaceways–Bad And Beautiful (1992) [FLAC]\11 - Search Light Blues.wav

Pre-gap length 0:00:03.05

Peak level 99.3 %
Extraction speed 6.8 X
Track quality 99.9 %
Test CRC 1FD08E0A
Copy CRC 1FD08E0A
Accurately ripped (confidence 4) [0B9472DD] (AR v2)
Copy OK

Track 12

Filename F:\New Rips\Sun Ra - We Travel The Spaceways–Bad And Beautiful (1992) [FLAC]\12 - Exotic Two.wav

Pre-gap length 0:00:03.32

Peak level 96.8 %
Extraction speed 8.0 X
Track quality 100.0 %
Test CRC CFDB5FBD
Copy CRC CFDB5FBD
Accurately ripped (confidence 4) [A08963E5] (AR v2)
Copy OK

Track 13

Filename F:\New Rips\Sun Ra - We Travel The Spaceways–Bad And Beautiful (1992) [FLAC]\13 - On The Blue Side.wav

Pre-gap length 0:00:03.58

Peak level 83.1 %
Extraction speed 8.4 X
Track quality 100.0 %
Test CRC 0758F9AF
Copy CRC 0758F9AF
Accurately ripped (confidence 4) [86EFE2DE] (AR v2)
Copy OK

Track 14

Filename F:\New Rips\Sun Ra - We Travel The Spaceways–Bad And Beautiful (1992) [FLAC]\14 - And This My Beloved.wav

Pre-gap length 0:00:03.58

Peak level 85.3 %
Extraction speed 5.6 X
Track quality 99.9 %
Test CRC 5DE20F35
Copy CRC 5DE20F35
Accurately ripped (confidence 4) [5D3CFA03] (AR v2)
Copy OK


All tracks accurately ripped

No errors occurred

End of status report

–– CUETools DB Plugin V2.1.3

[CTDB TOCID: CtpCTQDKAVAxcB1wyaY65OYXNjc-] found, Submit result: CtpCTQDKAVAxcB1wyaY65OYXNjc- has been confirmed
[930623c8] (14/14) Accurately ripped


==== Log checksum C318B4607752F3C22DD37F2B4906565E2731C70B0603B1FBC8942377D8101F64 ====


Sun Ra - We Travel The Spaceways & Bad And Beautiful (1992) {Evidence ECD22038-2 rec 1956-1961}

Sun Ra - We Travel The Spaceways & Bad And Beautiful (1992) {Evidence ECD22038-2 rec 1956-1961}


see more Sun Ra…


===