Subcategories
Tags
Language
Tags

Takeru Muraoka - Rock Joy in Sax (Japanese Edition) (1971/2018)

Posted By: delpotro
Takeru Muraoka - Rock Joy in Sax (Japanese Edition) (1971/2018)

Takeru Muraoka - Rock Joy in Sax (Japanese Edition) (1971/2018)
EAC Rip | FLAC (tracks+log+.cue) - 226 Mb | MP3 CBR 320 kbps - 86 Mb | 00:37:12
Jazz-Funk, Jazz Fusion | Label: Victor Entertainment

Don't let the "rock" in the title fool you – as this is a jazz album all the way through, but one that has Japanese tenorist Takeru Muraoka taking on some of the hipper rock songs at the start of the 70s! Muraoka has this raspy, almost fuzzy tone at times – mixed with heavy drums, organ, and guitar – all with a fantastically powerful sound that reminds us of some of the grooviest work by Steve Marcus, Tom Scott, or John Klemmer during the same period – slight psychedelic currents, but always with a result that's more soulful than rockish – a very cool blend of elements that could have come from the Chess/Cadet studios at the end of the 60s. Titles include "Kozmic Blues", "Whole Lotta Love", "Never Can Say Goodbye", "Try", "Stranger To Himself", "It's Too Late", "Eli's Coming", and "Music For Gong Gong".
Tracklist:
1. Eli's Coming (03:13)
2. Kozmic Blues (03:34)
3. Whole Lotta Love (02:55)
4. Never Can Say Goodbye (04:05)
5. Stranger to Himself (03:56)
6. Try (03:31)
7. Your Song (04:07)
8. Music For Gong Gong (03:10)
9. It's Too Late (03:36)
10. Inside Looking Out (04:59)

Exact Audio Copy V1.3 from 2. September 2016

EAC extraction logfile from 7. October 2019, 22:06

Unknown Artist / Unknown Title

Used drive : Memorex MRX-650LE v6 Adapter: 1 ID: 0

Read mode : Secure
Utilize accurate stream : Yes
Defeat audio cache : Yes
Make use of C2 pointers : No

Read offset correction : 6
Overread into Lead-In and Lead-Out : No
Fill up missing offset samples with silence : Yes
Delete leading and trailing silent blocks : No
Null samples used in CRC calculations : Yes
Used interface : Native Win32 interface for Win NT & 2000
Gap handling : Appended to previous track

Used output format : User Defined Encoder
Selected bitrate : 128 kBit/s
Quality : High
Add ID3 tag : No
Command line compressor : C:\Program Files (x86)\Exact Audio Copy\Flac\flac.exe
Additional command line options : -8 -V -T "ARTIST=%artist%" -T "TITLE=%title%" -T "ALBUM=%albumtitle%" -T "DATE=%year%" -T "TRACKNUMBER=%tracknr%" -T "GENRE=%genre%" -T "PERFORMER=%albuminterpret%" -T "COMPOSER=%composer%" %haslyrics%–tag-from-file=LYRICS="%lyricsfile%"%haslyrics% -T "ALBUMARTIST=%albumartist%" -T "DISCNUMBER=%cdnumber%" -T "TOTALDISCS=%totalcds%" -T "TOTALTRACKS=%numtracks%" -T "COMMENT=%comment%" %source% -o %dest%


TOC of the extracted CD

Track | Start | Length | Start sector | End sector
––––––––––––––––––––––––––––-
1 | 0:00.00 | 3:13.14 | 0 | 14488
2 | 3:13.14 | 3:34.57 | 14489 | 30595
3 | 6:47.71 | 2:55.64 | 30596 | 43784
4 | 9:43.60 | 4:05.60 | 43785 | 62219
5 | 13:49.45 | 3:56.18 | 62220 | 79937
6 | 17:45.63 | 3:31.51 | 79938 | 95813
7 | 21:17.39 | 4:07.37 | 95814 | 114375
8 | 25:25.01 | 3:10.38 | 114376 | 128663
9 | 28:35.39 | 3:36.74 | 128664 | 144937
10 | 32:12.38 | 4:59.66 | 144938 | 167428


Track 1

Filename F:\Takeru Muraoka (村岡建) - Rock Joy In Sax\01 - Track01.wav

Pre-gap length 0:00:02.00

Peak level 90.6 %
Extraction speed 2.0 X
Track quality 99.9 %
Test CRC 0566AA75
Copy CRC 0566AA75
Track not present in AccurateRip database
Copy OK

Track 2

Filename F:\Takeru Muraoka (村岡建) - Rock Joy In Sax\02 - Track02.wav

Pre-gap length 0:00:03.65

Peak level 97.5 %
Extraction speed 2.3 X
Track quality 99.9 %
Test CRC DA61A528
Copy CRC DA61A528
Track not present in AccurateRip database
Copy OK

Track 3

Filename F:\Takeru Muraoka (村岡建) - Rock Joy In Sax\03 - Track03.wav

Pre-gap length 0:00:02.62

Peak level 86.8 %
Extraction speed 2.9 X
Track quality 100.0 %
Test CRC 0CF23578
Copy CRC 0CF23578
Track not present in AccurateRip database
Copy OK

Track 4

Filename F:\Takeru Muraoka (村岡建) - Rock Joy In Sax\04 - Track04.wav

Pre-gap length 0:00:02.53

Peak level 97.7 %
Extraction speed 3.3 X
Track quality 100.0 %
Test CRC C409C29A
Copy CRC C409C29A
Track not present in AccurateRip database
Copy OK

Track 5

Filename F:\Takeru Muraoka (村岡建) - Rock Joy In Sax\05 - Track05.wav

Pre-gap length 0:00:01.42

Peak level 97.7 %
Extraction speed 3.5 X
Track quality 100.0 %
Test CRC 97238D92
Copy CRC 97238D92
Track not present in AccurateRip database
Copy OK

Track 6

Filename F:\Takeru Muraoka (村岡建) - Rock Joy In Sax\06 - Track06.wav

Pre-gap length 0:00:03.90

Peak level 93.7 %
Extraction speed 3.6 X
Track quality 100.0 %
Test CRC 9E26C41D
Copy CRC 9E26C41D
Track not present in AccurateRip database
Copy OK

Track 7

Filename F:\Takeru Muraoka (村岡建) - Rock Joy In Sax\07 - Track07.wav

Pre-gap length 0:00:03.90

Peak level 69.7 %
Extraction speed 3.9 X
Track quality 100.0 %
Test CRC 7BBCA370
Copy CRC 7BBCA370
Track not present in AccurateRip database
Copy OK

Track 8

Filename F:\Takeru Muraoka (村岡建) - Rock Joy In Sax\08 - Track08.wav

Pre-gap length 0:00:02.85

Peak level 79.4 %
Extraction speed 3.9 X
Track quality 100.0 %
Test CRC 6E1386FC
Copy CRC 6E1386FC
Track not present in AccurateRip database
Copy OK

Track 9

Filename F:\Takeru Muraoka (村岡建) - Rock Joy In Sax\09 - Track09.wav

Pre-gap length 0:00:02.13

Peak level 85.2 %
Extraction speed 3.6 X
Track quality 100.0 %
Test CRC 7209C2EE
Copy CRC 7209C2EE
Track not present in AccurateRip database
Copy OK

Track 10

Filename F:\Takeru Muraoka (村岡建) - Rock Joy In Sax\10 - Track10.wav

Pre-gap length 0:00:01.88

Peak level 96.2 %
Extraction speed 4.2 X
Track quality 100.0 %
Test CRC 716147E0
Copy CRC 716147E0
Track not present in AccurateRip database
Copy OK


None of the tracks are present in the AccurateRip database

No errors occurred

End of status report

–– CUETools DB Plugin V2.1.6

[CTDB TOCID: ZqD.tLzZvwCCyyUJ9j3PNAgjRGU-] found
Submit result: ZqD.tLzZvwCCyyUJ9j3PNAgjRGU- has been confirmed
Track | CTDB Status
1 | (1/1) Accurately ripped
2 | (1/1) Accurately ripped
3 | (1/1) Accurately ripped
4 | (1/1) Accurately ripped
5 | (1/1) Accurately ripped
6 | (1/1) Accurately ripped
7 | (1/1) Accurately ripped
8 | (1/1) Accurately ripped
9 | (1/1) Accurately ripped
10 | (1/1) Accurately ripped


==== Log checksum 795BBB65499E44DC253B32D4E2AA05EA0F70B0EB96503FD476E493638050FAA9 ====

Thanks to the Original ripper !