Subcategories

Tal Farlow - The Swinging Guitar Of Tal Farlow (1956) {Verve Japan UCCU-9282 24-bit rel 2006}

Posted By: ruskaval
Tal Farlow - The Swinging Guitar Of Tal Farlow (1956) {Verve Japan UCCU-9282 24-bit rel 2006}

Tal Farlow - The Swinging Guitar Of Tal Farlow (1956) {Verve Japan UCCU-9282 24-bit rel 2006}
EAC rip (secure mode) | FLAC (tracks)+CUE+LOG -> 140 Mb | MP3 @320 -> 97 Mb
Full Artwork @ 300 dpi (png) -> 33 Mb | 5% repair rar
© 1956, 2006 Verve / Universal Japan | UCCU-9282 | 24 Bit Mastering
Jazz / Cool / Bop / Mainstream Jazz / Guitar

In the mid-'50s, guitarist Tal Farlow led one of his finest groups, a drumless trio with pianist Eddie Costa and bassist Vinnie Burke. The same band would record the album Tal a week or two later. With Burke contributing a constant walking bass, the interplay between Farlow and Costa is always exciting, whether they are playing unisons or trading off. This 1999 CD reissue not only has the original seven selections but "Gone With the Wind" (which was left off of the original LP due to lack of space) plus three full-length alternate takes that are basically on the same level as the masters. Among the highpoints are "Taking a Chance on Love," "Yardbird Suite," "Like Someone in Love," and Farlow's lone original, "Meteor," which utilizes the chord changes of "Confirmation." Hot bebop that is easily recommended.
Tal Farlow - The Swinging Guitar Of Tal Farlow (1956) {Verve Japan UCCU-9282 24-bit rel 2006}


Personnel
Tal Farlow – guitar
Eddie Costa – piano
Vinnie Burke – bass

Tal Farlow - The Swinging Guitar Of Tal Farlow (1956) {Verve Japan UCCU-9282 24-bit rel 2006}


Track Listing

01. Taking A Chance On Love
02. Yardbird Suite
03. You Stepped Out Of A Dream
04. They Can't Take That Away From Me
05. Like Someone In Love
06. Meteor
07. I Love You

Exact Audio Copy V0.99 prebeta 5 from 4. May 2009

EAC extraction logfile from 4. June 2009, 15:20

Tal Farlow / The Swinging Guitar Of Tal Farlow

Used drive : PLEXTOR DVDR PX-800A Adapter: 0 ID: 1

Read mode : Secure
Utilize accurate stream : Yes
Defeat audio cache : Yes
Make use of C2 pointers : No

Read offset correction : 48
Overread into Lead-In and Lead-Out : No
Fill up missing offset samples with silence : Yes
Delete leading and trailing silent blocks : No
Null samples used in CRC calculations : Yes
Used interface : Native Win32 interface for Win NT & 2000
Gap handling : Appended to previous track

Used output format : User Defined Encoder
Selected bitrate : 1024 kBit/s
Quality : High
Add ID3 tag : No
Command line compressor : D:\Program Files\Exact Audio Copy\Flac\flac.exe
Additional command line options : -8 -V -T "ARTIST=%a" -T "TITLE=%t" -T "ALBUM=%g" -T "DATE=%y" -T "TRACKNUMBER=%n" -T "GENRE=%m" -T "COMMENT=EAC FLAC -8" %s


TOC of the extracted CD

Track | Start | Length | Start sector | End sector
––––––––––––––––––––––––––––-
1 | 0:00.00 | 4:46.37 | 0 | 21486
2 | 4:46.37 | 5:18.25 | 21487 | 45361
3 | 10:04.62 | 5:42.63 | 45362 | 71074
4 | 15:47.50 | 5:45.37 | 71075 | 96986
5 | 21:33.12 | 6:41.25 | 96987 | 127086
6 | 28:14.37 | 6:38.38 | 127087 | 156974
7 | 34:53.00 | 5:31.62 | 156975 | 181861


Track 1

Filename Y:\UD\Tal Farlow - The Swinging Guitar Of Tal Farlow (1956) [FLAC] {UCCU-9282 24-bit}\01 - Taking A Chance On Love.wav

Pre-gap length 0:00:02.00

Peak level 67.0 %
Track quality 100.0 %
Test CRC BD8A71AA
Copy CRC BD8A71AA
Accurately ripped (confidence 1) [16A12322]
Copy OK

Track 2

Filename Y:\UD\Tal Farlow - The Swinging Guitar Of Tal Farlow (1956) [FLAC] {UCCU-9282 24-bit}\02 - Yardbird Suite.wav

Pre-gap length 0:00:02.54

Peak level 66.9 %
Track quality 100.0 %
Test CRC 922E0160
Copy CRC 922E0160
Accurately ripped (confidence 1) [3D436DC4]
Copy OK

Track 3

Filename Y:\UD\Tal Farlow - The Swinging Guitar Of Tal Farlow (1956) [FLAC] {UCCU-9282 24-bit}\03 - You Stepped Out Of A Dream.wav

Pre-gap length 0:00:02.56

Peak level 72.9 %
Track quality 100.0 %
Test CRC CD231144
Copy CRC CD231144
Accurately ripped (confidence 1) [9FAFFBCC]
Copy OK

Track 4

Filename Y:\UD\Tal Farlow - The Swinging Guitar Of Tal Farlow (1956) [FLAC] {UCCU-9282 24-bit}\04 - They Can't Take That Away From Me.wav

Pre-gap length 0:00:02.59

Peak level 63.4 %
Track quality 100.0 %
Test CRC 94EE7E55
Copy CRC 94EE7E55
Accurately ripped (confidence 1) [64DA1016]
Copy OK

Track 5

Filename Y:\UD\Tal Farlow - The Swinging Guitar Of Tal Farlow (1956) [FLAC] {UCCU-9282 24-bit}\05 - Like Someone In Love.wav

Pre-gap length 0:00:02.64

Peak level 68.5 %
Track quality 100.0 %
Test CRC 0FD33C3F
Copy CRC 0FD33C3F
Accurately ripped (confidence 1) [029170F3]
Copy OK

Track 6

Filename Y:\UD\Tal Farlow - The Swinging Guitar Of Tal Farlow (1956) [FLAC] {UCCU-9282 24-bit}\06 - Meteor.wav

Pre-gap length 0:00:02.59

Peak level 68.7 %
Track quality 100.0 %
Test CRC 7B1F3A9A
Copy CRC 7B1F3A9A
Accurately ripped (confidence 1) [B63B4A3B]
Copy OK

Track 7

Filename Y:\UD\Tal Farlow - The Swinging Guitar Of Tal Farlow (1956) [FLAC] {UCCU-9282 24-bit}\07 - I Love You.wav

Pre-gap length 0:00:03.02

Peak level 73.7 %
Track quality 100.0 %
Test CRC 4E4B2A58
Copy CRC 4E4B2A58
Accurately ripped (confidence 1) [51DE3255]
Copy OK


All tracks accurately ripped

No errors occurred

End of status report


Tal Farlow - The Swinging Guitar Of Tal Farlow (1956) {Verve Japan UCCU-9282 24-bit rel 2006}

Tal Farlow - The Swinging Guitar Of Tal Farlow (1956) {Verve Japan UCCU-9282 24-bit rel 2006}



===