Subcategories

Taos Amrouche – Les Chants de Taos Amrouche: Chants Berbères de Kabylie (2003)

Posted By: d'Avignon
Taos Amrouche – Les Chants de Taos Amrouche: Chants Berbères de Kabylie (2003)

Taos Amrouche – Les Chants de Taos Amrouche: Chants Berbères de Kabylie (2003)
World/Ethnic | FLAC lossless 5cd | cuesheets+logs | covers+booklet | 3h41m42s | 987mb
Label: L'Empreinte Digitale | cat. no. ED 13156


Marie-Louise-Taos Amrouche was an Algerian writer and singer. In 1947, she became the first Algerian woman to publish a novel. She was born to a family of Kabyle Roman Catholic converts, the only daughter in a family of six sons. Her family had moved to Tunisia to escape persecution after their conversion.
Her mother Fadhma Aït Mansour, who was a famous Kabyle singer, had a great impact on her life, and her literary style would reflect the oral traditions of the Kabylie Berber people of her mother's heritage. Amrouche received her elementary and secondary education in Tunis, and in 1935 went to France for studies at the École Normale at Sèvres. From 1936, in collaboration with her elder brother Jean Amrouche and her mother, Amrouche collected and began to interpret Kabyle songs. In 1939, at the Congrès de Chant de Fès, she received a scholarship to study at the Casa Velasquez in Spain, where she researched the ties between Berber and Spanish popular songs.
Her autobiographical first novel, Jacinthe noir, was published in 1947 andis one of the earliest ever published in French by a North African woman writer. With her compilation of tales and poems La Grain magique in 1966, she took the nom de plume Marguerite-Taos, Marguerite being her mother's Christian name.
While she wrote in French, she sang in Kabyle. Her first album Chants berbères de Kabylie (1967), which was a great success, was a collection of traditional Kabyle songs that had been translated into French by her brother Jean. She recorded several other albums, including Chants sauvés de l’oubli (“Songs Saved from Oblivion”), Hommage au chant profond (“Homage to a Profound Song”), Incantations, méditations et danses sacrées berbères (1974), and Chants berbères de la meule et du berceau (1975).
She was an activist in Berber issues and was among the founders of Académie berbère in 1966.

Warning in advance: 140pp brand new booklet, hard to flatten: the scans are not great and blur towards the center of the right page. Sorry about that.

Tracks:

Cd1: Chants de l’Atlas
01. Prélude de flûte
02. Génie des montagnes de neige
03. Le hors-la loi
04. Le pêcher du champ à l'ombre
05. Chant de procession de l'oncle n°2
06. Rameau d'oranger
07. Chant des belles-mères
08. Chant de la bru
09. Ô tante malh'a
10. La fille aux yeux bleus
11. Qu'on aimerait suivre les âmes
12. La danseuse inconnue
13. Complainte de la femme abandonnée
14. Ma chère, connais-tu la nouvelle

Cd2: Chants Espagnols archaïques de la Alberca
01. Calores, la del rio [0:03:55.46]
02. Alborada de bodas [0:03:07.29]
03. Alborada de bodas [0:04:08.30]
04. La del marinero [0:04:26.73]
05. Eleonor, no me olvides, no [0:04:40.36]
06. Chalaneru [0:03:28.00]
07. La de san antonio [0:03:05.00]
08. la de la nina [0:03:33.90]
09. La colombiana [0:04:19.16]
10. La del molinero [0:02:16.97]
11. La del capotino [0:02:35.40]
12. La del pastor [0:01:44.06]
13. Alborada sagrada de santa agueda [0:02:34.82]
14. Petenera muy antigua [0:04:57.64]

Cd3: Incantations, méditations, danses sacrées berbères
01. Méditation : j'ai dit ma peine [0:02:58.69]
02. Chant des pèlerins du village des aghribs [0:01:31.73]
03. Incantation : préparation à la prière [0:00:51.57]
04. Danse sacrée : prêtresses de la joie [0:01:56.33]
05. Danse sacrée des amariens [0:01:46.73]
06. Procession de l'oncle mahmoud [0:01:41.60]
07. Une des adeptes du prophète [0:03:22.73]
08. Allah le dispensateur [0:02:25.86]
09. Procession de l'oncle mahmoud [0:03:36.62]
10. Alaoullia [0:02:34.00]
11. Danse sacrée des aïssaouas [0:01:04.13]
12. Le cheminement de la mort [0:01:40.73]
13. Voici le jour où ils creusent ma tombe [0:02:24.73]
14. Grande procession [0:04:07.70]
15. Procession de petite kabylie [0:05:23.60]
16. La levée des corps [0:01:42.02]

Cd4: Chants berbères de la meule et du berceau
01. Malédiction de tes parents [0:02:16.60]
02. Ô mon frère, que tu es pâle [0:03:44.66]
03. Source des bûcherons n°1 [0:01:53.36]
04. Un palmier dans le désert [0:03:08.64]
05. Source des bûcherons n°2 [0:03:20.80]
06. Penché sur une tombe nouvelle [0:04:28.82]
07. Je me suis promis de dire la vérité [0:03:53.20]
08. Berceuse de Zahoua [0:02:59.97]
09. Berceuse au clair de lune [0:03:44.20]
10. Ô machine venue de très loin [0:04:01.02]
11. La berceuse de maman [0:04:39.60]
12. Parmi les grands voiliers du ciel [0:02:53.24]
13. Berceuse de l'oncle Mahmoud [0:02:26.02]
14. Berceuse du prince Ali [0:03:58.40]

Cd5: Théâtre de la Ville
01. Génies des montagnes de neige… [0:02:38.22]
02. Adieu au pays [0:01:34.37]
03. Sidi tsouathi (grave) [0:01:58.13]
04. Sidi tsouathi (aigu) [0:02:11.66]
05. Etoile du matin [0:03:32.80]
06. Vaste est la prison… [0:02:24.40]
07. Incantation : préparation à la prière [0:01:00.53]
08. Danse sacrée des Amariens [0:02:05.40]
09. Danse sacrée des Aissaouas [0:01:02.40]
10. Appel à la joie [0:03:04.78]
11. Ronde de la jeune fille [0:03:46.84]
12. L'autre jour le hasard m'a mené [0:01:21.16]
13. Bracelet aux émaux [0:02:21.10]
14. Grand voilier du ciel [0:02:18.66]
15. Quand ils eurent poussé leurs ailes [0:03:08.50]
16. Ô machine venue de très loin [0:04:07.00]
17. Chant religieux [0:01:55.82]
18. Grande procession [0:04:34.26]

Performers:

Taos Amrouche – vocals
Various accompanying musicians

Exact Audio Copy V1.0 beta 3 from 29. August 2011

EAC extraction logfile from 15. April 2015, 12:28

Taos Amrouche / Chants de l'Atlas

Used drive : TSSTcorpCDDVDW SH-216AB Adapter: 1 ID: 0

Read mode : Secure
Utilize accurate stream : Yes
Defeat audio cache : Yes
Make use of C2 pointers : No

Read offset correction : 6
Overread into Lead-In and Lead-Out : No
Fill up missing offset samples with silence : Yes
Delete leading and trailing silent blocks : No
Null samples used in CRC calculations : Yes
Used interface : Installed external ASPI interface
Gap handling : Appended to previous track

Used output format : User Defined Encoder
Selected bitrate : 768 kBit/s
Quality : High
Add ID3 tag : No
Command line compressor : C:\Program Files (x86)\Exact Audio Copy\FLAC\FLAC.EXE
Additional command line options : -6 -V -T "ARTIST=%artist%" -T "TITLE=%title%" -T "ALBUM=%albumtitle%" -T "DATE=%year%" -T "TRACKNUMBER=%tracknr%" -T "GENRE=%genre%" -T "COMMENT=%comment%" -T "BAND=%albuminterpret%" -T "ALBUMARTIST=%albuminterpret%" -T "COMPOSER=%composer%" %haslyrics%–tag-from-file=LYRICS="%lyricsfile%"%haslyrics% -T "DISCNUMBER=%cdnumber%" -T "TOTALDISCS=%totalcds%" -T "TOTALTRACKS=%numtracks%" %hascover%–picture="%coverfile%"%hascover% %source% -o %dest%


TOC of the extracted CD

Track | Start | Length | Start sector | End sector
––––––––––––––––––––––––––––-
1 | 0:00.00 | 1:18.65 | 0 | 5914
2 | 1:18.65 | 2:08.05 | 5915 | 15519
3 | 3:26.70 | 4:18.42 | 15520 | 34911
4 | 7:45.37 | 3:15.45 | 34912 | 49581
5 | 11:01.07 | 2:02.40 | 49582 | 58771
6 | 13:03.47 | 4:16.70 | 58772 | 78041
7 | 17:20.42 | 1:35.05 | 78042 | 85171
8 | 18:55.47 | 1:39.63 | 85172 | 92659
9 | 20:35.35 | 3:42.45 | 92660 | 109354
10 | 24:18.05 | 3:26.20 | 109355 | 124824
11 | 27:44.25 | 4:50.35 | 124825 | 146609
12 | 32:34.60 | 2:11.37 | 146610 | 156471
13 | 34:46.22 | 4:21.70 | 156472 | 176116
14 | 39:08.17 | 2:34.63 | 176117 | 187729


Track 1

Filename C:\Users\astarte\03. POST\Les Chants de Tamos Amrouche\1\01. Prélude de flûte.wav

Pre-gap length 0:00:02.00

Peak level 31.4 %
Extraction speed 3.2 X
Track quality 100.0 %
Copy CRC C117857C
Accurately ripped (confidence 1) [5ED4A87A] (AR v2)
Copy OK

Track 2

Filename C:\Users\astarte\03. POST\Les Chants de Tamos Amrouche\1\02. Génie des montagnes de neige.wav

Peak level 84.1 %
Extraction speed 3.9 X
Track quality 100.0 %
Copy CRC 16794DFE
Accurately ripped (confidence 1) [3505E309] (AR v2)
Copy OK

Track 3

Filename C:\Users\astarte\03. POST\Les Chants de Tamos Amrouche\1\03. Le hors-la loi.wav

Peak level 89.4 %
Extraction speed 4.9 X
Track quality 100.0 %
Copy CRC 5CE30297
Accurately ripped (confidence 1) [D3C93743] (AR v2)
Copy OK

Track 4

Filename C:\Users\astarte\03. POST\Les Chants de Tamos Amrouche\1\04. Le pêcher du champ à l'ombre.wav

Peak level 66.1 %
Extraction speed 5.1 X
Track quality 100.0 %
Copy CRC 86D33FF0
Accurately ripped (confidence 1) [4718E848] (AR v2)
Copy OK

Track 5

Filename C:\Users\astarte\03. POST\Les Chants de Tamos Amrouche\1\05. Chant de procession de l'oncle n°2.wav

Peak level 67.7 %
Extraction speed 4.8 X
Track quality 100.0 %
Copy CRC 7FE06D0C
Accurately ripped (confidence 1) [1224EBB3] (AR v2)
Copy OK

Track 6

Filename C:\Users\astarte\03. POST\Les Chants de Tamos Amrouche\1\06. Rameau d'oranger.wav

Peak level 71.2 %
Extraction speed 4.8 X
Track quality 99.9 %
Copy CRC BF920522
Accurately ripped (confidence 1) [E31849B8] (AR v2)
Copy OK

Track 7

Filename C:\Users\astarte\03. POST\Les Chants de Tamos Amrouche\1\07. Chant des belles-mères.wav

Peak level 86.7 %
Extraction speed 4.7 X
Track quality 100.0 %
Copy CRC FC341B4C
Accurately ripped (confidence 1) [D5330EC0] (AR v2)
Copy OK

Track 8

Filename C:\Users\astarte\03. POST\Les Chants de Tamos Amrouche\1\08. Chant de la bru.wav

Peak level 76.0 %
Extraction speed 5.2 X
Track quality 100.0 %
Copy CRC 7D0528AF
Accurately ripped (confidence 1) [8F4E2A32] (AR v2)
Copy OK

Track 9

Filename C:\Users\astarte\03. POST\Les Chants de Tamos Amrouche\1\09. Ô tante malh'a.wav

Peak level 81.5 %
Extraction speed 6.3 X
Track quality 100.0 %
Copy CRC FD481413
Accurately ripped (confidence 1) [BC2E7133] (AR v2)
Copy OK

Track 10

Filename C:\Users\astarte\03. POST\Les Chants de Tamos Amrouche\1\10. La fille aux yeux bleus.wav

Peak level 81.4 %
Extraction speed 6.5 X
Track quality 100.0 %
Copy CRC AE45A032
Accurately ripped (confidence 1) [61A93BA2] (AR v2)
Copy OK

Track 11

Filename C:\Users\astarte\03. POST\Les Chants de Tamos Amrouche\1\11. Qu'on aimerait suivre les âmes.wav

Peak level 55.7 %
Extraction speed 6.1 X
Track quality 99.9 %
Copy CRC 2E44E8BA
Accurately ripped (confidence 1) [AFE3088C] (AR v2)
Copy OK

Track 12

Filename C:\Users\astarte\03. POST\Les Chants de Tamos Amrouche\1\12. La danseuse inconnue.wav

Peak level 71.0 %
Extraction speed 4.5 X
Track quality 99.9 %
Copy CRC 18E21E16
Accurately ripped (confidence 1) [22618DF8] (AR v2)
Copy OK

Track 13

Filename C:\Users\astarte\03. POST\Les Chants de Tamos Amrouche\1\13. Complainte de la femme abandonnée.wav

Peak level 75.4 %
Extraction speed 6.1 X
Track quality 99.9 %
Copy CRC 67241E74
Accurately ripped (confidence 1) [F8E52B68] (AR v2)
Copy OK

Track 14

Filename C:\Users\astarte\03. POST\Les Chants de Tamos Amrouche\1\14. Ma chère, connais-tu la nouvelle.wav

Peak level 70.3 %
Extraction speed 6.8 X
Track quality 100.0 %
Copy CRC B14F98A7
Accurately ripped (confidence 1) [C619B99D] (AR v2)
Copy OK


All tracks accurately ripped

No errors occurred

End of status report

==== Log checksum 9AA729187CC8A44DD7682BADE18B04481901B68149E3EC139FF02FBF0E4CDF1C ====


Exact Audio Copy V1.0 beta 3 from 29. August 2011

EAC extraction logfile from 17. April 2015, 18:55

Amrouche Taos / Chants espagnols archaïques de la Alberca

Used drive : TSSTcorpCDDVDW SH-216AB Adapter: 1 ID: 0

Read mode : Secure
Utilize accurate stream : Yes
Defeat audio cache : Yes
Make use of C2 pointers : No

Read offset correction : 6
Overread into Lead-In and Lead-Out : No
Fill up missing offset samples with silence : Yes
Delete leading and trailing silent blocks : No
Null samples used in CRC calculations : Yes
Used interface : Installed external ASPI interface
Gap handling : Appended to previous track

Used output format : User Defined Encoder
Selected bitrate : 768 kBit/s
Quality : High
Add ID3 tag : No
Command line compressor : C:\Program Files (x86)\Exact Audio Copy\FLAC\FLAC.EXE
Additional command line options : -6 -V -T "ARTIST=%artist%" -T "TITLE=%title%" -T "ALBUM=%albumtitle%" -T "DATE=%year%" -T "TRACKNUMBER=%tracknr%" -T "GENRE=%genre%" -T "COMMENT=%comment%" -T "BAND=%albuminterpret%" -T "ALBUMARTIST=%albuminterpret%" -T "COMPOSER=%composer%" %haslyrics%–tag-from-file=LYRICS="%lyricsfile%"%haslyrics% -T "DISCNUMBER=%cdnumber%" -T "TOTALDISCS=%totalcds%" -T "TOTALTRACKS=%numtracks%" %hascover%–picture="%coverfile%"%hascover% %source% -o %dest%


TOC of the extracted CD

Track | Start | Length | Start sector | End sector
––––––––––––––––––––––––––––-
1 | 0:00.00 | 3:55.35 | 0 | 17659
2 | 3:55.35 | 3:07.22 | 17660 | 31706
3 | 7:02.57 | 4:08.23 | 31707 | 50329
4 | 11:11.05 | 4:26.55 | 50330 | 70334
5 | 15:37.60 | 4:40.27 | 70335 | 91361
6 | 20:18.12 | 3:28.00 | 91362 | 106961
7 | 23:46.12 | 3:05.00 | 106962 | 120836
8 | 26:51.12 | 3:33.68 | 120837 | 136879
9 | 30:25.05 | 4:19.12 | 136880 | 156316
10 | 34:44.17 | 2:16.73 | 156317 | 166589
11 | 37:01.15 | 2:35.30 | 166590 | 178244
12 | 39:36.45 | 1:44.05 | 178245 | 186049
13 | 41:20.50 | 2:34.62 | 186050 | 197661
14 | 43:55.37 | 4:57.48 | 197662 | 219984


Track 1

Filename C:\Users\astarte\03. POST\Les Chants de Tamos Amrouche\2\01. Calores, la del rio.wav

Pre-gap length 0:00:02.00

Peak level 86.8 %
Extraction speed 4.3 X
Track quality 100.0 %
Copy CRC 95E94BB8
Accurately ripped (confidence 1) [485BC7E4] (AR v2)
Copy OK

Track 2

Filename C:\Users\astarte\03. POST\Les Chants de Tamos Amrouche\2\02. Alborada de bodas.wav

Pre-gap length 0:00:02.64

Peak level 98.0 %
Extraction speed 4.6 X
Track quality 100.0 %
Copy CRC CDB25410
Accurately ripped (confidence 1) [71B58394] (AR v2)
Copy OK

Track 3

Filename C:\Users\astarte\03. POST\Les Chants de Tamos Amrouche\2\03. Alborada de bodas.wav

Pre-gap length 0:00:03.29

Peak level 98.0 %
Extraction speed 4.3 X
Track quality 99.9 %
Copy CRC EB190F8A
Accurately ripped (confidence 1) [4B0AD27F] (AR v2)
Copy OK

Track 4

Filename C:\Users\astarte\03. POST\Les Chants de Tamos Amrouche\2\04. La del marinero.wav

Pre-gap length 0:00:03.80

Peak level 98.0 %
Extraction speed 5.6 X
Track quality 100.0 %
Copy CRC 9D7AA54B
Accurately ripped (confidence 1) [A4D6E70E] (AR v2)
Copy OK

Track 5

Filename C:\Users\astarte\03. POST\Les Chants de Tamos Amrouche\2\05. Eleonor, no me olvides, no.wav

Pre-gap length 0:00:04.10

Peak level 79.3 %
Extraction speed 6.2 X
Track quality 100.0 %
Copy CRC 19C2390B
Accurately ripped (confidence 1) [473A8C66] (AR v2)
Copy OK

Track 6

Filename C:\Users\astarte\03. POST\Les Chants de Tamos Amrouche\2\06. Chalaneru.wav

Pre-gap length 0:00:02.80

Peak level 63.1 %
Extraction speed 6.3 X
Track quality 100.0 %
Copy CRC 3CE178B9
Accurately ripped (confidence 1) [0F9C93CF] (AR v2)
Copy OK

Track 7

Filename C:\Users\astarte\03. POST\Les Chants de Tamos Amrouche\2\07. La de san antonio.wav

Pre-gap length 0:00:05.16

Peak level 98.0 %
Extraction speed 6.5 X
Track quality 100.0 %
Copy CRC C4883C31
Accurately ripped (confidence 1) [95542401] (AR v2)
Copy OK

Track 8

Filename C:\Users\astarte\03. POST\Les Chants de Tamos Amrouche\2\08. la de la nina.wav

Pre-gap length 0:00:04.00

Peak level 88.5 %
Extraction speed 6.9 X
Track quality 100.0 %
Copy CRC 1BDC2BB0
Accurately ripped (confidence 1) [CB9A99BC] (AR v2)
Copy OK

Track 9

Filename C:\Users\astarte\03. POST\Les Chants de Tamos Amrouche\2\09. La colombiana.wav

Pre-gap length 0:00:02.24

Peak level 90.4 %
Extraction speed 7.3 X
Track quality 100.0 %
Copy CRC 50D41D0C
Accurately ripped (confidence 1) [3BBD6313] (AR v2)
Copy OK

Track 10

Filename C:\Users\astarte\03. POST\Les Chants de Tamos Amrouche\2\10. La del molinero.wav

Pre-gap length 0:00:03.62

Peak level 97.0 %
Extraction speed 6.8 X
Track quality 100.0 %
Copy CRC 989A0DC3
Accurately ripped (confidence 1) [47FA5446] (AR v2)
Copy OK

Track 11

Filename C:\Users\astarte\03. POST\Les Chants de Tamos Amrouche\2\11. La del capotino.wav

Pre-gap length 0:00:03.77

Peak level 96.5 %
Extraction speed 7.0 X
Track quality 100.0 %
Copy CRC 5AE01E42
Accurately ripped (confidence 1) [67589FC7] (AR v2)
Copy OK

Track 12

Filename C:\Users\astarte\03. POST\Les Chants de Tamos Amrouche\2\12. La del pastor.wav

Pre-gap length 0:00:03.80

Peak level 93.7 %
Extraction speed 6.5 X
Track quality 100.0 %
Copy CRC A2C391CE
Accurately ripped (confidence 1) [0AA1470F] (AR v2)
Copy OK

Track 13

Filename C:\Users\astarte\03. POST\Les Chants de Tamos Amrouche\2\13. Alborada sagrada de santa agueda.wav

Pre-gap length 0:00:03.73

Peak level 74.4 %
Extraction speed 7.4 X
Track quality 100.0 %
Copy CRC B4BD926D
Accurately ripped (confidence 1) [CECF73B0] (AR v2)
Copy OK

Track 14

Filename C:\Users\astarte\03. POST\Les Chants de Tamos Amrouche\2\14. Petenera muy antigua.wav

Pre-gap length 0:00:03.13

Peak level 98.0 %
Extraction speed 8.4 X
Track quality 100.0 %
Copy CRC A0EF434D
Accurately ripped (confidence 1) [35432B00] (AR v2)
Copy OK


All tracks accurately ripped

No errors occurred

End of status report

==== Log checksum AD1F1B7FE7DEB0EBA3CA0696089B5374D6A2512360A4BB82AE7C64F5DE515F15 ====


Exact Audio Copy V1.0 beta 3 from 29. August 2011

EAC extraction logfile from 17. April 2015, 19:07

Amrouche Taos / Incantations, méditations, danses sacrées berbères

Used drive : TSSTcorpCDDVDW SH-216AB Adapter: 1 ID: 0

Read mode : Secure
Utilize accurate stream : Yes
Defeat audio cache : Yes
Make use of C2 pointers : No

Read offset correction : 6
Overread into Lead-In and Lead-Out : No
Fill up missing offset samples with silence : Yes
Delete leading and trailing silent blocks : No
Null samples used in CRC calculations : Yes
Used interface : Installed external ASPI interface
Gap handling : Appended to previous track

Used output format : User Defined Encoder
Selected bitrate : 768 kBit/s
Quality : High
Add ID3 tag : No
Command line compressor : C:\Program Files (x86)\Exact Audio Copy\FLAC\FLAC.EXE
Additional command line options : -6 -V -T "ARTIST=%artist%" -T "TITLE=%title%" -T "ALBUM=%albumtitle%" -T "DATE=%year%" -T "TRACKNUMBER=%tracknr%" -T "GENRE=%genre%" -T "COMMENT=%comment%" -T "BAND=%albuminterpret%" -T "ALBUMARTIST=%albuminterpret%" -T "COMPOSER=%composer%" %haslyrics%–tag-from-file=LYRICS="%lyricsfile%"%haslyrics% -T "DISCNUMBER=%cdnumber%" -T "TOTALDISCS=%totalcds%" -T "TOTALTRACKS=%numtracks%" %hascover%–picture="%coverfile%"%hascover% %source% -o %dest%


TOC of the extracted CD

Track | Start | Length | Start sector | End sector
––––––––––––––––––––––––––––-
1 | 0:00.00 | 2:58.52 | 0 | 13401
2 | 2:58.52 | 1:31.55 | 13402 | 20281
3 | 4:30.32 | 0:51.43 | 20282 | 24149
4 | 5:22.00 | 1:56.25 | 24150 | 32874
5 | 7:18.25 | 1:46.55 | 32875 | 40879
6 | 9:05.05 | 1:41.45 | 40880 | 48499
7 | 10:46.50 | 3:22.55 | 48500 | 63704
8 | 14:09.30 | 2:25.65 | 63705 | 74644
9 | 16:35.20 | 3:36.47 | 74645 | 90891
10 | 20:11.67 | 2:34.00 | 90892 | 102441
11 | 22:45.67 | 1:04.10 | 102442 | 107251
12 | 23:50.02 | 1:40.55 | 107252 | 114806
13 | 25:30.57 | 2:24.55 | 114807 | 125661
14 | 27:55.37 | 4:07.53 | 125662 | 144239
15 | 32:03.15 | 5:23.45 | 144240 | 168509
16 | 37:26.60 | 1:42.02 | 168510 | 176161


Track 1

Filename C:\Users\astarte\03. POST\Les Chants de Tamos Amrouche\3\01. Méditation - j'ai dit ma peine.wav

Pre-gap length 0:00:02.00

Peak level 66.6 %
Extraction speed 4.1 X
Track quality 100.0 %
Copy CRC D0EF80EF
Accurately ripped (confidence 1) [EF53815A] (AR v2)
Copy OK

Track 2

Filename C:\Users\astarte\03. POST\Les Chants de Tamos Amrouche\3\02. Chant des pèlerins du village des aghribs.wav

Pre-gap length 0:00:02.66

Peak level 62.9 %
Extraction speed 3.8 X
Track quality 100.0 %
Copy CRC BCAACBC0
Accurately ripped (confidence 1) [E2A5F728] (AR v2)
Copy OK

Track 3

Filename C:\Users\astarte\03. POST\Les Chants de Tamos Amrouche\3\03. Incantation - préparation à la prière.wav

Pre-gap length 0:00:02.62

Peak level 63.3 %
Extraction speed 3.2 X
Track quality 100.0 %
Copy CRC 5C2C57FE
Accurately ripped (confidence 1) [653C1681] (AR v2)
Copy OK

Track 4

Filename C:\Users\astarte\03. POST\Les Chants de Tamos Amrouche\3\04. Danse sacrée - prêtresses de la joie.wav

Pre-gap length 0:00:03.90

Peak level 76.1 %
Extraction speed 4.2 X
Track quality 100.0 %
Copy CRC B9AB1655
Accurately ripped (confidence 1) [814D441F] (AR v2)
Copy OK

Track 5

Filename C:\Users\astarte\03. POST\Les Chants de Tamos Amrouche\3\05. Danse sacrée des amariens.wav

Pre-gap length 0:00:02.37

Peak level 74.2 %
Extraction speed 4.3 X
Track quality 100.0 %
Copy CRC 19F5E2D1
Accurately ripped (confidence 1) [73B65271] (AR v2)
Copy OK

Track 6

Filename C:\Users\astarte\03. POST\Les Chants de Tamos Amrouche\3\06. Procession de l'oncle mahmoud.wav

Pre-gap length 0:00:01.84

Peak level 80.0 %
Extraction speed 3.0 X
Track quality 99.8 %
Copy CRC E8EC62F0
Accurately ripped (confidence 1) [5B039421] (AR v2)
Copy OK

Track 7

Filename C:\Users\astarte\03. POST\Les Chants de Tamos Amrouche\3\07. Une des adeptes du prophète.wav

Pre-gap length 0:00:02.50

Peak level 76.8 %
Extraction speed 5.3 X
Track quality 100.0 %
Copy CRC FB960F46
Accurately ripped (confidence 1) [077847B7] (AR v2)
Copy OK

Track 8

Filename C:\Users\astarte\03. POST\Les Chants de Tamos Amrouche\3\08. Allah le dispensateur.wav

Pre-gap length 0:00:02.30

Peak level 80.9 %
Extraction speed 5.4 X
Track quality 100.0 %
Copy CRC 9C42E858
Accurately ripped (confidence 1) [FFE1225D] (AR v2)
Copy OK

Track 9

Filename C:\Users\astarte\03. POST\Les Chants de Tamos Amrouche\3\09. Procession de l'oncle mahmoud.wav

Pre-gap length 0:00:03.24

Peak level 75.5 %
Extraction speed 6.0 X
Track quality 100.0 %
Copy CRC BAE6CD99
Accurately ripped (confidence 1) [E02FFE46] (AR v2)
Copy OK

Track 10

Filename C:\Users\astarte\03. POST\Les Chants de Tamos Amrouche\3\10. Alaoullia.wav

Pre-gap length 0:00:02.89

Peak level 71.7 %
Extraction speed 4.5 X
Track quality 99.9 %
Copy CRC C80B2FC9
Accurately ripped (confidence 1) [966DDF55] (AR v2)
Copy OK

Track 11

Filename C:\Users\astarte\03. POST\Les Chants de Tamos Amrouche\3\11. Danse sacrée des aïssaouas.wav

Pre-gap length 0:00:03.17

Peak level 73.7 %
Extraction speed 4.4 X
Track quality 100.0 %
Copy CRC ED4B6E84
Accurately ripped (confidence 1) [C4DA9C1F] (AR v2)
Copy OK

Track 12

Filename C:\Users\astarte\03. POST\Les Chants de Tamos Amrouche\3\12. Le cheminement de la mort.wav

Pre-gap length 0:00:04.53

Peak level 77.0 %
Extraction speed 5.5 X
Track quality 100.0 %
Copy CRC B16FA6AC
Accurately ripped (confidence 1) [42F7B07E] (AR v2)
Copy OK

Track 13

Filename C:\Users\astarte\03. POST\Les Chants de Tamos Amrouche\3\13. Voici le jour où ils creusent ma tombe.wav

Pre-gap length 0:00:02.40

Peak level 79.6 %
Extraction speed 4.6 X
Track quality 99.9 %
Copy CRC 97909F2F
Accurately ripped (confidence 1) [A0876784] (AR v2)
Copy OK

Track 14

Filename C:\Users\astarte\03. POST\Les Chants de Tamos Amrouche\3\14. Grande procession.wav

Pre-gap length 0:00:03.96

Peak level 77.9 %
Extraction speed 6.8 X
Track quality 100.0 %
Copy CRC 53FF8FB6
Accurately ripped (confidence 1) [E2BD6C31] (AR v2)
Copy OK

Track 15

Filename C:\Users\astarte\03. POST\Les Chants de Tamos Amrouche\3\15. Procession de petite kabylie.wav

Pre-gap length 0:00:04.00

Peak level 71.2 %
Extraction speed 7.7 X
Track quality 100.0 %
Copy CRC 48E3144C
Accurately ripped (confidence 1) [A772FE24] (AR v2)
Copy OK

Track 16

Filename C:\Users\astarte\03. POST\Les Chants de Tamos Amrouche\3\16. La levée des corps.wav

Pre-gap length 0:00:03.20

Peak level 65.0 %
Extraction speed 6.3 X
Track quality 100.0 %
Copy CRC 108BE71D
Accurately ripped (confidence 1) [BA7D8EE1] (AR v2)
Copy OK


All tracks accurately ripped

No errors occurred

End of status report

==== Log checksum 3E0AB91261A15EC1EDB916B2754555FB103031AAE9780A8505A0B16F956214DB ====


Exact Audio Copy V1.0 beta 3 from 29. August 2011

EAC extraction logfile from 17. April 2015, 19:21

Taos Amrouche / Chants berbères de la meule et du berceau

Used drive : TSSTcorpCDDVDW SH-216AB Adapter: 1 ID: 0

Read mode : Secure
Utilize accurate stream : Yes
Defeat audio cache : Yes
Make use of C2 pointers : No

Read offset correction : 6
Overread into Lead-In and Lead-Out : No
Fill up missing offset samples with silence : Yes
Delete leading and trailing silent blocks : No
Null samples used in CRC calculations : Yes
Used interface : Installed external ASPI interface
Gap handling : Appended to previous track

Used output format : User Defined Encoder
Selected bitrate : 768 kBit/s
Quality : High
Add ID3 tag : No
Command line compressor : C:\Program Files (x86)\Exact Audio Copy\FLAC\FLAC.EXE
Additional command line options : -6 -V -T "ARTIST=%artist%" -T "TITLE=%title%" -T "ALBUM=%albumtitle%" -T "DATE=%year%" -T "TRACKNUMBER=%tracknr%" -T "GENRE=%genre%" -T "COMMENT=%comment%" -T "BAND=%albuminterpret%" -T "ALBUMARTIST=%albuminterpret%" -T "COMPOSER=%composer%" %haslyrics%–tag-from-file=LYRICS="%lyricsfile%"%haslyrics% -T "DISCNUMBER=%cdnumber%" -T "TOTALDISCS=%totalcds%" -T "TOTALTRACKS=%numtracks%" %hascover%–picture="%coverfile%"%hascover% %source% -o %dest%


TOC of the extracted CD

Track | Start | Length | Start sector | End sector
––––––––––––––––––––––––––––-
1 | 0:00.00 | 2:16.45 | 0 | 10244
2 | 2:16.45 | 3:44.50 | 10245 | 27094
3 | 6:01.20 | 1:53.27 | 27095 | 35596
4 | 7:54.47 | 3:08.48 | 35597 | 49744
5 | 11:03.20 | 3:20.60 | 49745 | 64804
6 | 14:24.05 | 4:28.62 | 64805 | 84966
7 | 18:52.67 | 3:53.15 | 84967 | 102456
8 | 22:46.07 | 2:59.73 | 102457 | 115954
9 | 25:46.05 | 3:44.15 | 115955 | 132769
10 | 29:30.20 | 4:01.02 | 132770 | 150846
11 | 33:31.22 | 4:39.45 | 150847 | 171816
12 | 38:10.67 | 2:53.18 | 171817 | 184809
13 | 41:04.10 | 2:26.02 | 184810 | 195761
14 | 43:30.12 | 3:58.30 | 195762 | 213641


Track 1

Filename C:\Users\astarte\03. POST\Les Chants de Tamos Amrouche\4\01. Malédiction de tes parents.wav

Pre-gap length 0:00:02.00

Peak level 94.9 %
Extraction speed 3.6 X
Track quality 100.0 %
Copy CRC B80B00FE
Accurately ripped (confidence 1) [80831AE8] (AR v2)
Copy OK

Track 2

Filename C:\Users\astarte\03. POST\Les Chants de Tamos Amrouche\4\02. Ô mon frère, que tu es pâle.wav

Pre-gap length 0:00:03.50

Peak level 83.5 %
Extraction speed 4.6 X
Track quality 100.0 %
Copy CRC 40A2D220
Accurately ripped (confidence 1) [8432DDE4] (AR v2)
Copy OK

Track 3

Filename C:\Users\astarte\03. POST\Les Chants de Tamos Amrouche\4\03. Source des bûcherons n°1.wav

Pre-gap length 0:00:03.06

Peak level 84.8 %
Extraction speed 4.2 X
Track quality 100.0 %
Copy CRC 9685F77A
Accurately ripped (confidence 1) [03457462] (AR v2)
Copy OK

Track 4

Filename C:\Users\astarte\03. POST\Les Chants de Tamos Amrouche\4\04. Un palmier dans le désert.wav

Pre-gap length 0:00:03.66

Peak level 83.6 %
Extraction speed 5.0 X
Track quality 100.0 %
Copy CRC B8333F8A
Accurately ripped (confidence 1) [41AAF1DA] (AR v2)
Copy OK

Track 5

Filename C:\Users\astarte\03. POST\Les Chants de Tamos Amrouche\4\05. Source des bûcherons n°2.wav

Pre-gap length 0:00:04.24

Peak level 89.7 %
Extraction speed 5.4 X
Track quality 100.0 %
Copy CRC 0D44211D
Accurately ripped (confidence 1) [75A73B86] (AR v2)
Copy OK

Track 6

Filename C:\Users\astarte\03. POST\Les Chants de Tamos Amrouche\4\06. Penché sur une tombe nouvelle.wav

Pre-gap length 0:00:04.21

Peak level 90.9 %
Extraction speed 6.0 X
Track quality 100.0 %
Copy CRC 6ED945ED
Accurately ripped (confidence 1) [180E5EAC] (AR v2)
Copy OK

Track 7

Filename C:\Users\astarte\03. POST\Les Chants de Tamos Amrouche\4\07. Je me suis promis de dire la vérité.wav

Pre-gap length 0:00:05.20

Peak level 89.3 %
Extraction speed 6.2 X
Track quality 100.0 %
Copy CRC B5AA78D3
Accurately ripped (confidence 1) [1CF98FC9] (AR v2)
Copy OK

Track 8

Filename C:\Users\astarte\03. POST\Les Chants de Tamos Amrouche\4\08. Berceuse de Zahoua.wav

Pre-gap length 0:00:01.93

Peak level 98.0 %
Extraction speed 6.2 X
Track quality 100.0 %
Copy CRC F8A3EC4F
Accurately ripped (confidence 1) [2A5C0FB1] (AR v2)
Copy OK

Track 9

Filename C:\Users\astarte\03. POST\Les Chants de Tamos Amrouche\4\09. Berceuse au clair de lune.wav

Pre-gap length 0:00:03.06

Peak level 95.8 %
Extraction speed 6.8 X
Track quality 100.0 %
Copy CRC 21DBA143
Accurately ripped (confidence 1) [BD48DDF2] (AR v2)
Copy OK

Track 10

Filename C:\Users\astarte\03. POST\Les Chants de Tamos Amrouche\4\10. Ô machine venue de très loin.wav

Pre-gap length 0:00:04.90

Peak level 93.1 %
Extraction speed 5.7 X
Track quality 99.9 %
Copy CRC E6ADBAEB
Accurately ripped (confidence 1) [B5759060] (AR v2)
Copy OK

Track 11

Filename C:\Users\astarte\03. POST\Les Chants de Tamos Amrouche\4\11. La berceuse de maman.wav

Pre-gap length 0:00:04.29

Peak level 71.3 %
Extraction speed 7.3 X
Track quality 100.0 %
Copy CRC E6BB2314
Accurately ripped (confidence 1) [0BF644DF] (AR v2)
Copy OK

Track 12

Filename C:\Users\astarte\03. POST\Les Chants de Tamos Amrouche\4\12. Parmi les grands voiliers du ciel.wav

Pre-gap length 0:00:04.76

Peak level 74.2 %
Extraction speed 7.1 X
Track quality 100.0 %
Copy CRC 4785722E
Accurately ripped (confidence 1) [875C075B] (AR v2)
Copy OK

Track 13

Filename C:\Users\astarte\03. POST\Les Chants de Tamos Amrouche\4\13. Berceuse de l'oncle Mahmoud.wav

Pre-gap length 0:00:05.44

Peak level 67.0 %
Extraction speed 7.2 X
Track quality 100.0 %
Copy CRC E34FF776
Accurately ripped (confidence 1) [493AFE2E] (AR v2)
Copy OK

Track 14

Filename C:\Users\astarte\03. POST\Les Chants de Tamos Amrouche\4\14. Berceuse du prince Ali.wav

Pre-gap length 0:00:03.82

Peak level 65.0 %
Extraction speed 6.5 X
Track quality 99.9 %
Copy CRC 38B7CC42
Accurately ripped (confidence 1) [3E81BD51] (AR v2)
Copy OK


All tracks accurately ripped

No errors occurred

End of status report

==== Log checksum 357AF95C29D862E6C9D33A8347A8C0DE0834C577DED5E8E0BDD49E0025C1DE8F ====


Exact Audio Copy V1.0 beta 3 from 29. August 2011

EAC extraction logfile from 17. April 2015, 19:34

Taos Amrouche / Théâtre de la Ville

Used drive : TSSTcorpCDDVDW SH-216AB Adapter: 1 ID: 0

Read mode : Secure
Utilize accurate stream : Yes
Defeat audio cache : Yes
Make use of C2 pointers : No

Read offset correction : 6
Overread into Lead-In and Lead-Out : No
Fill up missing offset samples with silence : Yes
Delete leading and trailing silent blocks : No
Null samples used in CRC calculations : Yes
Used interface : Installed external ASPI interface
Gap handling : Appended to previous track

Used output format : User Defined Encoder
Selected bitrate : 768 kBit/s
Quality : High
Add ID3 tag : No
Command line compressor : C:\Program Files (x86)\Exact Audio Copy\FLAC\FLAC.EXE
Additional command line options : -6 -V -T "ARTIST=%artist%" -T "TITLE=%title%" -T "ALBUM=%albumtitle%" -T "DATE=%year%" -T "TRACKNUMBER=%tracknr%" -T "GENRE=%genre%" -T "COMMENT=%comment%" -T "BAND=%albuminterpret%" -T "ALBUMARTIST=%albuminterpret%" -T "COMPOSER=%composer%" %haslyrics%–tag-from-file=LYRICS="%lyricsfile%"%haslyrics% -T "DISCNUMBER=%cdnumber%" -T "TOTALDISCS=%totalcds%" -T "TOTALTRACKS=%numtracks%" %hascover%–picture="%coverfile%"%hascover% %source% -o %dest%


TOC of the extracted CD

Track | Start | Length | Start sector | End sector
––––––––––––––––––––––––––––-
1 | 0:00.00 | 2:38.17 | 0 | 11866
2 | 2:38.17 | 1:34.28 | 11867 | 18944
3 | 4:12.45 | 1:58.10 | 18945 | 27804
4 | 6:10.55 | 2:11.50 | 27805 | 37679
5 | 8:22.30 | 3:32.60 | 37680 | 53639
6 | 11:55.15 | 2:24.30 | 53640 | 64469
7 | 14:19.45 | 1:00.40 | 64470 | 69009
8 | 15:20.10 | 2:05.30 | 69010 | 78414
9 | 17:25.40 | 1:02.30 | 78415 | 83094
10 | 18:27.70 | 3:04.59 | 83095 | 96953
11 | 21:32.54 | 3:46.63 | 96954 | 113966
12 | 25:19.42 | 1:21.12 | 113967 | 120053
13 | 26:40.54 | 2:21.08 | 120054 | 130636
14 | 29:01.62 | 2:18.50 | 130637 | 141036
15 | 31:20.37 | 3:08.38 | 141037 | 155174
16 | 34:29.00 | 4:07.00 | 155175 | 173699
17 | 38:36.00 | 1:55.62 | 173700 | 182386
18 | 40:31.62 | 4:34.20 | 182387 | 202956


Track 1

Filename C:\Users\astarte\03. POST\Les Chants de Tamos Amrouche\5\01. Génies des montagnes de neige….wav

Pre-gap length 0:00:02.00

Peak level 77.0 %
Extraction speed 4.0 X
Track quality 100.0 %
Copy CRC 098C713A
Accurately ripped (confidence 1) [EF580B62] (AR v2)
Copy OK

Track 2

Filename C:\Users\astarte\03. POST\Les Chants de Tamos Amrouche\5\02. Adieu au pays.wav

Peak level 84.9 %
Extraction speed 3.7 X
Track quality 100.0 %
Copy CRC 0AC1ED10
Accurately ripped (confidence 1) [B43590CA] (AR v2)
Copy OK

Track 3

Filename C:\Users\astarte\03. POST\Les Chants de Tamos Amrouche\5\03. Sidi tsouathi (grave).wav

Peak level 95.1 %
Extraction speed 4.1 X
Track quality 100.0 %
Copy CRC ABA2499A
Accurately ripped (confidence 1) [BE23D391] (AR v2)
Copy OK

Track 4

Filename C:\Users\astarte\03. POST\Les Chants de Tamos Amrouche\5\04. Sidi tsouathi (aigu).wav

Peak level 73.4 %
Extraction speed 4.5 X
Track quality 100.0 %
Copy CRC 80A753FF
Accurately ripped (confidence 1) [17633965] (AR v2)
Copy OK

Track 5

Filename C:\Users\astarte\03. POST\Les Chants de Tamos Amrouche\5\05. Etoile du matin.wav

Peak level 78.4 %
Extraction speed 4.2 X
Track quality 99.9 %
Copy CRC 8AA8264D
Accurately ripped (confidence 1) [F7563F46] (AR v2)
Copy OK

Track 6

Filename C:\Users\astarte\03. POST\Les Chants de Tamos Amrouche\5\06. Vaste est la prison….wav

Peak level 72.4 %
Extraction speed 3.7 X
Track quality 99.9 %
Copy CRC 3F66C279
Accurately ripped (confidence 1) [FF575FEB] (AR v2)
Copy OK

Track 7

Filename C:\Users\astarte\03. POST\Les Chants de Tamos Amrouche\5\07. Incantation - préparation à la prière.wav

Peak level 82.7 %
Extraction speed 3.8 X
Track quality 100.0 %
Copy CRC E679FE2E
Accurately ripped (confidence 1) [6040302F] (AR v2)
Copy OK

Track 8

Filename C:\Users\astarte\03. POST\Les Chants de Tamos Amrouche\5\08. Danse sacrée des Amariens.wav

Peak level 85.5 %
Extraction speed 5.3 X
Track quality 100.0 %
Copy CRC C7A0D89D
Accurately ripped (confidence 1) [72A5844B] (AR v2)
Copy OK

Track 9

Filename C:\Users\astarte\03. POST\Les Chants de Tamos Amrouche\5\09. Danse sacrée des Aissaouas.wav

Peak level 74.9 %
Extraction speed 2.6 X
Track quality 99.8 %
Copy CRC 70C45B1C
Accurately ripped (confidence 1) [9A5DA5A3] (AR v2)
Copy OK

Track 10

Filename C:\Users\astarte\03. POST\Les Chants de Tamos Amrouche\5\10. Appel à la joie.wav

Peak level 75.8 %
Extraction speed 5.8 X
Track quality 100.0 %
Copy CRC 97CCB34B
Accurately ripped (confidence 1) [2B4837AD] (AR v2)
Copy OK

Track 11

Filename C:\Users\astarte\03. POST\Les Chants de Tamos Amrouche\5\11. Ronde de la jeune fille.wav

Peak level 85.0 %
Extraction speed 6.4 X
Track quality 100.0 %
Copy CRC EA3B5400
Accurately ripped (confidence 1) [EBBDF418] (AR v2)
Copy OK

Track 12

Filename C:\Users\astarte\03. POST\Les Chants de Tamos Amrouche\5\12. L'autre jour le hasard m'a mené.wav

Peak level 81.3 %
Extraction speed 5.2 X
Track quality 100.0 %
Copy CRC 73C62047
Accurately ripped (confidence 1) [D6943B2F] (AR v2)
Copy OK

Track 13

Filename C:\Users\astarte\03. POST\Les Chants de Tamos Amrouche\5\13. Bracelet aux émaux.wav

Peak level 83.2 %
Extraction speed 4.6 X
Track quality 99.9 %
Copy CRC 0E05653D
Accurately ripped (confidence 1) [58647355] (AR v2)
Copy OK

Track 14

Filename C:\Users\astarte\03. POST\Les Chants de Tamos Amrouche\5\14. Grand voilier du ciel.wav

Peak level 80.8 %
Extraction speed 6.1 X
Track quality 100.0 %
Copy CRC 1BEEAF7D
Accurately ripped (confidence 1) [5800E511] (AR v2)
Copy OK

Track 15

Filename C:\Users\astarte\03. POST\Les Chants de Tamos Amrouche\5\15. Quand ils eurent poussé leurs ailes.wav

Peak level 80.0 %
Extraction speed 6.9 X
Track quality 100.0 %
Copy CRC 31D2EBC7
Accurately ripped (confidence 1) [B764BB19] (AR v2)
Copy OK

Track 16

Filename C:\Users\astarte\03. POST\Les Chants de Tamos Amrouche\5\16. Ô machine venue de très loin.wav

Peak level 81.5 %
Extraction speed 6.1 X
Track quality 99.9 %
Copy CRC 18BDE880
Accurately ripped (confidence 1) [E0B74BA3] (AR v2)
Copy OK

Track 17

Filename C:\Users\astarte\03. POST\Les Chants de Tamos Amrouche\5\17. Chant religieux.wav

Peak level 83.5 %
Extraction speed 4.5 X
Track quality 99.9 %
Copy CRC A1259BD2
Accurately ripped (confidence 1) [906849C6] (AR v2)
Copy OK

Track 18

Filename C:\Users\astarte\03. POST\Les Chants de Tamos Amrouche\5\18. Grande procession.wav

Peak level 81.2 %
Extraction speed 7.7 X
Track quality 100.0 %
Copy CRC 1CA491BC
Accurately ripped (confidence 1) [654E7D29] (AR v2)
Copy OK


All tracks accurately ripped

No errors occurred

End of status report

==== Log checksum 2DB009A7AA4DE4CFAC51B7B294B748B6CA63B235C4C826D7AC57ACA4E7531C8E ====