Subcategories

Tempers - Private Life (2019)

Posted By: delpotro
Tempers - Private Life (2019)

Tempers - Private Life (2019)
EAC Rip | FLAC (tracks+log+.cue) - 251 Mb | MP3 CBR 320 kbps - 95 Mb | 00:41:25
Electronic, Coldwave, Synthpop, Post-Punk, Female Vocal | Label: Dais Records

New York based duo Tempers, comprised of Jasmine Golestaneh and Eddie Cooper, have been diligently carving out their own unique niche within dark indie, electronica and synth-pop circles since their formation. After a series of digital singles in 2013, Tempers began solidifying their singular identity of rigorous electronic production blended with instinctual, unleashed vocals. Following well received tours in Europe and the United States, Tempers saw the release of their debut album entitled Services, released in Germany via the highly regarded cult imprint Aufnahme + Wiedergabe and quickly became a staple in the synth-pop/post punk scenes in both the States and in Europe. Since the release of Services, Tempers have regularly appeared at a number of international festivals and venues, including Test Pressing Festival and Berghain to name a few, and ambitiously created a concept album entitled Junkspace in 2018, in collaboration with famed architect Rem Koolhaas, about the deconstructed banality and overlooked grace of 20th century shopping mall culture.

Tempers third full-length album, Private Life, successfully progresses their cinematic aesthetic into a moodier and more introspective landscape. Private Life opens with “Capital Pains”, a lonely incantation that echoes the human desire to envy other people’s lives and endlessly chase our own insecurities. Surreal, isolated atmosphere backed by upbeat rhythm and melancholy refrain projected from “Capital Pains” perfectly set the tone expectation for Private Life. “Peace of Mind” crawls along as a dramatic dirge with Golestaneh imparting matters of loneliness and solitude, always looking from the outside and complemented with Cooper’s haunting resonance.

The character behind songs such as “Sleep” and “Push/Pull” break from Tempers signature synth-laden post punk notoriety, instead switching to a more somber songwriting style that settles down between downtempo dream pop and despondent soundtracks. Behind the backdrop of driving electronics and magnetic verse, Private Life deconstructs and reimagines the ideas behind despair, love, loneliness, and hope. While most people would simply reflect on nostalgia, Tempers stands alone in their unique methods, fictionalizing their ideas through sound and vision to create soundtracks for everyday affliction.
Tracklist:
1. Capital Pains (03:49)
2. Leonard Cohen Afterworld (04:40)
3. Peace of Mind (04:16)
4. Filters (04:38)
5. Daydreams (04:29)
6. Guidance (04:33)
7. Push/Pull (04:20)
8. More Than You Realized (03:45)
9. Sleep (03:53)
10. Exit (03:02)

Exact Audio Copy V1.0 beta 3 from 29. August 2011

EAC extraction logfile from 7. January 2020, 18:39

Tempers / Private Life

Used drive : HL-DT-STBDDVDRW UH12NS30 Adapter: 0 ID: 0

Read mode : Secure
Utilize accurate stream : Yes
Defeat audio cache : Yes
Make use of C2 pointers : No

Read offset correction : 6
Overread into Lead-In and Lead-Out : No
Fill up missing offset samples with silence : Yes
Delete leading and trailing silent blocks : No
Null samples used in CRC calculations : Yes
Used interface : Native Win32 interface for Win NT & 2000
Gap handling : Appended to previous track

Used output format : User Defined Encoder
Selected bitrate : 320 kBit/s
Quality : High
Add ID3 tag : No
Command line compressor : C:\Program Files (x86)\Exact Audio Copy\Flac\flac.exe
Additional command line options : -V -8 -T "artist=%artist%" -T "title=%title%" -T "album=%albumtitle%" -T "date=%year%" -T "tracknumber=%tracknr%" -T "genre=%genre%" %source%


TOC of the extracted CD

Track | Start | Length | Start sector | End sector
––––––––––––––––––––––––––––-
1 | 0:00.00 | 3:48.46 | 0 | 17145
2 | 3:48.46 | 4:40.03 | 17146 | 38148
3 | 8:28.49 | 4:16.29 | 38149 | 57377
4 | 12:45.03 | 4:37.70 | 57378 | 78222
5 | 17:22.73 | 4:28.42 | 78223 | 98364
6 | 21:51.40 | 4:32.71 | 98365 | 118835
7 | 26:24.36 | 4:19.58 | 118836 | 138318
8 | 30:44.19 | 3:45.35 | 138319 | 155228
9 | 34:29.54 | 3:53.15 | 155229 | 172718
10 | 38:22.69 | 3:02.40 | 172719 | 186408


Track 1

Filename D:\PTH Uploads\Tempers - Private Life (2019 CD)\01 Capital Pains.wav

Pre-gap length 0:00:02.00

Peak level 96.5 %
Extraction speed 3.3 X
Track quality 100.0 %
Test CRC D5F6ED93
Copy CRC D5F6ED93
Track not present in AccurateRip database
Copy OK

Track 2

Filename D:\PTH Uploads\Tempers - Private Life (2019 CD)\02 Leonard Cohen Afterworld.wav

Peak level 96.5 %
Extraction speed 2.1 X
Track quality 100.0 %
Test CRC BE2A81D1
Copy CRC BE2A81D1
Track not present in AccurateRip database
Copy OK

Track 3

Filename D:\PTH Uploads\Tempers - Private Life (2019 CD)\03 Peace of Mind.wav

Peak level 96.5 %
Extraction speed 1.3 X
Track quality 100.0 %
Test CRC A8E7A776
Copy CRC A8E7A776
Track not present in AccurateRip database
Copy OK

Track 4

Filename D:\PTH Uploads\Tempers - Private Life (2019 CD)\04 Filters.wav

Peak level 96.5 %
Extraction speed 1.4 X
Track quality 100.0 %
Test CRC C4003A58
Copy CRC C4003A58
Track not present in AccurateRip database
Copy OK

Track 5

Filename D:\PTH Uploads\Tempers - Private Life (2019 CD)\05 Daydreams.wav

Peak level 96.5 %
Extraction speed 1.3 X
Track quality 99.9 %
Test CRC 8B473A87
Copy CRC 8B473A87
Track not present in AccurateRip database
Copy OK

Track 6

Filename D:\PTH Uploads\Tempers - Private Life (2019 CD)\06 Guidance.wav

Peak level 96.5 %
Extraction speed 1.6 X
Track quality 100.0 %
Test CRC 7FCC08BE
Copy CRC 7FCC08BE
Track not present in AccurateRip database
Copy OK

Track 7

Filename D:\PTH Uploads\Tempers - Private Life (2019 CD)\07 Push,Pull.wav

Peak level 96.5 %
Extraction speed 1.7 X
Track quality 100.0 %
Test CRC E838B84F
Copy CRC E838B84F
Track not present in AccurateRip database
Copy OK

Track 8

Filename D:\PTH Uploads\Tempers - Private Life (2019 CD)\08 More Than You Realized.wav

Peak level 96.5 %
Extraction speed 1.7 X
Track quality 100.0 %
Test CRC 09F96D6A
Copy CRC 09F96D6A
Track not present in AccurateRip database
Copy OK

Track 9

Filename D:\PTH Uploads\Tempers - Private Life (2019 CD)\09 Sleep.wav

Peak level 96.5 %
Extraction speed 1.8 X
Track quality 100.0 %
Test CRC 6EAD1097
Copy CRC 6EAD1097
Track not present in AccurateRip database
Copy OK

Track 10

Filename D:\PTH Uploads\Tempers - Private Life (2019 CD)\10 Exit.wav

Peak level 96.5 %
Extraction speed 1.7 X
Track quality 100.0 %
Test CRC 569A679F
Copy CRC 569A679F
Track not present in AccurateRip database
Copy OK


None of the tracks are present in the AccurateRip database

No errors occurred

End of status report

==== Log checksum 4800C8DED077FA91D1B0C1153A7DB698F33B20379147A83A507C89FCBD144D8B ====

Thanks to the Original ripper !