Terence Blanchard - The Comedian (Original Motion Picture Soundtrack) (2017)

Posted By: delpotro
Terence Blanchard - The Comedian (Original Motion Picture Soundtrack) (2017)

Terence Blanchard - The Comedian (Original Motion Picture Soundtrack) (2017)
EAC Rip | FLAC (tracks+log+.cue) | 00:39:33 | 236 Mb
Jazz, Big Band, Soundtrack | Label: Blue Note, Decca Records

The Grammy-winning trumpeter/composer returns to his jazz-renaissance roots with a set steeped in the glossy hues and tones of New York City at night. Blanchard’s score for the soundtrack of Robert De Niro’s new film captures a late-life crisis with jaunty blues, brooding balladry and svelte modern jazz. The mood-setting themes have strong melodies and rhythmic edge, and with saxophonist Ravi Coltrane stretching out and on-form pianist Kenny Barron leading a classy rhythm section, the jazz is for real. Blanchard pares his playing of excess, and plays beautifully.
Tracklist:
1. Jackie In The Rain
2. Jackie Gets Out
3. Deli to Soup Kitchen
4. Electricity on MacDougal
5. Tit for Tat Nocturne
6. Kenny Gets Out
7. Jackie's Lament
8. Florida Salsa

Exact Audio Copy V1.2 from 12. August 2016

EAC extraction logfile from 9. May 2017, 22:46

Terence Blanchard / The Comedian [Original Motion Picture Soundtrack]

Used drive : HL-DT-STBD-RE WH14NS40 Adapter: 1 ID: 0

Read mode : Secure
Utilize accurate stream : Yes
Defeat audio cache : Yes
Make use of C2 pointers : No

Read offset correction : 6
Overread into Lead-In and Lead-Out : No
Fill up missing offset samples with silence : Yes
Delete leading and trailing silent blocks : No
Null samples used in CRC calculations : Yes
Used interface : Native Win32 interface for Win NT & 2000
Gap handling : Left out

Used output format : Internal WAV Routines
Sample format : 44.100 Hz; 16 Bit; Stereo


TOC of the extracted CD

Track | Start | Length | Start sector | End sector
––––––––––––––––––––––––––––-
1 | 0:00.00 | 5:05.13 | 0 | 22887
2 | 5:05.13 | 2:57.29 | 22888 | 36191
3 | 8:02.42 | 3:48.49 | 36192 | 53340
4 | 11:51.16 | 6:06.43 | 53341 | 80833
5 | 17:57.59 | 6:50.45 | 80834 | 111628
6 | 24:48.29 | 5:08.02 | 111629 | 134730
7 | 29:56.31 | 5:36.07 | 134731 | 159937
8 | 35:32.38 | 4:07.50 | 159938 | 178512


Track 1

Filename E:\Ripped Albums\Terence Blanchard-The Comedian [Original Motion Picture Soundtrack]-2017\01-Jackie in the Rain.wav

Pre-gap length 0:00:02.00

Peak level 95.4 %
Extraction speed 1.2 X
Track quality 100.0 %
Test CRC FAA42794
Copy CRC FAA42794
Track not fully ripped for AccurateRip lookup
Copy OK

Track 2

Filename E:\Ripped Albums\Terence Blanchard-The Comedian [Original Motion Picture Soundtrack]-2017\02-Jackie Gets Out.wav

Pre-gap length 0:00:00.84

Peak level 94.4 %
Extraction speed 1.0 X
Track quality 99.9 %
Test CRC 559ECFF6
Copy CRC 559ECFF6
Track not fully ripped for AccurateRip lookup
Copy OK

Track 3

Filename E:\Ripped Albums\Terence Blanchard-The Comedian [Original Motion Picture Soundtrack]-2017\03-Deli to Soup Kitchen.wav

Pre-gap length 0:00:01.08

Peak level 95.6 %
Extraction speed 1.4 X
Track quality 100.0 %
Test CRC 5E6E8043
Copy CRC 5E6E8043
Track not fully ripped for AccurateRip lookup
Copy OK

Track 4

Filename E:\Ripped Albums\Terence Blanchard-The Comedian [Original Motion Picture Soundtrack]-2017\04-Electricity on MacDougal.wav

Pre-gap length 0:00:01.16

Peak level 95.8 %
Extraction speed 1.6 X
Track quality 100.0 %
Test CRC F3AFB494
Copy CRC F3AFB494
Track not present in AccurateRip database
Copy OK

Track 5

Filename E:\Ripped Albums\Terence Blanchard-The Comedian [Original Motion Picture Soundtrack]-2017\05-Tit for Tat Nocturne.wav

Peak level 96.3 %
Extraction speed 1.6 X
Track quality 99.9 %
Test CRC 570E96E5
Copy CRC 570E96E5
Track not fully ripped for AccurateRip lookup
Copy OK

Track 6

Filename E:\Ripped Albums\Terence Blanchard-The Comedian [Original Motion Picture Soundtrack]-2017\06-Kenny Gets Out.wav

Pre-gap length 0:00:01.28

Peak level 90.5 %
Extraction speed 1.6 X
Track quality 99.9 %
Test CRC BF18251B
Copy CRC BF18251B
Track not fully ripped for AccurateRip lookup
Copy OK

Track 7

Filename E:\Ripped Albums\Terence Blanchard-The Comedian [Original Motion Picture Soundtrack]-2017\07-Jackie's Lament.wav

Pre-gap length 0:00:00.61

Peak level 94.6 %
Extraction speed 1.9 X
Track quality 100.0 %
Test CRC A1E6ABD3
Copy CRC A1E6ABD3
Track not fully ripped for AccurateRip lookup
Copy OK

Track 8

Filename E:\Ripped Albums\Terence Blanchard-The Comedian [Original Motion Picture Soundtrack]-2017\08-Florida Salsa.wav

Pre-gap length 0:00:01.56

Peak level 94.9 %
Extraction speed 1.7 X
Track quality 99.9 %
Test CRC 80F0054E
Copy CRC 80F0054E
Track not present in AccurateRip database
Copy OK


2 track(s) not present in the AccurateRip database
6 track(s) not fully ripped for AccurateRip lookup

No tracks could be verified as accurate

No errors occurred

End of status report

==== Log checksum 57FDB34C2512E78305FDAEDDEC1DE851DC98936E13749EFDAC1A1DA783BAC98B ====

Thanks to the Original ripper mongoose !