Subcategories

Thalia - El Sexto Sentido: Re+Loaded (2006)

Posted By: thingska
Thalia - El Sexto Sentido: Re+Loaded (2006)

Thalia - El Sexto Sentido: Re+Loaded (2006)
EAC-Rip | FLAC-image +cue +log +Scans | June 6, 2006 | 402 MB
Genre: Pop | Label: EMI | Fserve, Fsonic

A year after its original release, Thalia's solid El Sexto Sentido disc gets a facelift. Funny thing is, this Re+Loaded version actually improves upon its mostly successful predecessor. The nips and tucks have made it a smoother, more unified effort. Gone is Thalia's playful take on Tejano icon Selena's "Amor Prohibido." Any trace of English-language material–three songs in total–has also been removed. It's all replaced by a quartet of high-caliber Spanish-language work that makes Re+Loaded worth the double purchase. "Cantando Por un Sueno" is a self-affirming, fist-pumping anthem; and "La Super Chica" is an affecting moment of alt-girl pop power with a hint of 80's nostalgia. Best of the bunch is "No, No, No," a glittering, break-up bachata duet featuring Aventura member Anthony "Romeo" Santos. It's one of the disc's best moments, alongside the still-affecting "Seduccion," "Olvidame" and "No Puedo Vivir Sin Verte." Also included is a sweeping club remix of the ballad "Un Alma Sentenciada," courtesy of renowned DJ duo Hex Hector and Mac Quayle.

–Joey Guerra
Tracklist:

1. Cantando por un Sueno
2. No, No, No
3. Amar Sin Ser Amada
4. Seduccion
5. Un Sueno Para Dos
6. Sabe Bien
7. 24000 Besos (24000 Baci)
8. Olvidame
9. No Puedo Vivir Sin Ti
10. Un Alma Sentenciada
11. No Me Voy a Quebrar
12. Empezar de "O"
13. Un Alma Sentenciada (H2Q)
14. La Super Chica

Exact Audio Copy V0.99 prebeta 5 from 4. May 2009

Отчёт EAC об извлечении, выполненном 25. июля 2010, 9:48

Thalia / El Sexto Sentido Re+Loaded

Дисковод: PIONEER DVD-RW DVR-112D Adapter: 1 ID: 0

Режим чтения : Достоверность
Использование точного потока : Да
Отключение кэша аудио : Да
Использование указателей C2 : Нет

Коррекция смещения при чтении : 48
Способность читать области Lead-in и Lead-out : Нет
Заполнение пропущенных сэмплов тишиной : Да
Удаление блоков с тишиной в начале и конце : Нет
При вычислениях CRC использовались нулевые сэмплы : Да
Интерфейс : Установленный внешний ASPI-интерфейс

Выходной формат : Внутренние WAV-операции
Формат сэмплов : 44.100 Гц; 16 бит; стерео

TOC извлечённого CD

Трек | Старт | Длительность | Начальный сектор | Конечный сектор
––––––––––––––––––––––––––––––––––-
1 | 0:00.00 | 4:11.05 | 0 | 18829
2 | 4:11.05 | 4:09.57 | 18830 | 37561
3 | 8:20.62 | 3:33.05 | 37562 | 53541
4 | 11:53.67 | 4:02.10 | 53542 | 71701
5 | 15:56.02 | 4:00.38 | 71702 | 89739
6 | 19:56.40 | 4:14.55 | 89740 | 108844
7 | 24:11.20 | 3:21.05 | 108845 | 123924
8 | 27:32.25 | 4:10.17 | 123925 | 142691
9 | 31:42.42 | 4:20.23 | 142692 | 162214
10 | 36:02.65 | 3:42.65 | 162215 | 178929
11 | 39:45.55 | 3:50.27 | 178930 | 196206
12 | 43:36.07 | 3:11.18 | 196207 | 210549
13 | 46:47.25 | 3:30.25 | 210550 | 226324
14 | 50:17.50 | 4:01.25 | 226325 | 244424

Характеристики диапазона извлечения и сообщения об ошибках

Выбранный диапазон

Имя файла C:\Documents and Settings\Администратор\Рабочий стол\Thalia\El Sexto Sentido Re+Loaded\Thalia - El Sexto Sentido Re+Loaded.wav

Пиковый уровень 100.0 %
Качество диапазона 99.6 %
CRC теста DC42DDA3
CRC копии DC42DDA3
Копирование… OK

Ошибок не произошло

AccurateRip: сводка

Трек 1 точное извлечение (доверие 1) [A1DECEE9]
Трек 2 точное извлечение (доверие 1) [7B1BD459]
Трек 3 точное извлечение (доверие 1) [703DDB32]
Трек 4 точное извлечение (доверие 1) [81852551]
Трек 5 точное извлечение (доверие 1) [74476CAC]
Трек 6 точное извлечение (доверие 1) [D27E7D2C]
Трек 7 точное извлечение (доверие 1) [501C1613]
Трек 8 точное извлечение (доверие 1) [8CDE4D08]
Трек 9 точное извлечение (доверие 1) [A2ED81B8]
Трек 10 точное извлечение (доверие 1) [C7208E8C]
Трек 11 точное извлечение (доверие 1) [1E445DA3]
Трек 12 точное извлечение (доверие 1) [7C524BFC]
Трек 13 точное извлечение (доверие 1) [E911E496]
Трек 14 точное извлечение (доверие 1) [4EEB3759]

Все треки извлечены точно

Конец отчёта

Download Thalia - El Sexto Sentido: Re+Loaded (2006):

Fileserve.com:
Part 1 | Part 2

Filesonic.com
Part 1 | Part 2

Pass: avaxhome.ws

All thanks go to the original Publicist "shar-pee"

If you'll find that my links are dead please let me know through the Private Messages.

Please DO NOT MIRROR