Subcategories

The Apaches - Rancho Deluxe (2020)

Posted By: Domestos
The Apaches - Rancho Deluxe (2020)

The Apaches - Rancho Deluxe (2020)
EAC Rip | FLAC (image+.cue, log) ~ 177.23 Mb | MP3 CBR 320kbps ~ 64.81 Mb | 27:20 | Covers
Surf Rock | Country: USA | Label: Paper Flower Fire Records

This is the fourth release in the last two years or so from The Apaches, an album that sees them maintain an “album a year” pace - since their 2016 debut. This is without a doubt their best yet - if you take surf, spaghetti western and Euro instrumentals, this would have elements of all three, but veer closer towards the spaghetti/Euro sounds. The songs are well-written, melodic and catchy, the members are all masters of their instruments, and the production is spot on. Undoubtedly one of the top releases of 2020!



Track List:
01. Rancho Deluxe (2:05)
02. Buckaroo (2:41)
03. Do The Mata Hari (2:11)
04. Kiss Kiss, Kill Kill 02:24
05. The Red Scare (1:23)
06. Dreamliner (3:24)
07. Dig! (3:00)
08. Circuit Riders (2:07)
09. A Horse Named Whiskey (2:46)
10. The Barrelhouse (2:15)
11. Say It With Bullets (2:38)

Eric Hirsch - Lead Guitar
Adam Gold - Drums, Percussion
Andrew Jemsek - Bass Guitar, Organ
Jacob Strong - Rhythm Guitar

Additional Musicians:
Steve Asetta - Baritone and Tenor Saxophone, Slide Whistle
Ian Kelman - Pedal Steel Guitar

Recorded and mixed by Jeremy Parker at Premier Studios

Exact Audio Copy V1.3 from 2. September 2016

Отчёт EAC об извлечении, выполненном 25. марта 2020, 13:08

The Apaches / Rancho Deluxe

Дисковод: HL-DT-STDVD+-RW GH82N Adapter: 1 ID: 0

Режим чтения : Достоверность
Использование точного потока : Да
Отключение кэша аудио : Да
Использование указателей C2 : Нет

Коррекция смещения при чтении : 667
Способность читать области Lead-in и Lead-out : Нет
Заполнение пропущенных сэмплов тишиной : Да
Удаление блоков с тишиной в начале и конце : Нет
При вычислениях CRC использовались нулевые сэмплы : Да
Интерфейс : Встроенный Win32-интерфейс для Win NT/2000

Выходной формат : Пользовательский кодировщик
Выбранный битрейт : 1024 kBit/s
Качество : Высокий
Добавление ID3-тега : Нет
Утилита сжатия : C:\Program Files (x86)\Exact Audio Copy\FLAC\FLAC.EXE
Дополнительные параметры : -8 -V -T "ARTIST=%artist%" -T "ALBUM=%albumtitle%" -T "DATE=%year%" -T "GENRE=%genre%" -T "COMMENT=ripped by izia1956" %source%


TOC извлечённого CD

Трек | Старт | Длительность | Начальный сектор | Конечный сектор
––––––––––––––––––––––––––––––––––-
1 | 0:00.00 | 2:07.69 | 0 | 9593
2 | 2:07.69 | 2:43.17 | 9594 | 21835
3 | 4:51.11 | 2:13.47 | 21836 | 31857
4 | 7:04.58 | 2:26.06 | 31858 | 42813
5 | 9:30.64 | 1:25.12 | 42814 | 49200
6 | 10:56.01 | 3:26.73 | 49201 | 64723
7 | 14:22.74 | 3:02.26 | 64724 | 78399
8 | 17:25.25 | 2:09.12 | 78400 | 88086
9 | 19:34.37 | 2:48.35 | 88087 | 100721
10 | 22:22.72 | 2:17.18 | 100722 | 111014
11 | 24:40.15 | 2:39.66 | 111015 | 123005


Характеристики диапазона извлечения и сообщения об ошибках

Выбранный диапазон

Имя файла E:\BitComet\The Apaches (flac)\2020 - Rancho Deluxe\The Apaches - Rancho Deluxe.wav

Пиковый уровень 98.2 %
Скорость извлечения 2.0 X
Качество диапазона 99.9 %
CRC теста 14AA2645
CRC копии 14AA2645
Копирование… OK

Ошибок не произошло


AccurateRip: сводка

Трек 1 : извлечено точно (доверие 1) [89B1EEA8] (AR v2)
Трек 2 : извлечено точно (доверие 1) [F391725D] (AR v2)
Трек 3 точность не определена (достоверность 1) [8CBE0E1B], AccurateRip вернул [11B5C005] (AR v2)
Трек 4 : извлечено точно (доверие 1) [12937865] (AR v2)
Трек 5 : извлечено точно (доверие 1) [7C2B5B47] (AR v2)
Трек 6 : извлечено точно (доверие 1) [B6D499D6] (AR v2)
Трек 7 : извлечено точно (доверие 1) [04A2721E] (AR v2)
Трек 8 : извлечено точно (доверие 1) [AB7AF4ED] (AR v2)
Трек 9 : извлечено точно (доверие 1) [75EB86E9] (AR v2)
Трек 10 : извлечено точно (доверие 1) [91DFE952] (AR v2)
Трек 11 : извлечено точно (доверие 1) [EFD5868E] (AR v2)

10 трек(и) скопированы точно
1 трек(и) не удалось проверить на точность

Некоторые треки не прошли проверку на точность

Конец отчёта

==== Контрольная сумма отчёта 2A9EBAA6B8CED9653A4C75055BDACA96BE0C9604EC96CD65377CEEC040FF62AF ====

All thanks go to the izia1956

More Music in My Blog
Follow My RSS Channel