Subcategories

The Doug MacLeod Band - Woman In The Street (1987) (Repost)

Posted By: Domestos
The Doug MacLeod Band - Woman In The Street (1987) (Repost)

The Doug MacLeod Band - Woman In The Street (1987)
EAC Rip | FLAC (tracks+.cue, log) ~ 262.83 Mb | 52:32 | Scans included
Modern Electric Blues | Country: US | Label: Stomp Records (STCD 9.00444 0)

Unlike some other bluesmen now leading their own bands, guitarist and singer/songwriter Doug MacLeod spent many years as an apprentice before forming his own group. MacLeod has worked as a sideman for many different artists from the Los Angeles-area blues scene, including Big Joe Turner, Charles Brown, Pee Wee Crayton, Eddie "Cleanhead" Vinson, and George "Harmonica" Smith.

MacLeod was born in New York on April 21, 1946, and his parents moved to Raleigh, NC, shortly after his birth. In his teens he moved to St. Louis and began frequenting the blues clubs there, learning from people like Albert King, Little Milton, and Ike & Tina Turner. He took up the bass in his teens and played around St. Louis with local bands before enlisting in the Navy. MacLeod was stationed in Norfolk, VA, and spent his off-duty time playing in blues bars. He eventually settled in Los Angeles, accompanying many other blues performers before forming his own band. His songs have been recorded by Albert King, Albert Collins, and Son Seals. MacLeod's 1984 album, No Road Back Home, was nominated for a W.C. Handy Award in 1984 and has since been reissued on compact disc on the Hightone label. MacLeod has widely available albums on Audioquest — Come to Find (1994), You Can't Take My Blues (1996), Unmarked Road (1997), and Whose Truth, Whose Lies? (2000). His first Audioquest disc features guest appearances by harmonica players Carey Bell and fiddle player Heather Hardy, while the second has a guest appearance by harp player George "Harmonica" Smith. MacLeod has also recorded for a variety of independent labels, including such albums as Woman in the Street, 54th & Vermont, and Ain't the Blues Evil. MacLeod's A Little Sin was released in 2002, recorded in July of that year with producer/frequent collaborator Joe Harley.

Doug MacLeod - Vocals, Guitars
Lee Spath - Drums, Percussion
Tom Kellock - Keyboards
Eric Ajaye - Bass

Track List:
01. Skin Game (3:56)
02. Working Man Blues (4:33)
03. The Highway They Called The Blues (4:29)
04. I Might Bend (But I Won't Break) (4:05)
05. I Think You're Foolin' Me (3:39)
06. King Freddie (4:26)
07. Still Some Smoke (3:26)
08. Splain' It To Me (3:11)
09. Send The Soul On Home (6:24)
10. Woman In The Street (3:30)
11. One Good Woman (3:14)
12. Church Street Serenade (7:38)

The Doug MacLeod Band - Woman In The Street (1987) (Repost)

Exact Audio Copy V1.0 beta 4 from 7. December 2014

EAC extraction logfile from 26. March 2015, 11:24

Doug MacLeod Band / Woman In The Street

Used drive : ATAPI iHAS324 Y Adapter: 1 ID: 0

Read mode : Secure
Utilize accurate stream : Yes
Defeat audio cache : Yes
Make use of C2 pointers : No

Read offset correction : 48
Overread into Lead-In and Lead-Out : No
Fill up missing offset samples with silence : Yes
Delete leading and trailing silent blocks : No
Null samples used in CRC calculations : Yes
Used interface : Native Win32 interface for Win NT & 2000
Gap handling : Appended to previous track

Used output format : User Defined Encoder
Selected bitrate : 896 kBit/s
Quality : High
Add ID3 tag : No
Command line compressor : C:\Program Files (x86)\Exact Audio Copy\FLAC\FLAC.EXE
Additional command line options : -8 -V -T "ARTIST=%artist%" -T "TITLE=%title%" -T "ALBUM=%albumtitle%" -T "DATE=%year%" -T "TRACKNUMBER=%tracknr%" -T "GENRE=%genre%" -T "PERFORMER=%albuminterpret%" -T "COMPOSER=%composer%" %haslyrics%–tag-from-file=LYRICS="%lyricsfile%"%haslyrics% -T "ALBUMARTIST=%albumartist%" -T "DISCNUMBER=%cdnumber%" -T "TOTALDISCS=%totalcds%" -T "TOTALTRACKS=%numtracks%" -T "COMMENT=%comment%" %source% -o %dest%

TOC of the extracted CD

Track | Start | Length | Start sector | End sector
––––––––––––––––––––––––––––-
1 | 0:00.00 | 3:55.65 | 0 | 17689
2 | 3:55.65 | 4:33.05 | 17690 | 38169
3 | 8:28.70 | 4:29.17 | 38170 | 58361
4 | 12:58.12 | 4:05.33 | 58362 | 76769
5 | 17:03.45 | 3:38.60 | 76770 | 93179
6 | 20:42.30 | 4:25.55 | 93180 | 113109
7 | 25:08.10 | 3:26.15 | 113110 | 128574
8 | 28:34.25 | 3:11.27 | 128575 | 142926
9 | 31:45.52 | 6:24.08 | 142927 | 171734
10 | 38:09.60 | 3:30.35 | 171735 | 187519
11 | 41:40.20 | 3:13.40 | 187520 | 202034
12 | 44:53.60 | 7:37.62 | 202035 | 236371

Track 1

Filename L:\EAC\Doug MacLeod Band - Woman In The Street (1988)\01 - Skin Game.wav

Pre-gap length 0:00:02.00

Peak level 66.3 %
Extraction speed 2.2 X
Track quality 100.0 %
Test CRC E836F9ED
Copy CRC E836F9ED
Accurately ripped (confidence 5) [2AA72F9A] (AR v2)
Copy OK

Track 2

Filename L:\EAC\Doug MacLeod Band - Woman In The Street (1988)\02 - Working Man Blues.wav

Peak level 95.5 %
Extraction speed 2.4 X
Track quality 100.0 %
Test CRC F3449A44
Copy CRC F3449A44
Accurately ripped (confidence 5) [D040F720] (AR v2)
Copy OK

Track 3

Filename L:\EAC\Doug MacLeod Band - Woman In The Street (1988)\03 - The Highway They Called The Blues.wav

Peak level 66.9 %
Extraction speed 2.4 X
Track quality 99.9 %
Test CRC 6896E2BD
Copy CRC 6896E2BD
Accurately ripped (confidence 5) [A55006E0] (AR v2)
Copy OK

Track 4

Filename L:\EAC\Doug MacLeod Band - Woman In The Street (1988)\04 - I Might Bend (But I Won't Break).wav

Peak level 69.7 %
Extraction speed 2.6 X
Track quality 100.0 %
Test CRC 55AADAE6
Copy CRC 55AADAE6
Accurately ripped (confidence 5) [8293B5AD] (AR v2)
Copy OK

Track 5

Filename L:\EAC\Doug MacLeod Band - Woman In The Street (1988)\05 - I Think You're Foolin' Me.wav

Peak level 78.2 %
Extraction speed 2.5 X
Track quality 99.9 %
Test CRC BACFC405
Copy CRC BACFC405
Accurately ripped (confidence 5) [A3AB4EE7] (AR v2)
Copy OK

Track 6

Filename L:\EAC\Doug MacLeod Band - Woman In The Street (1988)\06 - King Freddie.wav

Peak level 57.4 %
Extraction speed 3.0 X
Track quality 100.0 %
Test CRC 0AEBBA5F
Copy CRC 0AEBBA5F
Accurately ripped (confidence 5) [0455A8A1] (AR v2)
Copy OK

Track 7

Filename L:\EAC\Doug MacLeod Band - Woman In The Street (1988)\07 - Still Some Smoke.wav

Peak level 72.9 %
Extraction speed 2.8 X
Track quality 99.9 %
Test CRC 69004E0A
Copy CRC 69004E0A
Accurately ripped (confidence 5) [22D20040] (AR v2)
Copy OK

Track 8

Filename L:\EAC\Doug MacLeod Band - Woman In The Street (1988)\08 - Splain' It To Me.wav

Peak level 64.1 %
Extraction speed 2.9 X
Track quality 100.0 %
Test CRC EA156AA1
Copy CRC EA156AA1
Accurately ripped (confidence 5) [F4A87AC7] (AR v2)
Copy OK

Track 9

Filename L:\EAC\Doug MacLeod Band - Woman In The Street (1988)\09 - Send The Soul On Home.wav

Peak level 62.4 %
Extraction speed 3.1 X
Track quality 99.9 %
Test CRC 405DAF83
Copy CRC 405DAF83
Accurately ripped (confidence 5) [5B24866F] (AR v2)
Copy OK

Track 10

Filename L:\EAC\Doug MacLeod Band - Woman In The Street (1988)\10 - Woman In The Street.wav

Peak level 72.2 %
Extraction speed 3.2 X
Track quality 99.9 %
Test CRC E4FF490E
Copy CRC E4FF490E
Accurately ripped (confidence 5) [BBBE331D] (AR v2)
Copy OK

Track 11

Filename L:\EAC\Doug MacLeod Band - Woman In The Street (1988)\11 - One Good Woman.wav

Peak level 68.9 %
Extraction speed 3.2 X
Track quality 99.9 %
Test CRC 8D6A4276
Copy CRC 8D6A4276
Accurately ripped (confidence 5) [B6C11F05] (AR v2)
Copy OK

Track 12

Filename L:\EAC\Doug MacLeod Band - Woman In The Street (1988)\12 - Church Street Serenade.wav

Peak level 71.1 %
Extraction speed 3.8 X
Track quality 99.9 %
Test CRC F857B794
Copy CRC F857B794
Accurately ripped (confidence 5) [B4155445] (AR v2)
Copy OK

All tracks accurately ripped

No errors occurred

End of status report

–– CUETools DB Plugin V2.1.4

[CTDB TOCID: i72N03gMxCy5M5H7sFULw7XXWJc-] found
Submit result: i72N03gMxCy5M5H7sFULw7XXWJc- has been confirmed
Track | CTDB Status
1 | (3/3) Accurately ripped
2 | (3/3) Accurately ripped
3 | (3/3) Accurately ripped
4 | (3/3) Accurately ripped
5 | (3/3) Accurately ripped
6 | (3/3) Accurately ripped
7 | (3/3) Accurately ripped
8 | (3/3) Accurately ripped
9 | (3/3) Accurately ripped
10 | (3/3) Accurately ripped
11 | (3/3) Accurately ripped
12 | (3/3) Accurately ripped

==== Log checksum 40B6C07909612C8D10CABFE5F81A37309B411B01C2A2E1822A901EB05CA7CB3F ====

All thanks go to the nertwebber

More Music in My Blog
Follow My RSS Channel