Subcategories

The Incredible Jimmy Smith - Back At The Chicken Shack (1960/2011)

Posted By: Domestos
The Incredible Jimmy Smith - Back At The Chicken Shack (1960/2011)

The Incredible Jimmy Smith - Back At The Chicken Shack (1960/2011)
XLD Rip | FLAC (tracks+.cue, log) ~ 233.56 Mb + 20.04 Mb (Covers) | 43:56
Jazz Blues, Soul Jazz | Country: USA | Label: Analogue Productions (CBNJ 84117 SA)

The same formula that made the Fantasy 45 Series perhaps the most successful audiophile reissue collection ever is now being reapplied to Blue Note reissues! Jimmy Smith's April 25, 1960 session with the perfect cast of Stanley Turrentine, Kenny Burrell and Donald Bailey produced these two classic albums that are the pinnacle of the organ-tenor style. A perfect selection of material played at the perfect tempo by great musicians who connect on the deepest, most soulful level. Not a bad day's work. Mastered by Kevin Gray & Steve Hoffman at AcousTech.

Jimmy Smith - organ
Stanley Turrentine - tenor saxophone
Kenny Burrell - guitar
Donald Bailey - drums

Recorded at the Van Gelder Studio, Englewood Cliffs, NJ on April 25, 1960.

Track List:
01. Back at the Chicken Shack (Smith) - 8:06
02. When I Grow Too Old to Dream (Romberg-Hammerstein) - 9:54
03. Minor Chant (Turrentine) - 7:34
04. Messy Bessie (Smith) - 12:32
05. On the Sunny Side of the Street (McHugh-Fields) - 5:50

The Incredible Jimmy Smith - Back At The Chicken Shack (1960/2011)

X Lossless Decoder version 20130720 (144.0)

XLD extraction logfile from 2013-10-20 11:12:33 +1100

Jimmy Smith / Back at the Chicken Shack

Used drive : HL-DT-ST DVD-RW GH41N (revision PQ05)
Media type : Pressed CD

Ripper mode : XLD Secure Ripper
Disable audio cache : OK for the drive with a cache less than 1375KiB
Make use of C2 pointers : NO
Read offset correction : 667
Max retry count : 100
Gap status : Analyzed, Appended

TOC of the extracted CD
Track | Start | Length | Start sector | End sector
––––––––––––––––––––––––––––-
1 | 00:00:00 | 08:05:61 | 0 | 36435
2 | 08:05:61 | 09:54:16 | 36436 | 81001
3 | 18:00:02 | 07:33:61 | 81002 | 115037
4 | 25:33:63 | 12:32:17 | 115038 | 171454
5 | 38:06:05 | 05:49:67 | 171455 | 197696

AccurateRip Summary (DiscID: 00092e1c-002b05a0-420a4b05)
Track 01 : OK (v1+v2, confidence 11/11)
Track 02 : OK (v1+v2, confidence 11/11)
Track 03 : OK (v1+v2, confidence 11/11)
Track 04 : OK (v1+v2, confidence 11/11)
Track 05 : OK (v1+v2, confidence 11/11)
->All tracks accurately ripped.

All Tracks
Album gain : 3.66 dB
Peak : 0.786255
Statistics
Read error : 0
Jitter error (maybe fixed) : 0
Retry sector count : 2
Damaged sector count : 0

Track 01
Filename : /Volumes/Music/temp/01 Jimmy Smith - Back at the Chicken Shack.flac
Pre-gap length : 00:02:00

Track gain : 4.70 dB
Peak : 0.439453
CRC32 hash (test run) : 559B6046
CRC32 hash : 559B6046
CRC32 hash (skip zero) : 69F998E3
AccurateRip v1 signature : 9D2370A9
AccurateRip v2 signature : 821E38DA
->Accurately ripped (v1+v2, confidence 2+9/11)
Statistics
Read error : 0
Jitter error (maybe fixed) : 0
Retry sector count : 0
Damaged sector count : 0

Track 02
Filename : /Volumes/Music/temp/02 Jimmy Smith - When I Grow Too Old to Dream.flac
Pre-gap length : 00:00:21

Track gain : 5.18 dB
Peak : 0.393280
CRC32 hash (test run) : E62465DD
CRC32 hash : E62465DD
CRC32 hash (skip zero) : 3C1704A4
AccurateRip v1 signature : 07912603
AccurateRip v2 signature : 2679CC3F
->Accurately ripped (v1+v2, confidence 2+9/11)
Statistics
Read error : 0
Jitter error (maybe fixed) : 0
Retry sector count : 0
Damaged sector count : 0

Track 03
Filename : /Volumes/Music/temp/03 Jimmy Smith - Minor Chant.flac
Pre-gap length : 00:00:21

Track gain : 3.24 dB
Peak : 0.483551
CRC32 hash (test run) : 2CCC59BB
CRC32 hash : 2CCC59BB
CRC32 hash (skip zero) : 72301E6D
AccurateRip v1 signature : BCEBCE09
AccurateRip v2 signature : 5626B6E3
->Accurately ripped (v1+v2, confidence 2+9/11)
Statistics
Read error : 0
Jitter error (maybe fixed) : 0
Retry sector count : 0
Damaged sector count : 0

Track 04
Filename : /Volumes/Music/temp/04 Jimmy Smith - Messy Bessie.flac
Pre-gap length : 00:00:21

Track gain : 3.83 dB
Peak : 0.477570
CRC32 hash (test run) : FD536A3A
CRC32 hash : FD536A3A
CRC32 hash (skip zero) : A9D974B9
AccurateRip v1 signature : FC3E6D7E
AccurateRip v2 signature : 79B6E26F
->Accurately ripped (v1+v2, confidence 2+9/11)
Statistics
Read error : 0
Jitter error (maybe fixed) : 0
Retry sector count : 2
Damaged sector count : 0

Track 05
Filename : /Volumes/Music/temp/05 Jimmy Smith - On the Sunny Side of the Street.flac
Pre-gap length : 00:01:18

Track gain : 1.84 dB
Peak : 0.786255
CRC32 hash (test run) : CCB384D6
CRC32 hash : CCB384D6
CRC32 hash (skip zero) : 18931E2E
AccurateRip v1 signature : C4A515E7
AccurateRip v2 signature : 5A5657F1
->Accurately ripped (v1+v2, confidence 2+9/11)
Statistics
Read error : 0
Jitter error (maybe fixed) : 0
Retry sector count : 0
Damaged sector count : 0

No errors occurred

End of status report

––-BEGIN XLD SIGNATURE––-
xwyGCtSL.Jb2z3VkVymjVzhwtaZb_f9y9i2FBZVYCvxuGG9mQwygMUwJ0oBBb6kZgkoJaV0w2thu3DL1A07._Gaq5zbN95SHRkaFPVG
––-END XLD SIGNATURE––-

All thanks go to the redacted

More Music in My Blog
Follow My RSS Channel