Subcategories

The Vanguards - Beat On The Rocks 1964-1968 (2005) {Compilation, Reissue}

Posted By: Domestos
The Vanguards - Beat On The Rocks 1964-1968 (2005) {Compilation, Reissue}

The Vanguards - Beat On The Rocks 1964-1968 (2005) {Compilation, Reissue}
EAC Rip | FLAC (image+.cue, log) ~ 456.00 Mb | 1:19:45 | Scans included
Surf, Rock & Roll, Beat | Country: Denmark | Label: Frost Records - Frost 0702

The Vanguards were a rock band from Bærum, Norway that debuted in 1961. Although the band disbanded eight years later, members continued to reunite for appearances during the 1970s. The Vanguards was one of Norway's most popular rock band during the 1960s, playing mostly cover songs. Known band members included Bjørn Nordvang, Terje Rypdal, Gerry Beckley, best known as a member of the folk\rock band America (band), and Johnny Day.

===
Wiki | Discogs
===


Track List:
1. Wolly Bully (Sam Samudio)
2. I've Got Enough Of You (Ebbe Torgersen)
3. Let Him Go (Ebbe Torgersen)
4. I Only For You (Ebbe Torgersen)
5. Very Last Day (Stobkey/YaiTow)
6. Changed (Ebbe Torgersen)
7. Sha-La-La-La-Lee (Lynch-Shuman)
8. Pretty Flamingo (Barkan)
9. Sweet Little You (Ebbe Torgereen)
10. Till The Erid Of Time (Ebbe Torgersen)
11. Don't Ever Leave Me (Celli - Guarnieri)
12. Squeeze Her - Tease Her (Wilson-Tucker)
13. Stewball (Yellin-Rinzier-Herald)
14. Little By Little (Mills)
15. Doctor Robert (Lennon-McCartney)
16. Blues In The Bottle (Sebastian-Stampfel- Weber)
17. Happy Together (Bonner-Gordon)
18. Old Man's Trouble (Jerry Smith)
19. In The Midnight Hour (Pickett-Crapper)
20. Criss Craft No. 9 (Sundqvist)
21. Can I Trust You (Remigi-Vance-Snyder)
22. Heatwave (Holland-Dozier-Hoiiand)
23. My Little Red Book (Burt Bacharach-H.David)
24. Everything's Gonna Be Allright (Mitchell)
25. Blues In BB (Ebbe Torgersen)
26. Vora Pibla (The Vanguards)
27. Hi Ho Silver Lining (Scott-English)
28. Get Out Of My Life Woman (A.Toussaint)
29. First Lesson In Love (Welsh)
30. Prinsessse Toben (Traditionel)
31. It's The Same (Svend Aage Gyldmark)
32. Set Me Free (Ray Davies)

The Vanguards - Beat On The Rocks 1964-1968 (2005) {Compilation, Reissue}

Exact Audio Copy V0.99 prebeta 4 from 23. January 2008

Отчёт EAC об извлечении, выполненном 11. октября 2008, 22:35

The Vanguards / Beat On The Rocks 1964-1968

Дисковод: MATSHITADVD-RAM UJ-850S Adapter: 1 ID: 0

Режим чтения : Достоверность
Использование точного потока : Да
Отключение кэша аудио : Да
Использование указателей C2 : Нет

Коррекция смещения при чтении : 102
Способность читать области Lead-in и Lead-out : Нет
Заполнение пропущенных сэмплов тишиной : Да
Удаление блоков с тишиной в начале и конце : Нет
При вычислениях CRC использовались нулевые сэмплы : Нет
Интерфейс : Встроенный Win32-интерфейс для Win NT/2000

Выходной формат : Пользовательский кодировщик
Выбранный битрейт : 1024 kBit/s
Качество : Высокий
Добавление ID3-тэга : Нет
Утилита сжатия : C:\Program Files\Exact Audio Copy\FLAC\FLAC.EXE
Дополнительные параметры : -6 -V -T "ARTIST=%a" -T "TITLE=%t" -T "ALBUM=%g" -T "DATE=%y" -T "TRACKNUMBER=%n" -T "GENRE=%m" -T "COMMENT=%e" %s -o %d


TOC извлечённого CD

Трек | Старт | Длительность | Начальный сектор | Конечный сектор
––––––––––––––––––––––––––––––––––-
1 | 0:00.00 | 2:07.35 | 0 | 9559
2 | 2:07.35 | 2:04.68 | 9560 | 18927
3 | 4:12.28 | 2:40.08 | 18928 | 30935
4 | 6:52.36 | 2:05.31 | 30936 | 40341
5 | 8:57.67 | 3:04.05 | 40342 | 54146
6 | 12:01.72 | 2:39.74 | 54147 | 66145
7 | 14:41.71 | 2:32.23 | 66146 | 77568
8 | 17:14.19 | 2:25.72 | 77569 | 88515
9 | 19:40.16 | 2:09.70 | 88516 | 98260
10 | 21:50.11 | 3:00.53 | 98261 | 111813
11 | 24:50.64 | 2:39.64 | 111814 | 123802
12 | 27:30.53 | 2:55.37 | 123803 | 136964
13 | 30:26.15 | 1:38.01 | 136965 | 144315
14 | 32:04.16 | 2:45.01 | 144316 | 156691
15 | 34:49.17 | 2:21.11 | 156692 | 167277
16 | 37:10.28 | 2:31.53 | 167278 | 178655
17 | 39:42.06 | 2:40.64 | 178656 | 190719
18 | 42:22.70 | 1:52.17 | 190720 | 199136
19 | 44:15.12 | 2:12.35 | 199137 | 209071
20 | 46:27.47 | 2:27.23 | 209072 | 220119
21 | 48:54.70 | 3:10.05 | 220120 | 234374
22 | 52:05.00 | 1:40.67 | 234375 | 241941
23 | 53:45.67 | 3:17.62 | 241942 | 256778
24 | 57:03.54 | 2:22.21 | 256779 | 267449
25 | 59:26.00 | 2:55.34 | 267450 | 280608
26 | 62:21.34 | 2:20.47 | 280609 | 291155
27 | 64:42.06 | 3:21.29 | 291156 | 306259
28 | 68:03.35 | 3:14.55 | 306260 | 320864
29 | 71:18.15 | 1:27.18 | 320865 | 327407
30 | 72:45.33 | 1:56.04 | 327408 | 336111
31 | 74:41.37 | 3:07.49 | 336112 | 350185
32 | 77:49.11 | 1:55.64 | 350186 | 358874


Характеристики диапазона извлечения и сообщения об ошибках

Выбранный диапазон

Имя файла C:\Users\Al\Desktop\music\The Vanguards\The Vanguards - Beat On The Rocks 1964-1968.wav

Пиковый уровень 99.2 %
Качество диапазона 100.0 %
CRC копии C9C91D21
Копирование… OK

Ошибок не произошло


AccurateRip: сводка

Трек 1 нет в базе данных
Трек 2 нет в базе данных
Трек 3 нет в базе данных
Трек 4 нет в базе данных
Трек 5 нет в базе данных
Трек 6 нет в базе данных
Трек 7 нет в базе данных
Трек 8 нет в базе данных
Трек 9 нет в базе данных
Трек 10 нет в базе данных
Трек 11 нет в базе данных
Трек 12 нет в базе данных
Трек 13 нет в базе данных
Трек 14 нет в базе данных
Трек 15 нет в базе данных
Трек 16 нет в базе данных
Трек 17 нет в базе данных
Трек 18 нет в базе данных
Трек 19 нет в базе данных
Трек 20 нет в базе данных
Трек 21 нет в базе данных
Трек 22 нет в базе данных
Трек 23 нет в базе данных
Трек 24 нет в базе данных
Трек 25 нет в базе данных
Трек 26 нет в базе данных
Трек 27 нет в базе данных
Трек 28 нет в базе данных
Трек 29 нет в базе данных
Трек 30 нет в базе данных
Трек 31 нет в базе данных
Трек 32 нет в базе данных

Ни одного трека нет в базе AccurateRip

Конец отчёта

All thanks go to the alonzo

More Music in My Blog
Follow My RSS Channel