Subcategories

The Billy Taylor Trio - A Touch Of Taylor (1955) {2013 Japan Prestige 7000 Chronicle SHM-CD HR Cutting Series UCCO-5201}

Posted By: ruskaval
The Billy Taylor Trio - A Touch Of Taylor (1955) {2013 Japan Prestige 7000 Chronicle SHM-CD HR Cutting Series UCCO-5201}

The Billy Taylor Trio - A Touch Of Taylor (1955) {2013 Japan Prestige 7000 Chronicle SHM-CD HR Cutting Series UCCO-5201}
EAC rip (secure mode) | FLAC (tracks)+CUE+LOG -> 117 Mb | MP3 @320 -> 95 Mb
Full Artwork @ 600 dpi (png) -> 351 Mb | 5% repair rar | DSD / HR Cutting Remaster
© 1955, 2013 Prestige / Concord / Universal Japan | UCCO-5201 | Mono | PRLP 7001
Jazz / Bop / Hard Bop / Piano

Reissue features the latest digital remastering and the high-fidelity SHM-CD format (compatible with standard CD player) and the latest DSD / HR Cutting remastering. Comes with a description. Features the original LP designs. A Touch of Taylor is an album by American jazz pianist Billy Taylor recorded in 1955 for the Prestige label. The album was one of the first 12-inch LPs released by the label.
The Billy Taylor Trio - A Touch Of Taylor (1955) {2013 Japan Prestige 7000 Chronicle SHM-CD HR Cutting Series UCCO-5201}

Billy Taylor was such an articulate spokesman for jazz, and his profiles on CBS' Sunday Morning television program (where he was a regular beginning in 1981) were so successful at introducing jazz to a wider audience, that sometimes one could forget what a talented pianist he was for over half a century. While not an innovator, Taylor was flexible enough to play swing, bop, and more advanced styles while always retaining his own musical personality. After graduating from Virginia State College in 1942, he moved to New York and played with such major musicians as Ben Webster, Eddie South, Stuff Smith (with whom he recorded in 1944), and Slam Stewart, among others. In 1951, he was the house pianist at Birdland and soon afterward Taylor formed his first of many trios. He helped found the Jazzmobile in 1965; in 1969 he became the first black band director for a network television series (The David Frost Show); in 1975 he earned his doctorate at the University of Massachusetts; and he both founded and served as director for the popular radio program Jazz Alive. But despite his activities in jazz education, Taylor was rarely absent from performances and recordings, always keeping his bop-based style consistently swinging and fresh. He died of heart failure in New York on December 28, 2010, at the age of 89.
The Billy Taylor Trio - A Touch Of Taylor (1955) {2013 Japan Prestige 7000 Chronicle SHM-CD HR Cutting Series UCCO-5201}


Personnel:
Billy Taylor - piano
Earl May - bass
Percy Brice - drums

Recorded April 10, 1955 Van Gelder Studio, Hackensack, NJ

The Billy Taylor Trio - A Touch Of Taylor (1955) {2013 Japan Prestige 7000 Chronicle SHM-CD HR Cutting Series UCCO-5201}


tracklist:
01 - Ever So Easy
02 - Radioactivity
03 - A Bientot
04 - Long Tom
05 - Day Dreaming
06 - Live It Up
07 - Purple Mood
08 - Early Bird
09 - Blue Cloud
10 - It's A Grand Night For Swinging
11 - Memories Of Spring
12 - Daddy-O

Exact Audio Copy V1.1 from 23. June 2015

EAC extraction logfile from 17. October 2015, 14:14

The Billy Taylor Trio / A Touch Of Taylor

Used drive : TSSTcorpCDDVDW SE-208DB Adapter: 7 ID: 0

Read mode : Secure
Utilize accurate stream : Yes
Defeat audio cache : Yes
Make use of C2 pointers : No

Read offset correction : 6
Overread into Lead-In and Lead-Out : No
Fill up missing offset samples with silence : Yes
Delete leading and trailing silent blocks : No
Null samples used in CRC calculations : Yes
Used interface : Installed external ASPI interface
Gap handling : Appended to previous track

Used output format : User Defined Encoder
Selected bitrate : 1024 kBit/s
Quality : High
Add ID3 tag : No
Command line compressor : C:\Program Files (x86)\FLAC Frontend\tools\flac.exe
Additional command line options : -8 -V -T "ARTIST=%artist%" -T "TITLE=%title%" -T "ALBUM=%albumtitle%" -T "DATE=%year%" -T "TRACKNUMBER=%tracknr%" -T "TOTALTRACKS=%numtracks%" -T "GENRE=%genre%" -T "ALBUMARTIST=%albumartist%" -T "ALBUM ARTIST=%albumartist%" -T "COMMENT=EAC Secure Mode, Test & Copy, AccurateRip, FLAC -8" %source%


TOC of the extracted CD

Track | Start | Length | Start sector | End sector
––––––––––––––––––––––––––––-
1 | 0:00.00 | 3:16.28 | 0 | 14727
2 | 3:16.28 | 3:45.72 | 14728 | 31674
3 | 7:02.25 | 4:19.08 | 31675 | 51107
4 | 11:21.33 | 2:49.70 | 51108 | 63852
5 | 14:11.28 | 3:08.02 | 63853 | 77954
6 | 17:19.30 | 2:50.10 | 77955 | 90714
7 | 20:09.40 | 2:46.05 | 90715 | 103169
8 | 22:55.45 | 3:00.45 | 103170 | 116714
9 | 25:56.15 | 3:37.18 | 116715 | 133007
10 | 29:33.33 | 2:59.15 | 133008 | 146447
11 | 32:32.48 | 3:53.42 | 146448 | 163964
12 | 36:26.15 | 3:14.25 | 163965 | 178539


Track 1

Filename M:\_EAC\The Billy Taylor Trio - A Touch Of Taylor (1955) [FLAC] {2013 Japan Prestige 7000 Chronicle}\01 - Ever So Easy.wav

Pre-gap length 0:00:02.00

Peak level 64.9 %
Extraction speed 2.4 X
Track quality 100.0 %
Test CRC AC4CCEAB
Copy CRC AC4CCEAB
Accurately ripped (confidence 1) [573693F2] (AR v2)
Copy OK

Track 2

Filename M:\_EAC\The Billy Taylor Trio - A Touch Of Taylor (1955) [FLAC] {2013 Japan Prestige 7000 Chronicle}\02 - Radioactivity.wav

Pre-gap length 0:00:02.07

Peak level 88.0 %
Extraction speed 2.8 X
Track quality 100.0 %
Test CRC 48239AB1
Copy CRC 48239AB1
Accurately ripped (confidence 1) [BC96D314] (AR v2)
Copy OK

Track 3

Filename M:\_EAC\The Billy Taylor Trio - A Touch Of Taylor (1955) [FLAC] {2013 Japan Prestige 7000 Chronicle}\03 - A Bientot.wav

Pre-gap length 0:00:03.31

Peak level 65.0 %
Extraction speed 3.1 X
Track quality 100.0 %
Test CRC 168E4FDD
Copy CRC 168E4FDD
Accurately ripped (confidence 1) [BCAB0715] (AR v2)
Copy OK

Track 4

Filename M:\_EAC\The Billy Taylor Trio - A Touch Of Taylor (1955) [FLAC] {2013 Japan Prestige 7000 Chronicle}\04 - Long Tom.wav

Pre-gap length 0:00:02.22

Peak level 94.5 %
Extraction speed 3.1 X
Track quality 100.0 %
Test CRC E9396FBD
Copy CRC E9396FBD
Accurately ripped (confidence 1) [B9422ED3] (AR v2)
Copy OK

Track 5

Filename M:\_EAC\The Billy Taylor Trio - A Touch Of Taylor (1955) [FLAC] {2013 Japan Prestige 7000 Chronicle}\05 - Day Dreaming.wav

Pre-gap length 0:00:03.69

Peak level 53.1 %
Extraction speed 3.3 X
Track quality 100.0 %
Test CRC 03334D5B
Copy CRC 03334D5B
Accurately ripped (confidence 1) [ED1A75F3] (AR v2)
Copy OK

Track 6

Filename M:\_EAC\The Billy Taylor Trio - A Touch Of Taylor (1955) [FLAC] {2013 Japan Prestige 7000 Chronicle}\06 - Live It Up.wav

Pre-gap length 0:00:02.51

Peak level 71.9 %
Extraction speed 3.4 X
Track quality 100.0 %
Test CRC C3739940
Copy CRC C3739940
Accurately ripped (confidence 1) [20FD6F24] (AR v2)
Copy OK

Track 7

Filename M:\_EAC\The Billy Taylor Trio - A Touch Of Taylor (1955) [FLAC] {2013 Japan Prestige 7000 Chronicle}\07 - Purple Mood.wav

Pre-gap length 0:00:02.39

Peak level 61.6 %
Extraction speed 3.5 X
Track quality 100.0 %
Test CRC 52419DE0
Copy CRC 52419DE0
Accurately ripped (confidence 1) [57FA0A2C] (AR v2)
Copy OK

Track 8

Filename M:\_EAC\The Billy Taylor Trio - A Touch Of Taylor (1955) [FLAC] {2013 Japan Prestige 7000 Chronicle}\08 - Early Bird.wav

Pre-gap length 0:00:02.06

Peak level 71.8 %
Extraction speed 2.9 X
Track quality 99.9 %
Test CRC 86634CEF
Copy CRC 86634CEF
Accurately ripped (confidence 1) [D7FE1D37] (AR v2)
Copy OK

Track 9

Filename M:\_EAC\The Billy Taylor Trio - A Touch Of Taylor (1955) [FLAC] {2013 Japan Prestige 7000 Chronicle}\09 - Blue Cloud.wav

Pre-gap length 0:00:02.51

Peak level 57.4 %
Extraction speed 4.0 X
Track quality 100.0 %
Test CRC AFFE9222
Copy CRC AFFE9222
Accurately ripped (confidence 1) [6365D645] (AR v2)
Copy OK

Track 10

Filename M:\_EAC\The Billy Taylor Trio - A Touch Of Taylor (1955) [FLAC] {2013 Japan Prestige 7000 Chronicle}\10 - It's A Grand Night For Swinging.wav

Pre-gap length 0:00:02.42

Peak level 62.2 %
Extraction speed 4.0 X
Track quality 100.0 %
Test CRC 4542A446
Copy CRC 4542A446
Accurately ripped (confidence 1) [EEC97E26] (AR v2)
Copy OK

Track 11

Filename M:\_EAC\The Billy Taylor Trio - A Touch Of Taylor (1955) [FLAC] {2013 Japan Prestige 7000 Chronicle}\11 - Memories Of Spring.wav

Pre-gap length 0:00:02.47

Peak level 67.2 %
Extraction speed 4.3 X
Track quality 100.0 %
Test CRC EDA7DF3B
Copy CRC EDA7DF3B
Accurately ripped (confidence 1) [39F685D9] (AR v2)
Copy OK

Track 12

Filename M:\_EAC\The Billy Taylor Trio - A Touch Of Taylor (1955) [FLAC] {2013 Japan Prestige 7000 Chronicle}\12 - Daddy-O.wav

Pre-gap length 0:00:02.11

Peak level 73.8 %
Extraction speed 4.3 X
Track quality 100.0 %
Test CRC A44AB280
Copy CRC A44AB280
Accurately ripped (confidence 1) [E7874DD8] (AR v2)
Copy OK


All tracks accurately ripped

No errors occurred

End of status report

==== Log checksum 2D4231011B71D6E68B23ACDA3EF845A081DF4454D3027BDC2B56C5B4152CB822 ====


The Billy Taylor Trio - A Touch Of Taylor (1955) {2013 Japan Prestige 7000 Chronicle SHM-CD HR Cutting Series UCCO-5201}

The Billy Taylor Trio - A Touch Of Taylor (1955) {2013 Japan Prestige 7000 Chronicle SHM-CD HR Cutting Series UCCO-5201}


More Japan Prestige 7000 Chronicle SHM-CD HR Cutting Series…


===