Subcategories

The Charlie Daniels Band - Land That I Love (2010)

Posted By: thingska
The Charlie Daniels Band - Land That I Love (2010)

The Charlie Daniels Band - Land That I Love (2010)
EAC-Rip | APE-image +cue +log +Scans | August 10, 2010 | ~393 MB
Genre: Country | Label: Blue Hat | Fserve, Fsonic

Rounding up patriotic cuts, the Charlie Daniels Band has recorded for Blue Hat over the past decade or so – mainly re-recordings of standards or older CDB hits, such as "Simple Man" and "Still in Saigon," although it also has the rabble-rousing "This Ain't No Rag, It's a Flag" from the early days of the Iraq war, all culled from his 2003 album Freedom and Justice for All – The Land That I Love also adds the brand-new, self-explanatory "Iraq Blues," along with a remake of "(What the World Needs Is) A Few More Rednecks" for good measure. This may not be a great enticement for the fan who already owns everything featured here, but it surely adds a bit of modern patriotic fervor to a collection designed for the reddest of the red states. The remakes aren't as good as the originals – and the recitations are quite heavy-handed – but The Land That I Love delivers what it promises, no more and no less.

~ Stephen Thomas Erlewine
Tracklist:

01. My Beautiful America [0:03:53.57]
02. America, I Believe In You [0:04:34.50]
03. American Farmer [0:03:47.32]
04. Let Freedom Ring [0:05:10.36]
05. (What This World Needs Is) A Few More Rednecks [0:03:40.09]
06. This Ain't No Rag, It's A Flag [0:03:35.60]
07. Still In Saigon [0:04:00.36]
08. Last Fallen Hero [0:04:04.41]
09. In America [0:03:23.08]
10. Star Spangled Banner [0:01:50.40]
11. Freedom And Justice For All [0:04:28.12]
12. Iraq Blues [0:04:18.84]
13. Simple Man [0:03:37.70]
14. Red Skelton's Pledge Of Allegiance [0:02:42.49]
15. Summer Of 68 [0:04:30.52]

Exact Audio Copy V0.99 prebeta 4 from 23. January 2008

Отчёт EAC об извлечении, выполненном 25. сентября 2010, 21:05

The Charlie Daniels Band / Land That I Love

Дисковод: PLEXTOR DVDR PX-820A Adapter: 3 ID: 1

Режим чтения : Достоверность
Использование точного потока : Да
Отключение кэша аудио : Да
Использование указателей C2 : Нет

Коррекция смещения при чтении : 48
Способность читать области Lead-in и Lead-out : Нет
Заполнение пропущенных сэмплов тишиной : Да
Удаление блоков с тишиной в начале и конце : Нет
При вычислениях CRC использовались нулевые сэмплы : Да
Интерфейс : Встроенный Win32-интерфейс для Win NT/2000

Выходной формат : Внутренние WAV-операции
Формат сэмплов : 44.100 Гц; 16 бит; стерео

TOC извлечённого CD

Трек | Старт | Длительность | Начальный сектор | Конечный сектор
––––––––––––––––––––––––––––––––––-
1 | 0:00.00 | 3:53.43 | 0 | 17517
2 | 3:53.43 | 4:34.38 | 17518 | 38105
3 | 8:28.06 | 3:47.24 | 38106 | 55154
4 | 12:15.30 | 5:10.27 | 55155 | 78431
5 | 17:25.57 | 3:40.07 | 78432 | 94938
6 | 21:05.64 | 3:35.45 | 94939 | 111108
7 | 24:41.34 | 4:00.27 | 111109 | 129135
8 | 28:41.61 | 4:04.31 | 129136 | 147466
9 | 32:46.17 | 3:23.06 | 147467 | 162697
10 | 36:09.23 | 1:50.30 | 162698 | 170977
11 | 37:59.53 | 4:28.09 | 170978 | 191086
12 | 42:27.62 | 4:18.63 | 191087 | 210499
13 | 46:46.50 | 3:37.53 | 210500 | 226827
14 | 50:24.28 | 2:42.37 | 226828 | 239014
15 | 53:06.65 | 4:30.39 | 239015 | 259303

Характеристики диапазона извлечения и сообщения об ошибках

Выбранный диапазон

Имя файла D:\КОЛЛЕКЦИЯ 01\THE CLARIE DANIELS BAND\The Charlie Daniels Band - Land That I Love.wav

Пиковый уровень 97.6 %
Качество диапазона 100.0 %
CRC копии AD4837D8
Копирование… OK

Ошибок не произошло

AccurateRip: сводка

Трек 1 нет в базе данных
Трек 2 нет в базе данных
Трек 3 нет в базе данных
Трек 4 нет в базе данных
Трек 5 нет в базе данных
Трек 6 нет в базе данных
Трек 7 нет в базе данных
Трек 8 нет в базе данных
Трек 9 нет в базе данных
Трек 10 нет в базе данных
Трек 11 нет в базе данных
Трек 12 нет в базе данных
Трек 13 нет в базе данных
Трек 14 нет в базе данных
Трек 15 нет в базе данных

Ни одного трека нет в базе AccurateRip

Конец отчёта

Download The Charlie Daniels Band - Land That I Love (2010):

Fileserve.com:
Part 1 | Part 2

Filesonic.com:
Part 1 | Part 2

Pass: avaxhome.ws

All thanks go to the original Publicist "ЗУБ2007"

If you'll find that my links are dead please let me know through the Private Messages.

Please DO NOT MIRROR