Subcategories

The Church - Forget Yourself (2003) {Cooking Vinyl - COOKCD264}

Posted By: ruskaval
The Church - Forget Yourself (2003) {Cooking Vinyl - COOKCD264}

The Church - Forget Yourself (2003) {Cooking Vinyl - COOKCD264}
EAC rip (secure mode) | FLAC (tracks)+CUE+LOG -> 437 Mb | MP3 @320 -> 151 Mb
Full Artwork @ 300 dpi (png) -> 49 Mb | 5% repair rar
© 2003 Cooking Vinyl | COOKCD264
Rock / Neo-Psychedelia / Alternative / Indie

With label woes, a rotation of drummers, and Stateside disinterest, the 1990s were difficult for the Church. Tough enough that most would have expected the veteran Australian rock act – cursed in North America as a one-hit wonder for 1988's "Under the Milky Way," despite an impressive catalog that dates back to 1981 – to throw it all away by now, or at least cash in through some nostalgia tour. Not so. Instead, the quartet took to the studio for three months, jamming with one another unhindered, and then piecing together the fruits of their labor. The resulting Forget Yourself, the Church's 17th album, is a timeless, magical disc that is easily as strong as anything from their 1980s peak.

The group's most notable trademarks – Steve Kilbey's distinctively deep, resonant voice, and Marty Willson-Piper's shimmering guitar roar – are immediately audible on tracks like the stuttering, melodic "Sealine," and the dreamy "Song in Space." As Forget Yourself evolves, however, the real brilliance peeks through on lush numbers like "Telepath," "Maya," and "June," all boasting the ethereal moments that made early discs like Remote Luxury and Heyday fan favorites. That's not to say the brooding drama of "The Theatre and Its Double" gets the group off course, but there are enough super tunes here ("Don't You Fall" and "I Kept Everything" are some more) to tag their latest a tremendous return to form.
The Church - Forget Yourself (2003) {Cooking Vinyl - COOKCD264}


Musicians

Steve Kilbey – lead vocals, bass guitar, keyboards, guitar
Peter Koppes – guitars, keyboards, bass guitar, backing vocals
Tim Powles – drums, percussion, backing vocals, guitar
Marty Willson-Piper – guitars, bass guitar, backing vocals, drums

Track Listing

01 - Sealine
02 - Song In Space
03 - The Theatre And Its Double
04 - Telepath
05 - See Your Lights
06 - Lay Low
07 - Maya
08 - Appalatia
09 - June
10 - Don't You Fall
11 - I Kept Everything
12 - Nothing Seeker
13 - Reversal
14 - Summer

Exact Audio Copy V1.1 from 23. June 2015

EAC extraction logfile from 15. July 2016, 23:34

The Church / Forget Yourself

Used drive : TSSTcorpCDDVDW SH-224DB Adapter: 1 ID: 0

Read mode : Secure
Utilize accurate stream : Yes
Defeat audio cache : Yes
Make use of C2 pointers : No

Read offset correction : 6
Overread into Lead-In and Lead-Out : No
Fill up missing offset samples with silence : Yes
Delete leading and trailing silent blocks : No
Null samples used in CRC calculations : Yes
Used interface : Native Win32 interface for Win NT & 2000
Gap handling : Appended to previous track

Used output format : User Defined Encoder
Selected bitrate : 896 kBit/s
Quality : High
Add ID3 tag : No
Command line compressor : C:\Program Files (x86)\Exact Audio Copy\Flac\flac.exe
Additional command line options : -8 -V -T "ARTIST=%artist%" -T "TITLE=%title%" -T "ALBUM=%albumtitle%" -T "DATE=%year%" -T "TRACKNUMBER=%tracknr%" -T "TOTALTRACKS=%numtracks%" -T "GENRE=%genre%" -T "ALBUMARTIST=%albumartist%" -T "ALBUM ARTIST=%albumartist%" -T "COMMENT=EAC Secure Mode, Test & Copy, AccurateRip, FLAC -8" %source%


TOC of the extracted CD

Track | Start | Length | Start sector | End sector
––––––––––––––––––––––––––––-
1 | 0:00.00 | 5:06.19 | 0 | 22968
2 | 5:06.19 | 5:24.08 | 22969 | 47276
3 | 10:30.27 | 4:34.63 | 47277 | 67889
4 | 15:05.15 | 4:56.00 | 67890 | 90089
5 | 20:01.15 | 4:14.14 | 90090 | 109153
6 | 24:15.29 | 4:13.24 | 109154 | 128152
7 | 28:28.53 | 3:45.68 | 128153 | 145095
8 | 32:14.46 | 4:09.01 | 145096 | 163771
9 | 36:23.47 | 4:05.46 | 163772 | 182192
10 | 40:29.18 | 3:10.14 | 182193 | 196456
11 | 43:39.32 | 4:01.64 | 196457 | 214595
12 | 47:41.21 | 4:22.47 | 214596 | 234292
13 | 52:03.68 | 4:41.44 | 234293 | 255411
14 | 56:45.37 | 7:02.40 | 255412 | 287101


Track 1

Filename E:\Musica\The Church\The Church - Forget Yourself (2003) [FLAC]\01 - Sealine.wav

Pre-gap length 0:00:02.00

Peak level 94.8 %
Extraction speed 1.8 X
Track quality 100.0 %
Test CRC BD6B66DE
Copy CRC BD6B66DE
Accurately ripped (confidence 5) [D358D67D] (AR v2)
Copy OK

Track 2

Filename E:\Musica\The Church\The Church - Forget Yourself (2003) [FLAC]\02 - Song In Space.wav

Peak level 97.7 %
Extraction speed 2.0 X
Track quality 100.0 %
Test CRC DC68D7F7
Copy CRC DC68D7F7
Accurately ripped (confidence 5) [A823231E] (AR v2)
Copy OK

Track 3

Filename E:\Musica\The Church\The Church - Forget Yourself (2003) [FLAC]\03 - The Theatre And Its Double.wav

Peak level 92.7 %
Extraction speed 2.2 X
Track quality 100.0 %
Test CRC 9AA1A801
Copy CRC 9AA1A801
Accurately ripped (confidence 5) [F0577CF5] (AR v2)
Copy OK

Track 4

Filename E:\Musica\The Church\The Church - Forget Yourself (2003) [FLAC]\04 - Telepath.wav

Pre-gap length 0:00:01.08

Peak level 97.1 %
Extraction speed 2.4 X
Track quality 100.0 %
Test CRC 8156AB5A
Copy CRC 8156AB5A
Accurately ripped (confidence 5) [177F1436] (AR v2)
Copy OK

Track 5

Filename E:\Musica\The Church\The Church - Forget Yourself (2003) [FLAC]\05 - See Your Lights.wav

Peak level 93.1 %
Extraction speed 2.5 X
Track quality 100.0 %
Test CRC D75914C1
Copy CRC D75914C1
Accurately ripped (confidence 5) [FB4D84DC] (AR v2)
Copy OK

Track 6

Filename E:\Musica\The Church\The Church - Forget Yourself (2003) [FLAC]\06 - Lay Low.wav

Peak level 91.1 %
Extraction speed 2.2 X
Track quality 99.9 %
Test CRC 08DCAE31
Copy CRC 08DCAE31
Accurately ripped (confidence 5) [50CE34B8] (AR v2)
Copy OK

Track 7

Filename E:\Musica\The Church\The Church - Forget Yourself (2003) [FLAC]\07 - Maya.wav

Pre-gap length 0:00:01.56

Peak level 96.3 %
Extraction speed 2.8 X
Track quality 100.0 %
Test CRC DA489E8E
Copy CRC DA489E8E
Accurately ripped (confidence 4) [DC2795CB] (AR v2)
Copy OK

Track 8

Filename E:\Musica\The Church\The Church - Forget Yourself (2003) [FLAC]\08 - Appalatia.wav

Pre-gap length 0:00:03.42

Peak level 97.2 %
Extraction speed 2.4 X
Track quality 99.9 %
Test CRC 6B1E348A
Copy CRC 6B1E348A
Accurately ripped (confidence 5) [BC2E05EE] (AR v2)
Copy OK

Track 9

Filename E:\Musica\The Church\The Church - Forget Yourself (2003) [FLAC]\09 - June.wav

Peak level 91.5 %
Extraction speed 3.0 X
Track quality 100.0 %
Test CRC C12C3D5D
Copy CRC C12C3D5D
Accurately ripped (confidence 5) [90BE34AA] (AR v2)
Copy OK

Track 10

Filename E:\Musica\The Church\The Church - Forget Yourself (2003) [FLAC]\10 - Don't You Fall.wav

Peak level 93.3 %
Extraction speed 3.0 X
Track quality 100.0 %
Test CRC 39F26185
Copy CRC 39F26185
Accurately ripped (confidence 5) [E797E797] (AR v2)
Copy OK

Track 11

Filename E:\Musica\The Church\The Church - Forget Yourself (2003) [FLAC]\11 - I Kept Everything.wav

Peak level 96.9 %
Extraction speed 3.1 X
Track quality 100.0 %
Test CRC D9774264
Copy CRC D9774264
Accurately ripped (confidence 5) [E615FC70] (AR v2)
Copy OK

Track 12

Filename E:\Musica\The Church\The Church - Forget Yourself (2003) [FLAC]\12 - Nothing Seeker.wav

Peak level 97.7 %
Extraction speed 2.7 X
Track quality 99.9 %
Test CRC EA2DB5CF
Copy CRC EA2DB5CF
Accurately ripped (confidence 5) [9EF9689A] (AR v2)
Copy OK

Track 13

Filename E:\Musica\The Church\The Church - Forget Yourself (2003) [FLAC]\13 - Reversal.wav

Peak level 95.7 %
Extraction speed 3.5 X
Track quality 100.0 %
Test CRC D3D18E24
Copy CRC D3D18E24
Accurately ripped (confidence 5) [9C38A5EA] (AR v2)
Copy OK

Track 14

Filename E:\Musica\The Church\The Church - Forget Yourself (2003) [FLAC]\14 - Summer.wav

Pre-gap length 0:00:01.35

Peak level 95.4 %
Extraction speed 3.7 X
Track quality 100.0 %
Test CRC 18CAF83B
Copy CRC 18CAF83B
Accurately ripped (confidence 5) [0DA15A8B] (AR v2)
Copy OK


All tracks accurately ripped

No errors occurred

End of status report

–– CUETools DB Plugin V2.1.6

[CTDB TOCID: t_rXZOFkLWHeK8sXaCfGrLnK3MY-] found
Submit result: t_rXZOFkLWHeK8sXaCfGrLnK3MY- has been confirmed
Track | CTDB Status
1 | ( 5/24) Accurately ripped
2 | ( 5/24) Accurately ripped
3 | ( 5/24) Accurately ripped
4 | ( 5/24) Accurately ripped
5 | ( 5/24) Accurately ripped
6 | ( 5/24) Accurately ripped
7 | ( 5/24) Accurately ripped
8 | ( 5/24) Accurately ripped
9 | ( 5/24) Accurately ripped
10 | ( 5/24) Accurately ripped
11 | ( 5/24) Accurately ripped
12 | ( 5/24) Accurately ripped
13 | ( 5/24) Accurately ripped
14 | ( 5/24) Accurately ripped


==== Log checksum 0805E0237C78E01FCC6A9B87B9961960548CE2D04A0742D19385BD42673FBAE4 ====


The Church - Forget Yourself (2003) {Cooking Vinyl - COOKCD264}

The Church - Forget Yourself (2003) {Cooking Vinyl - COOKCD264}


see more The Church…


===