Subcategories

The Flaming Lips - Scratching The Door: The First Recordings Of The Flaming Lips (2018)

Posted By: delpotro
The Flaming Lips - Scratching The Door: The First Recordings Of The Flaming Lips (2018)

The Flaming Lips - Scratching The Door: The First Recordings Of The Flaming Lips (2018)
EAC Rip | FLAC (tracks+log+.cue) - 539 Mb | MP3 CBR 320 kbps - 171 Mb | 01:13:56
Alternative Rock, Psychedelic | Label: Rykodisc, Rhino Entertainment

SCRATCHING THE DOOR highlights tracks recorded by The Flaming Lips’ original line-up, which featured Wayne Coyne’s brother Mark on vocals. The album includes the band’s first and second cassette demos, in addition to The Flaming Lips first self-released EP, and marks the first time all of these recordings have been collected together on a single release. Among the other featured tracks are covers of The Who’s “Anyway, Anyhow, Anywhere,” Led Zeppelin’s “Communication Breakdown” and the theme song from the 1960’s Batman television series, which previously appeared on Rykodisc’s 2002 compilation, Finally The Punk Rockers Are Taking Acid.
Tracklist:
Self Titled EP (1984)
1 Bag Full Of Thoughts
2 Out For A Walk
3 Garden Of Eyes
4 Forever Is A Long Time
5 Scratching The Door
6 My Own Planet

1st Cassette Demo (1983)
7 Killer On The Radio
8 Batman Theme
9 Anyway, Anyhow, Anywhere
10 Handsome Johnny

2nd Cassette Demo (1983)
11 Flaming Lips Theme Song
12 The Future Is Gone
13 Underground Pharmacist
14 Real Fast Words

Hear It Is Demos
15 Groove Room
16 Jesus Shooting Heroin
17 Trains, Brains & Rain
18 Communication Breakdown

Hear It Is Session Outtake
19 Summertime Blues

Exact Audio Copy V1.3 from 2. September 2016

EAC extraction logfile from 23. April 2018, 21:08

Bishop Briggs / Church Of Scars

Used drive : HL-DT-STDVD+-RW GU90N Adapter: 1 ID: 0

Read mode : Secure
Utilize accurate stream : Yes
Defeat audio cache : Yes
Make use of C2 pointers : No

Read offset correction : 102
Overread into Lead-In and Lead-Out : No
Fill up missing offset samples with silence : Yes
Delete leading and trailing silent blocks : No
Null samples used in CRC calculations : Yes
Used interface : Native Win32 interface for Win NT & 2000
Gap handling : Appended to previous track

Used output format : User Defined Encoder
Selected bitrate : 768 kBit/s
Quality : High
Add ID3 tag : No
Command line compressor : C:\Program Files (x86)\Exact Audio Copy\FLAC\FLAC.EXE
Additional command line options : -6 -V -T "ARTIST=%artist%" -T "TITLE=%title%" -T "ALBUM=%albumtitle%" -T "DATE=%year%" -T "TRACKNUMBER=%tracknr%" -T "GENRE=%genre%" -T "COMMENT=%comment%" -T "BAND=%albuminterpret%" -T "ALBUMARTIST=%albuminterpret%" -T "COMPOSER=%composer%" %haslyrics%–tag-from-file=LYRICS="%lyricsfile%"%haslyrics% -T "DISCNUMBER=%cdnumber%" -T "TOTALDISCS=%totalcds%" -T "TOTALTRACKS=%numtracks%" %hascover%–picture="%coverfile%"%hascover% %source% -o %dest%


TOC of the extracted CD

Track | Start | Length | Start sector | End sector
––––––––––––––––––––––––––––-
1 | 0:00.00 | 3:13.74 | 0 | 14548
2 | 3:13.74 | 3:36.10 | 14549 | 30758
3 | 6:50.09 | 3:06.49 | 30759 | 44757
4 | 9:56.58 | 3:50.44 | 44758 | 62051
5 | 13:47.27 | 3:14.72 | 62052 | 76673
6 | 17:02.24 | 3:09.37 | 76674 | 90885
7 | 20:11.61 | 2:54.11 | 90886 | 103946
8 | 23:05.72 | 3:21.63 | 103947 | 119084
9 | 26:27.60 | 3:03.13 | 119085 | 132822
10 | 29:30.73 | 4:11.71 | 132823 | 151718
11 | 33:42.69 | 2:48.23 | 151719 | 164341
12 | 36:31.17 | 3:27.23 | 164342 | 179889


Track 1

Filename C:\Users\Jason\Music\Bishop Briggs\Church Of Scars\01 Tempt My Trouble.wav

Pre-gap length 0:00:02.00

Peak level 98.9 %
Extraction speed 2.4 X
Track quality 100.0 %
Test CRC 3EDF7080
Copy CRC 3EDF7080
Track not present in AccurateRip database
Copy OK

Track 2

Filename C:\Users\Jason\Music\Bishop Briggs\Church Of Scars\02 River.wav

Peak level 98.9 %
Extraction speed 2.2 X
Track quality 99.9 %
Test CRC 148DD164
Copy CRC 148DD164
Track not present in AccurateRip database
Copy OK

Track 3

Filename C:\Users\Jason\Music\Bishop Briggs\Church Of Scars\03 Lyin'.wav

Peak level 98.9 %
Extraction speed 2.4 X
Track quality 100.0 %
Test CRC 151D3467
Copy CRC 151D3467
Track not present in AccurateRip database
Copy OK

Track 4

Filename C:\Users\Jason\Music\Bishop Briggs\Church Of Scars\04 White Flag.wav

Peak level 88.2 %
Extraction speed 3.1 X
Track quality 100.0 %
Test CRC AEF49FBB
Copy CRC AEF49FBB
Track not present in AccurateRip database
Copy OK

Track 5

Filename C:\Users\Jason\Music\Bishop Briggs\Church Of Scars\05 Dream.wav

Peak level 98.9 %
Extraction speed 3.3 X
Track quality 100.0 %
Test CRC DBF7CC03
Copy CRC DBF7CC03
Track not present in AccurateRip database
Copy OK

Track 6

Filename C:\Users\Jason\Music\Bishop Briggs\Church Of Scars\06 Wild Horses.wav

Peak level 98.8 %
Extraction speed 3.4 X
Track quality 100.0 %
Test CRC 87A338E2
Copy CRC 87A338E2
Track not present in AccurateRip database
Copy OK

Track 7

Filename C:\Users\Jason\Music\Bishop Briggs\Church Of Scars\07 Hallowed Ground.wav

Peak level 98.9 %
Extraction speed 3.5 X
Track quality 100.0 %
Test CRC 03C7A3AC
Copy CRC 03C7A3AC
Track not present in AccurateRip database
Copy OK

Track 8

Filename C:\Users\Jason\Music\Bishop Briggs\Church Of Scars\08 Water.wav

Peak level 98.9 %
Extraction speed 2.9 X
Track quality 99.9 %
Test CRC 64883AFB
Copy CRC 64883AFB
Track not present in AccurateRip database
Copy OK

Track 9

Filename C:\Users\Jason\Music\Bishop Briggs\Church Of Scars\09 The Fire.wav

Peak level 98.8 %
Extraction speed 3.6 X
Track quality 100.0 %
Test CRC 7984565B
Copy CRC 7984565B
Track not present in AccurateRip database
Copy OK

Track 10

Filename C:\Users\Jason\Music\Bishop Briggs\Church Of Scars\10 Hi-lo ( Hollow).wav

Peak level 98.9 %
Extraction speed 3.7 X
Track quality 100.0 %
Test CRC 7E1BA5A1
Copy CRC 7E1BA5A1
Track not present in AccurateRip database
Copy OK

Track 11

Filename C:\Users\Jason\Music\Bishop Briggs\Church Of Scars\11 Hold On.wav

Peak level 98.9 %
Extraction speed 2.9 X
Track quality 99.9 %
Test CRC D85CFB01
Copy CRC D85CFB01
Track not present in AccurateRip database
Copy OK

Track 12

Filename C:\Users\Jason\Music\Bishop Briggs\Church Of Scars\12 Dream (Noah Neiman Remix).wav

Peak level 98.9 %
Extraction speed 4.1 X
Track quality 100.0 %
Test CRC 4A8E907D
Copy CRC 4A8E907D
Track not present in AccurateRip database
Copy OK


None of the tracks are present in the AccurateRip database

No errors occurred

End of status report

–– CUETools DB Plugin V2.1.6

[CTDB TOCID: a5EKjCAkUIFwLYy2u0faN75GmBI-] found
Submit result: a5EKjCAkUIFwLYy2u0faN75GmBI- has been confirmed
Track | CTDB Status
1 | (1/1) Accurately ripped
2 | (1/1) Accurately ripped
3 | (1/1) Accurately ripped
4 | (1/1) Accurately ripped
5 | (1/1) Accurately ripped
6 | (1/1) Accurately ripped
7 | (1/1) Accurately ripped
8 | (1/1) Accurately ripped
9 | (1/1) Accurately ripped
10 | (1/1) Accurately ripped
11 | (1/1) Accurately ripped
12 | (1/1) Accurately ripped


==== Log checksum 69E20E586331C06DA9D9A50D2CE1D4238766C65064DDE0A6922E385B43964D1F ====

Thanks to the Original ripper lemmy !