Subcategories

The Giallos Flame - Violent Professionals (2008) {Analog Screams Records AS001}

Posted By: ruskaval
The Giallos Flame - Violent Professionals (2008) {Analog Screams Records AS001}

The Giallos Flame - Violent Professionals (2008) {Analog Screams Records AS001}
EAC rip (secure mode) | FLAC (tracks)+CUE+LOG -> 232 Mb | MP3 @320 -> 89 Mb
Full Artwork @ 600 dpi (jpg) -> 19 Mb | 5% repair rar
© 2009 Analog Screams Records | AS001
Psychedelic Rock / Progressive Rock / Giallo Music / Instrumental

The Giallos Flame is a musical group specializing in Giallo Music. Their music has been featured in several low-budget horror films including Murder-Set-Pieces, Easter Bunny, Kill! Kill!, Black Devil Doll, Psycho Holocaust and The Black Box. As their name suggests, the band's music is heavily influenced by the giallo genre of Italian horror films as well as American grindhouse cinema that was produced during the 1970s. This UK-based band is led by multi-instrumentalist Ron Graham and was formed in 2001.
The Giallos Flame - Violent Professionals (2008) {Analog Screams Records AS001}


tracklist:
1. Italia Violenta
2. Mean Streets
3. Death Walks At Midnight
4. Life Of A Cop
5. Live Like A Cop, Die Like A Man
6. Lovelock N Load
7. Giallos Flames
8. Nightmare City
9. Napoli By Night
10. Crime Story
11. The Killer Must Kill Again
12. Vultures
13. Violent Professionals

Exact Audio Copy V1.0 beta 6 from 9. April 2015

EAC extraction logfile from 4. August 2016, 16:12

Giallos Flame, The / Violent Professionals

Used drive : hp DVD A DH16AAL Adapter: 1 ID: 0

Read mode : Secure
Utilize accurate stream : Yes
Defeat audio cache : Yes
Make use of C2 pointers : No

Read offset correction : 6
Overread into Lead-In and Lead-Out : No
Fill up missing offset samples with silence : Yes
Delete leading and trailing silent blocks : No
Null samples used in CRC calculations : Yes
Used interface : Native Win32 interface for Win NT & 2000
Gap handling : Appended to previous track

Used output format : User Defined Encoder
Selected bitrate : 256 kBit/s
Quality : High
Add ID3 tag : No
Command line compressor : C:\Program Files (x86)\Exact Audio Copy\FLAC\FLAC.EXE
Additional command line options : -8 -V -T "ARTIST=%artist%" -T "TITLE=%title%" -T "ALBUM=%albumtitle%" -T "DATE=%year%" -T "TRACKNUMBER=%tracknr%" -T "TOTALTRACKS=%numtracks%" -T "GENRE=%genre%" -T "ALBUMARTIST=%albumartist%" -T "ALBUM ARTIST=%albumartist%" -T "COMMENT=EAC Secure Mode, Test & Copy, AccurateRip, FLAC -8" %source%


TOC of the extracted CD

Track | Start | Length | Start sector | End sector
––––––––––––––––––––––––––––-
1 | 0:00.00 | 3:35.34 | 0 | 16158
2 | 3:35.34 | 3:07.32 | 16159 | 30215
3 | 6:42.66 | 2:33.15 | 30216 | 41705
4 | 9:16.06 | 3:06.61 | 41706 | 55716
5 | 12:22.67 | 2:38.12 | 55717 | 67578
6 | 15:01.04 | 2:05.71 | 67579 | 77024
7 | 17:07.00 | 4:41.14 | 77025 | 98113
8 | 21:48.14 | 2:16.42 | 98114 | 108355
9 | 24:04.56 | 3:09.42 | 108356 | 122572
10 | 27:14.23 | 2:39.20 | 122573 | 134517
11 | 29:53.43 | 2:08.73 | 134518 | 144190
12 | 32:02.41 | 3:09.23 | 144191 | 158388
13 | 35:11.64 | 3:02.66 | 158389 | 172104


Track 1

Filename E:\Rips from my CD Collection\The Giallos Flame - Violent Professionals (2007)[FLAC] (Analog Screams Records)\01 - Italia Violenta.wav

Pre-gap length 0:00:02.00

Peak level 97.7 %
Extraction speed 3.0 X
Track quality 99.9 %
Test CRC 48CAC0B7
Copy CRC 48CAC0B7
Track not present in AccurateRip database
Copy OK

Track 2

Filename E:\Rips from my CD Collection\The Giallos Flame - Violent Professionals (2007)[FLAC] (Analog Screams Records)\02 - Mean Streets.wav

Peak level 100.0 %
Extraction speed 4.0 X
Track quality 100.0 %
Test CRC 1F12F214
Copy CRC 1F12F214
Track not present in AccurateRip database
Copy OK

Track 3

Filename E:\Rips from my CD Collection\The Giallos Flame - Violent Professionals (2007)[FLAC] (Analog Screams Records)\03 - Death Walks At Midnight.wav

Peak level 97.7 %
Extraction speed 4.0 X
Track quality 100.0 %
Test CRC 36CD741F
Copy CRC 36CD741F
Track not present in AccurateRip database
Copy OK

Track 4

Filename E:\Rips from my CD Collection\The Giallos Flame - Violent Professionals (2007)[FLAC] (Analog Screams Records)\04 - Life Of A Cop.wav

Peak level 97.7 %
Extraction speed 4.3 X
Track quality 100.0 %
Test CRC 11D480F3
Copy CRC 11D480F3
Track not present in AccurateRip database
Copy OK

Track 5

Filename E:\Rips from my CD Collection\The Giallos Flame - Violent Professionals (2007)[FLAC] (Analog Screams Records)\05 - Live Like A Cop, Die Like A Man.wav

Peak level 97.7 %
Extraction speed 4.4 X
Track quality 100.0 %
Test CRC A55DD879
Copy CRC A55DD879
Track not present in AccurateRip database
Copy OK

Track 6

Filename E:\Rips from my CD Collection\The Giallos Flame - Violent Professionals (2007)[FLAC] (Analog Screams Records)\06 - Lovelock 'N' Load.wav

Peak level 97.7 %
Extraction speed 4.4 X
Track quality 100.0 %
Test CRC 1EB09132
Copy CRC 1EB09132
Track not present in AccurateRip database
Copy OK

Track 7

Filename E:\Rips from my CD Collection\The Giallos Flame - Violent Professionals (2007)[FLAC] (Analog Screams Records)\07 - Giallos Flames.wav

Peak level 97.7 %
Extraction speed 4.3 X
Track quality 99.9 %
Test CRC 1FFA8AB7
Copy CRC 1FFA8AB7
Track not present in AccurateRip database
Copy OK

Track 8

Filename E:\Rips from my CD Collection\The Giallos Flame - Violent Professionals (2007)[FLAC] (Analog Screams Records)\08 - Nightmare City.wav

Peak level 97.7 %
Extraction speed 4.8 X
Track quality 100.0 %
Test CRC 441CC303
Copy CRC 441CC303
Track not present in AccurateRip database
Copy OK

Track 9

Filename E:\Rips from my CD Collection\The Giallos Flame - Violent Professionals (2007)[FLAC] (Analog Screams Records)\09 - Napoli By Night.wav

Peak level 97.7 %
Extraction speed 4.0 X
Track quality 99.9 %
Test CRC 0F352A03
Copy CRC 0F352A03
Track not present in AccurateRip database
Copy OK

Track 10

Filename E:\Rips from my CD Collection\The Giallos Flame - Violent Professionals (2007)[FLAC] (Analog Screams Records)\10 - Crime Story.wav

Peak level 100.0 %
Extraction speed 5.3 X
Track quality 100.0 %
Test CRC 80DE9206
Copy CRC 80DE9206
Track not present in AccurateRip database
Copy OK

Track 11

Filename E:\Rips from my CD Collection\The Giallos Flame - Violent Professionals (2007)[FLAC] (Analog Screams Records)\11 - The Killer Must Kill Again.wav

Peak level 97.7 %
Extraction speed 5.1 X
Track quality 100.0 %
Test CRC 07E1453F
Copy CRC 07E1453F
Track not present in AccurateRip database
Copy OK

Track 12

Filename E:\Rips from my CD Collection\The Giallos Flame - Violent Professionals (2007)[FLAC] (Analog Screams Records)\12 - Vultures.wav

Peak level 97.7 %
Extraction speed 5.7 X
Track quality 100.0 %
Test CRC 9A9C0C34
Copy CRC 9A9C0C34
Track not present in AccurateRip database
Copy OK

Track 13

Filename E:\Rips from my CD Collection\The Giallos Flame - Violent Professionals (2007)[FLAC] (Analog Screams Records)\13 - Violent Professionals.wav

Peak level 97.7 %
Extraction speed 5.7 X
Track quality 100.0 %
Test CRC 3592B291
Copy CRC 3592B291
Track not present in AccurateRip database
Copy OK


None of the tracks are present in the AccurateRip database

No errors occurred

End of status report

–– CUETools DB Plugin V2.1.6

[CTDB TOCID: 8EVC6TSwuVk5ln5WE.rkXlDtQ6Q-] disk not present in database
Submit result: 8EVC6TSwuVk5ln5WE.rkXlDtQ6Q- has been uploaded


==== Log checksum AAE7CC1A6F90263343D28F686F234E62D4AB1548E5ED6E92864192C6C1E3353F ====


The Giallos Flame - Violent Professionals (2008) {Analog Screams Records AS001}

The Giallos Flame - Violent Professionals (2008) {Analog Screams Records AS001}


All thanks goes to the original releaser!


===