Subcategories

The Great Jazz Trio - The Great Jazz Trio From L.A. (1977)

Posted By: Bezz
The Great Jazz Trio - The Great Jazz Trio From L.A. (1977)

The Great Jazz Trio - The Great Jazz Trio From L.A. (1977)
EAC rip | FLAC+CUE+LOG | Scans | 170 Mb (Incl. Recovery)
Genre ~ Cool, Post-Bop | Label ~ Nippon Phonogram

Despite a frequent change of supporting players, pianist Hank Jones always produces rewarding sessions when he leads the Great Jazz Trio in a studio date . On the 1977 Great Jazz Trio Direct From L.A. disc made for the Japanese label East Wind, premier sidemen Ron Carter and Tony Williams are on hand. Right away Jones signals that he is in a playful mood, using Tchaikovsky's "Arabian Dance" (from The Nutcracker) to introduce and close a cooking rendition of "A Night in Tunisia." The treatment of "'Round About Midnight" is more straightforward, though Jones' style adds an elegant touch. His off-kilter introduction to the well-traveled "Satin Doll" keeps the song fresh. He transforms "My Funny Valentine" into a brisk loping waltz, with Carter and Williams providing imaginative support. ~ AllMusic
Tracklist

01. A Night In Tunisia (8:05)
02. 'Round About Midnight (6:15)
03. Satin Doll (8:28)
04. My Funny Valentine (6:20)

Personnel

Hank Jones - piano
Ron Carter - bass
Tony Williams - drums

Exact Audio Copy V1.0 beta 3 from 29. August 2011

EAC extraction logfile from 17. August 2012, 21:48

Hank Jones / The Great Jazz Trio From LA

Used drive : HL-DT-STDVDRAM GT20N Adapter: 0 ID: 0

Read mode : Secure
Utilize accurate stream : Yes
Defeat audio cache : Yes
Make use of C2 pointers : No

Read offset correction : 667
Overread into Lead-In and Lead-Out : No
Fill up missing offset samples with silence : Yes
Delete leading and trailing silent blocks : No
Null samples used in CRC calculations : Yes
Used interface : Installed external ASPI interface

Used output format : Internal WAV Routines
Sample format : 44.100 Hz; 16 Bit; Stereo

TOC of the extracted CD

Track | Start | Length | Start sector | End sector
––––––––––––––––––––––––––––-
1 | 0:00.37 | 8:04.50 | 37 | 36386
2 | 8:05.12 | 6:15.35 | 36387 | 64546
3 | 14:20.47 | 8:27.60 | 64547 | 102631
4 | 22:48.32 | 6:19.53 | 102632 | 131109

Range status and errors

Selected range

Filename E:\EAC\Hank Jones - The Great Jazz Trio From LA.wav

Peak level 81.7 %
Extraction speed 2.8 X
Range quality 100.0 %
Test CRC F2FFD757
Copy CRC F2FFD757
Copy OK

No errors occurred

AccurateRip summary

Track 1 not present in database
Track 2 not present in database
Track 3 not present in database
Track 4 not present in database

None of the tracks are present in the AccurateRip database

End of status report

==== Log checksum 269E253558609CA90BC27F48E6C62DC9824EDB821E7DCEF1BB4A073D72884DED ====

The Great Jazz Trio - The Great Jazz Trio From L.A. (1977)

Special thanks to ffsf and papa1954!

Welcome to my blog for more wonderful music

PLEASE DO NOT PROVIDE MIRROR LINKS!