Subcategories

The Great Jazz Trio – N.Y. Sophisticate A Tribute To Duke Ellington (1983) (Denon-Digital Recording)

Posted By: janwal46
The Great Jazz Trio – N.Y. Sophisticate A Tribute To Duke Ellington (1983) (Denon-Digital Recording)

The Great Jazz Trio – N.Y. Sophisticate A Tribute To Duke Ellington (1983) (Denon-Digital Recording)

The Great Jazz Trio – N.Y. Sophisticate A Tribute To Duke Ellington (1983) (Denon-Digital Recording)
1983 | Jazz | EAC RIP | FLAC+CUE+LOG+HQ-Covers (400Dpi) | 242Mb+5Mb

Hank Jones is one of the most gifted jazz pianists of the second half of the 20th century, and this salute to Duke Ellington is only slightly blemished by the sometimes overbearing string arrangements by Masahiko Satoh. His trio, with bassist Eddie Gomez and drummer Jimmy Cobb, sticks to familiar selections from the vast Ellington songbook, with Jones occasionally switching to a Fender Rhodes electric piano or celeste. Happily the strings are omitted from cookers such as "C Jam Blues" and "Take the 'A' Train."

Personnel:

Hank Jones - Steinway Piano, Rhodes Piano, Celesta
Eddie Gomez - Bass
Jimmy Cobb - Drums
Strings Conducted By Masahiko Satoh

Tracklist:

01. In a Sentimental Mood
02. C Jam Blues
03. Mood Indigo
04. Satin Doll
05. Lush Life
06. Sophisticated Lady
07. Take the 'A' Train
08. I Got It Bad (And That Ain't Good)
09. Caravan
10. Solitude

Recorded & Mixed At Nippon Columbia Studios In October And November, 1983

Exact Audio Copy V0.99 prebeta 4 from 23. January 2008

EAC extraction logfile from 3. August 2009, 15:22

The Great Jazz Trio / N.Y.Sophisticate A Tribute To Duke Ellington

Used drive : Optiarc DVD RW AD-7173A Adapter: 1 ID: 0

Read mode : Secure
Utilize accurate stream : Yes
Defeat audio cache : Yes
Make use of C2 pointers : No

Read offset correction : 48
Overread into Lead-In and Lead-Out : No
Fill up missing offset samples with silence : Yes
Delete leading and trailing silent blocks : No
Null samples used in CRC calculations : No
Used interface : Native Win32 interface for Win NT & 2000

Used output format : Internal WAV Routines
Sample format : 44.100 Hz; 16 Bit; Stereo


TOC of the extracted CD

Track | Start | Length | Start sector | End sector
––––––––––––––––––––––––––––-
1 | 0:00.00 | 4:53.47 | 0 | 22021
2 | 4:53.47 | 4:47.30 | 22022 | 43576
3 | 9:41.02 | 4:31.30 | 43577 | 63931
4 | 14:12.32 | 4:15.18 | 63932 | 83074
5 | 18:27.50 | 3:30.32 | 83075 | 98856
6 | 21:58.07 | 4:56.18 | 98857 | 121074
7 | 26:54.25 | 3:39.70 | 121075 | 137569
8 | 30:34.20 | 4:46.12 | 137570 | 159031
9 | 35:20.32 | 4:08.23 | 159032 | 177654
10 | 39:28.55 | 4:42.07 | 177655 | 198811


Range status and errors

Selected range

Filename G:\AVAXHOME\The Great Jazz Trio - N.Y.Sophisticate A Tribute To Duke Ellington (1983)\The Great Jazz Trio - N.Y.Sophisticate A Tribute To Duke Ellington.wav

Peak level 99.7 %
Range quality 100.0 %
Copy CRC 585C6D53
Copy OK

No errors occurred


AccurateRip summary

Track 1 accurately ripped (confidence 1) [1CC34174]
Track 2 accurately ripped (confidence 1) [275805CB]
Track 3 accurately ripped (confidence 1) [70BEE8E0]
Track 4 accurately ripped (confidence 1) [31B5E2CA]
Track 5 accurately ripped (confidence 1) [40C6D47B]
Track 6 accurately ripped (confidence 1) [76E49A6E]
Track 7 accurately ripped (confidence 1) [28A900DB]
Track 8 accurately ripped (confidence 1) [72F5F6F4]
Track 9 accurately ripped (confidence 1) [3B30250E]
Track 10 accurately ripped (confidence 1) [DE5860C2]

All tracks accurately ripped

End of status report

RIPPED BY JANWAL46

RS Links:




Password: janwal46

No mirrors in your comments, please !!!!