Subcategories

The Infamous Stringdusters - Ladies & Gentlemen (Deluxe Edition) (2016)

Posted By: delpotro
The Infamous Stringdusters - Ladies & Gentlemen (Deluxe Edition) (2016)

The Infamous Stringdusters - Ladies & Gentlemen (Deluxe Edition) (2016)
EAC Rip | FLAC (tracks+log+.cue) | 00:46:56 | 281 Mb
Bluegrass, Female Vocal | Label: Compass Records

Standing at the crossroads of modern bluegrass and newgrass, The Infamous Stringdusters are a band that is "stretching [bluegrass] from within" (New York Times). For their sixth studio album, Ladies & Gentlemen, the band invited a dozen of their favorite female singers to join them. The list of featured guests includes some of the most dynamic and innovative artists from across the roots music, Americana and country worlds: Nicki Bluhm, Mary Chapin Carpenter, Jen Hartswick, Sarah Jarosz, Claire Lynch, Aofie O'Donovan, Joan Osborne, Joss Stone, Sara Watkins, Abigail Washburn, Lee Ann Womack and Celia Woodsmith. Each artist guested on a different original song or tune written by the members of the band specifically for this project. Ladies & Gentlemen was produced by GRAMMY-winner Chris Goldsmith and shows the breadth of The Infamous Stringdusters' musical vision and talents. Band members Andy Hall (Dobro), Andy Falco (guitar), Chris Pandolfi (banjo), Jeremy Garrett (fiddle), and Travis Book (upright bass), play alongside the vocalists with the circuital unity of the seasoned bluegrass band that they are. Big harmonies and exploratory compositions, along with the band's profound commitment to presentation, seem bound to inspire traditionalists and newcomers to stomp their feet on common ground. With a new voice for every song, world-class instrumental backing, captivating song structure and unexpected combinations, Ladies & Gentlemen is sure to please at every turn.
Tracklist:
01. Listen (feat. Joan Osborne) (03:45)
02. I Believe (feat. Lee Ann Womack) (03:50)
03. Won't Be Long (feat. Sarah Jarosz) (03:17)
04. Have A Little Faith (feat. Joss Stone) (04:41)
05. See How Far You've Come (feat. Sara Watkins) (03:36)
06. Old Whiskey Bottle (feat. Celia Woodsmith) (04:36)
07. Still The One (feat. Nicki Bluhm) (03:19)
08. Ladders In The Sky (feat. Claire Lynch) (03:14)
09. Coming Back To You (feat. Mary Chapin Carpenter) (03:13)
10. Run To Heaven (feat. Aoife O'Donovan) (03:11)
11. Rock And Roll (feat. Abigail Washburn) (04:21)
12. Hazosphere (feat. Jennifer Hartswick) (05:54)

Exact Audio Copy V1.0 beta 3 from 29. August 2011

EAC extraction logfile from 5. February 2016, 15:26

The Infamous Stringdusters / Ladies & Gentlemen (Deluxe Edition)

Used drive : Optiarc DVD+-RW AD-7560S Adapter: 0 ID: 1

Read mode : Secure
Utilize accurate stream : Yes
Defeat audio cache : Yes
Make use of C2 pointers : No

Read offset correction : 6
Overread into Lead-In and Lead-Out : No
Fill up missing offset samples with silence : Yes
Delete leading and trailing silent blocks : No
Null samples used in CRC calculations : Yes
Used interface : Native Win32 interface for Win NT & 2000
Gap handling : Appended to previous track

Used output format : User Defined Encoder
Selected bitrate : 896 kBit/s
Quality : High
Add ID3 tag : Yes
Command line compressor : G:\Exact Audio Copy\FLAC\FLAC.EXE
Additional command line options : -6 -V -T "ARTIST=%artist%" -T "TITLE=%title%" -T "ALBUM=%albumtitle%" -T "DATE=%year%" -T "TRACKNUMBER=%tracknr%" -T "GENRE=%genre%" -T "COMMENT=%comment%" -T "BAND=%albuminterpret%" -T "ALBUMARTIST=%albuminterpret%" -T "COMPOSER=%composer%" %haslyrics%–tag-from-file=LYRICS="%lyricsfile%"%haslyrics% -T "DISCNUMBER=%cdnumber%" -T "TOTALDISCS=%totalcds%" -T "TOTALTRACKS=%numtracks%" %hascover%–picture="%coverfile%"%hascover% %source% -o %dest%


TOC of the extracted CD

Track | Start | Length | Start sector | End sector
––––––––––––––––––––––––––––-
1 | 0:00.00 | 3:44.58 | 0 | 16857
2 | 3:44.58 | 3:50.17 | 16858 | 34124
3 | 7:35.00 | 3:16.58 | 34125 | 48882
4 | 10:51.58 | 4:41.30 | 48883 | 69987
5 | 15:33.13 | 3:36.00 | 69988 | 86187
6 | 19:09.13 | 4:35.70 | 86188 | 106882
7 | 23:45.08 | 3:19.11 | 106883 | 121818
8 | 27:04.19 | 3:13.70 | 121819 | 136363
9 | 30:18.14 | 3:12.59 | 136364 | 150822
10 | 33:30.73 | 3:10.47 | 150823 | 165119
11 | 36:41.45 | 4:20.44 | 165120 | 184663
12 | 41:02.14 | 5:54.34 | 184664 | 211247


Track 1

Filename G:\Music\Flac\The Infamous Stringdusters - Ladies & Gentlemen (Deluxe Edition) (FLAC)\The Infamous Stringdusters - Ladies & Gentlemen (Deluxe Edition) - 01 - Listen (Feat. Joan Osborne).wav

Pre-gap length 0:00:02.00

Peak level 98.8 %
Extraction speed 2.2 X
Track quality 99.9 %
Test CRC 507FA5CD
Copy CRC 507FA5CD
Track not present in AccurateRip database
Copy OK

Track 2

Filename G:\Music\Flac\The Infamous Stringdusters - Ladies & Gentlemen (Deluxe Edition) (FLAC)\The Infamous Stringdusters - Ladies & Gentlemen (Deluxe Edition) - 02 - I Believe (Feat. Lee Ann Womack).wav

Peak level 97.7 %
Extraction speed 3.0 X
Track quality 100.0 %
Test CRC 3F777DB6
Copy CRC 3F777DB6
Track not present in AccurateRip database
Copy OK

Track 3

Filename G:\Music\Flac\The Infamous Stringdusters - Ladies & Gentlemen (Deluxe Edition) (FLAC)\The Infamous Stringdusters - Ladies & Gentlemen (Deluxe Edition) - 03 - Won't Be Long (Feat. Sarah Jarosz).wav

Peak level 97.7 %
Extraction speed 3.1 X
Track quality 100.0 %
Test CRC 69DC321D
Copy CRC 69DC321D
Track not present in AccurateRip database
Copy OK

Track 4

Filename G:\Music\Flac\The Infamous Stringdusters - Ladies & Gentlemen (Deluxe Edition) (FLAC)\The Infamous Stringdusters - Ladies & Gentlemen (Deluxe Edition) - 04 - Have A Little Faith (Feat. Joss Stone).wav

Peak level 97.7 %
Extraction speed 3.5 X
Track quality 100.0 %
Test CRC C6484F3E
Copy CRC C6484F3E
Track not present in AccurateRip database
Copy OK

Track 5

Filename G:\Music\Flac\The Infamous Stringdusters - Ladies & Gentlemen (Deluxe Edition) (FLAC)\The Infamous Stringdusters - Ladies & Gentlemen (Deluxe Edition) - 05 - See How Far You've Come (Feat. Sara Watkins).wav

Peak level 97.7 %
Extraction speed 3.6 X
Track quality 100.0 %
Test CRC 9D84A1B2
Copy CRC 9D84A1B2
Track not present in AccurateRip database
Copy OK

Track 6

Filename G:\Music\Flac\The Infamous Stringdusters - Ladies & Gentlemen (Deluxe Edition) (FLAC)\The Infamous Stringdusters - Ladies & Gentlemen (Deluxe Edition) - 06 - Old Whiskey Bottle (Feat. Celia Woodsmith).wav

Peak level 97.7 %
Extraction speed 4.0 X
Track quality 100.0 %
Test CRC 352577B6
Copy CRC 352577B6
Track not present in AccurateRip database
Copy OK

Track 7

Filename G:\Music\Flac\The Infamous Stringdusters - Ladies & Gentlemen (Deluxe Edition) (FLAC)\The Infamous Stringdusters - Ladies & Gentlemen (Deluxe Edition) - 07 - Still The One (Feat. Nicki Bluhm).wav

Peak level 97.7 %
Extraction speed 4.0 X
Track quality 100.0 %
Test CRC B93DBB26
Copy CRC B93DBB26
Track not present in AccurateRip database
Copy OK

Track 8

Filename G:\Music\Flac\The Infamous Stringdusters - Ladies & Gentlemen (Deluxe Edition) (FLAC)\The Infamous Stringdusters - Ladies & Gentlemen (Deluxe Edition) - 08 - Ladders In The Sky (Feat. Claire Lynch).wav

Peak level 97.7 %
Extraction speed 4.1 X
Track quality 100.0 %
Test CRC C2991BE0
Copy CRC C2991BE0
Track not present in AccurateRip database
Copy OK

Track 9

Filename G:\Music\Flac\The Infamous Stringdusters - Ladies & Gentlemen (Deluxe Edition) (FLAC)\The Infamous Stringdusters - Ladies & Gentlemen (Deluxe Edition) - 09 - Coming Back To You (Feat. Mary Chapin Carpenter).wav

Peak level 98.8 %
Extraction speed 4.3 X
Track quality 100.0 %
Test CRC E17439E4
Copy CRC E17439E4
Track not present in AccurateRip database
Copy OK

Track 10

Filename G:\Music\Flac\The Infamous Stringdusters - Ladies & Gentlemen (Deluxe Edition) (FLAC)\The Infamous Stringdusters - Ladies & Gentlemen (Deluxe Edition) - 10 - Run To Heaven (Feat. Aoife O'Donovan).wav

Peak level 97.7 %
Extraction speed 4.4 X
Track quality 100.0 %
Test CRC DE1B638A
Copy CRC DE1B638A
Track not present in AccurateRip database
Copy OK

Track 11

Filename G:\Music\Flac\The Infamous Stringdusters - Ladies & Gentlemen (Deluxe Edition) (FLAC)\The Infamous Stringdusters - Ladies & Gentlemen (Deluxe Edition) - 11 - Rock And Roll (Feat. Abigail Washburn).wav

Peak level 99.0 %
Extraction speed 4.0 X
Track quality 99.9 %
Test CRC 232CC00E
Copy CRC 232CC00E
Track not present in AccurateRip database
Copy OK

Track 12

Filename G:\Music\Flac\The Infamous Stringdusters - Ladies & Gentlemen (Deluxe Edition) (FLAC)\The Infamous Stringdusters - Ladies & Gentlemen (Deluxe Edition) - 12 - Hazosphere (Feat. Jennifer Hartswick) (Deluxe Edition Bonus Track).wav

Peak level 97.7 %
Extraction speed 5.1 X
Track quality 100.0 %
Test CRC 2D4AA8DB
Copy CRC 2D4AA8DB
Track not present in AccurateRip database
Copy OK


None of the tracks are present in the AccurateRip database

No errors occurred

End of status report

==== Log checksum B01DBA4B701CE1D5B186398012A70FD6152FFB883D72595CE44D6FC54EB4956D ====

Thanks to the Original ripper prod !