Subcategories

The Joe Newman Septet - The Midgets (1956) {RCA-BMG rel 1998}

Posted By: ruskaval
The Joe Newman Septet - The Midgets (1956) {RCA-BMG rel 1998}

The Joe Newman Septet - The Midgets (1956) {RCA-BMG rel 1998}
EAC rip (secure mode) | FLAC (tracks)+CUE+LOG -> 122 Mb | MP3 @320 -> 81 Mb
Full Artwork @ 600 dpi (jpg) -> 66 Mb | 5% repair rar
© 1956, 1998 RCA / BMG Music | 74321609872
Jazz / Mainstream Jazz / Bop / Cool / Trumpet / Flute

The Midgets is an album by jazz trumpeter Joe Newman's Septet recorded in 1956 for the RCA Records subsidiary Vik label. Glossy Cover, Arranged by Ernie Wilkins, conducted by Joe Newman, Recorded at Webster Hall, New York City, July, 1956. Joe Newman on trumpet, Frank Wess on flute, Barry Galbraith on electric guitar, Freddie Green on rhythm guitar, Hank Jones on piano and organ, Eddie Jones on bass, and Osie Johnson on drums.
IN THOSE days we all wore white underpants. Consequently I was shocked when I entered the Count Basie band's dressing- room in Blackpool with Basie's trombonist Benny Powell to see a huddle of large men wearing underpants bedecked with goldfish, rainbows and loud check. These were The Giants.

They were looking down benignly upon an altercation between two much smaller men, Joe Newman and Frank Wess, who were also wearing what might be described as exotic underpants. Newman and Wess were The Midgets. In the Swing Era it was fashionable to have band publicity photographs taken with the men arranged in order of height. You couldn't have done that with this Basie band. After Eddie Jones, Charlie Fowlkes and the other Giants, there was a sudden cliff down to the smaller but musically potent Midgets. Frank wrote a feature for his flute and Joe's trumpet which became a jazz hit under the title of 'The Midgets'.

Personnel:
Joe Newman - trumpet
Frank Wess - flute
Hank Jones - piano, organ
Barry Galbraith - electric guitar
Freddie Green - rhythm guitar
Eddie Jones - bass
Osie Johnson - drums
Ernie Wilkins - arranger

tracklist:
01 - No Moon At All
02 - Valerie
03 - My Dog Friday
04 - Scooter
05 - The Late Late Show
06 - Indeed The Blues
07 - The Midgets
08 - One Lamper
09 - Living Dangerously
10 - Really_ Healy!
11 - She Has Red Hair

Exact Audio Copy V1.1 from 23. June 2015

EAC extraction logfile from 11. April 2017, 11:04

The Joe Newman Septet / The Midgets

Used drive : TSSTcorpCDDVDW SE-208DB Adapter: 1 ID: 2

Read mode : Secure
Utilize accurate stream : Yes
Defeat audio cache : Yes
Make use of C2 pointers : No

Read offset correction : 6
Overread into Lead-In and Lead-Out : No
Fill up missing offset samples with silence : Yes
Delete leading and trailing silent blocks : No
Null samples used in CRC calculations : Yes
Used interface : Native Win32 interface for Win NT & 2000
Gap handling : Appended to previous track

Used output format : User Defined Encoder
Selected bitrate : 1024 kBit/s
Quality : High
Add ID3 tag : No
Command line compressor : C:\Program Files (x86)\FLAC Frontend\tools\flac.exe
Additional command line options : -8 -V -T "ARTIST=%artist%" -T "TITLE=%title%" -T "ALBUM=%albumtitle%" -T "DATE=%year%" -T "TRACKNUMBER=%tracknr%" -T "TOTALTRACKS=%numtracks%" -T "GENRE=%genre%" -T "ALBUMARTIST=%albumartist%" -T "ALBUM ARTIST=%albumartist%" -T "COMMENT=EAC Secure Mode, Test & Copy, AccurateRip, FLAC -8" %source%


TOC of the extracted CD

Track | Start | Length | Start sector | End sector
––––––––––––––––––––––––––––-
1 | 0:00.00 | 2:49.40 | 0 | 12714
2 | 2:49.40 | 2:57.27 | 12715 | 26016
3 | 5:46.67 | 3:31.18 | 26017 | 41859
4 | 9:18.10 | 2:57.25 | 41860 | 55159
5 | 12:15.35 | 3:00.60 | 55160 | 68719
6 | 15:16.20 | 3:41.70 | 68720 | 85364
7 | 18:58.15 | 6:09.10 | 85365 | 113049
8 | 25:07.25 | 3:04.10 | 113050 | 126859
9 | 28:11.35 | 2:51.60 | 126860 | 139744
10 | 31:03.20 | 2:52.10 | 139745 | 152654
11 | 33:55.30 | 3:26.05 | 152655 | 168109


Track 1

Filename D:\_EAC\The Joe Newman Septet - The Midgets (1956) [FLAC]\01 - No Moon At All.wav

Pre-gap length 0:00:02.00

Peak level 99.8 %
Extraction speed 2.7 X
Track quality 100.0 %
Test CRC 89242AF6
Copy CRC 89242AF6
Cannot be verified as accurate (confidence 1) [52472285], AccurateRip returned [A4C02F0F] (AR v2)
Copy OK

Track 2

Filename D:\_EAC\The Joe Newman Septet - The Midgets (1956) [FLAC]\02 - Valerie.wav

Peak level 99.8 %
Extraction speed 3.0 X
Track quality 100.0 %
Test CRC DBBB19EA
Copy CRC DBBB19EA
Cannot be verified as accurate (confidence 1) [79A8D25A], AccurateRip returned [1F4C380F] (AR v2)
Copy OK

Track 3

Filename D:\_EAC\The Joe Newman Septet - The Midgets (1956) [FLAC]\03 - My Dog Friday.wav

Peak level 95.4 %
Extraction speed 3.3 X
Track quality 100.0 %
Test CRC 7252914D
Copy CRC 7252914D
Cannot be verified as accurate (confidence 1) [E54F0A00], AccurateRip returned [F71C9B89] (AR v2)
Copy OK

Track 4

Filename D:\_EAC\The Joe Newman Septet - The Midgets (1956) [FLAC]\04 - Scooter.wav

Peak level 95.3 %
Extraction speed 3.3 X
Track quality 100.0 %
Test CRC 8B49A496
Copy CRC 8B49A496
Cannot be verified as accurate (confidence 1) [B09E7DD2], AccurateRip returned [CDB1A06C] (AR v2)
Copy OK

Track 5

Filename D:\_EAC\The Joe Newman Septet - The Midgets (1956) [FLAC]\05 - The Late Late Show.wav

Peak level 99.9 %
Extraction speed 3.5 X
Track quality 100.0 %
Test CRC 13532322
Copy CRC 13532322
Cannot be verified as accurate (confidence 1) [78BCBD8C], AccurateRip returned [4EA870CF] (AR v2)
Copy OK

Track 6

Filename D:\_EAC\The Joe Newman Septet - The Midgets (1956) [FLAC]\06 - Indeed The Blues.wav

Peak level 99.9 %
Extraction speed 3.8 X
Track quality 100.0 %
Test CRC C95A3B4B
Copy CRC C95A3B4B
Cannot be verified as accurate (confidence 1) [608892A0], AccurateRip returned [5D34FC9D] (AR v2)
Copy OK

Track 7

Filename D:\_EAC\The Joe Newman Septet - The Midgets (1956) [FLAC]\07 - The Midgets.wav

Peak level 99.9 %
Extraction speed 4.3 X
Track quality 100.0 %
Test CRC 794BDAD5
Copy CRC 794BDAD5
Cannot be verified as accurate (confidence 1) [E517DB03], AccurateRip returned [8F445E1B] (AR v2)
Copy OK

Track 8

Filename D:\_EAC\The Joe Newman Septet - The Midgets (1956) [FLAC]\08 - One Lamper.wav

Peak level 82.4 %
Extraction speed 4.1 X
Track quality 100.0 %
Test CRC 55F26754
Copy CRC 55F26754
Accurately ripped (confidence 1) [42A66A2D] (AR v2)
Copy OK

Track 9

Filename D:\_EAC\The Joe Newman Septet - The Midgets (1956) [FLAC]\09 - Living Dangerously.wav

Peak level 92.4 %
Extraction speed 4.2 X
Track quality 100.0 %
Test CRC CFC4E1FA
Copy CRC CFC4E1FA
Accurately ripped (confidence 1) [F6B2E720] (AR v2)
Copy OK

Track 10

Filename D:\_EAC\The Joe Newman Septet - The Midgets (1956) [FLAC]\10 - Really_ Healy!.wav

Peak level 93.2 %
Extraction speed 4.3 X
Track quality 100.0 %
Test CRC 8D2F30D3
Copy CRC 8D2F30D3
Cannot be verified as accurate (confidence 1) [A9AAA844], AccurateRip returned [EF68A909] (AR v2)
Copy OK

Track 11

Filename D:\_EAC\The Joe Newman Septet - The Midgets (1956) [FLAC]\11 - She Has Red Hair.wav

Peak level 93.7 %
Extraction speed 4.5 X
Track quality 100.0 %
Test CRC C05BCA88
Copy CRC C05BCA88
Cannot be verified as accurate (confidence 1) [D6F4858F], AccurateRip returned [272B77D1] (AR v2)
Copy OK


2 track(s) accurately ripped
9 track(s) could not be verified as accurate

Some tracks could not be verified as accurate

No errors occurred

End of status report

==== Log checksum B75980CBF954644794861A5CA19B9027EC0DB087174AEC3A10631FFC47E761C5 ====


The Joe Newman Septet - The Midgets (1956) {RCA-BMG rel 1998}

The Joe Newman Septet - The Midgets (1956) {RCA-BMG rel 1998}



===