Subcategories

The Mission UK - Resurrection: Greatest Hits (2000)

Posted By: gonzalo76
The Mission UK - Resurrection: Greatest Hits (2000)

The Mission UK - Resurrection: Greatest Hits (2000)
EAC rip | FLAC, IMG+CUE, LOG -> 432 MB | Full Scans 300 dpi -> 32 MB | RAR 3% Rec. | RS + HF
Gothic Rock | Label: Cleopatra | Catalog Number: CLP 0756-2 | Year: 1999



Album Review:

Leave it to Wayne Hussey to come back in a unique way. Instead of releasing a collection of old songs in a new package, he reworked some of the best of the Mission's back catalog, bringing the past into the present. The songs are as majestic as ever, this time combined with the keyboard-enhanced sound that first appeared on albums like Masque. While it may take some time getting used to the reworked sound on classics like "Wasteland" and "Deliverance," the new production gives them new life. This is a must-have for longtime fans, who will be pleased that Hussey seems comfortable with the past – resurrection indeed. [Cleopatra] re-released Resurrection in 2004 as the Best of the Mission UK, adding a cover of David Bowie's "After All."] –by Chris True, allmusic.com.


Album Details:

Artist: The Mission UK (aka The Mission, Mission UK)
Album: Resurrection: Greatest Hits
Label: Cleopatra
Catalogue #: CLP 0756-2
Matrix: C1.1 / 150890-03 / RBO-862-0756-2
Bar Code: 7 41157 07562 5
Format: CD
Type: Compilation
Country: US (Made in U.S.A.)
Release Date: 1999
Number of Discs: 1
Language: English
Time: 1:06:41
Rating: 4 stars (allmusic.com)
Genre: Pop/Rock
Styles: Goth Rock, Alternative Rock, College Rock


Tracklist:

01. Prelude: Anniversary 0:29
02. Wasteland 4:45
03. Severina 4:30
04. Love Me to Death 4:56
05. Interlude: Never Forever 1:13
06. Beyond the Pale 5:18
07. Deliverance 4:43
08. Without You 5:16
09. Like a Child Again 4:36
10. Sacrilege 4:59
11. You Make Me Breathe 5:00
12. Crystal Ocean 5:04
13. Interlude: Suffer the Children 0:58
14. Butterfly on a Wheel 4:55
15. Interlude: Infection 0:25
16. Hands Across the Ocean 4:40
17 1969 2:53
18. Resurrection 2:01


Lineage:

SilverCD -> EAC (Test & Copy Image & Create CUE Sheet > Uncompressed / Secure Mode / Offset Corrected / WAV 1411 Kbit/s / 44100 Hz / 16 Bits / 2 Channels) -> FLAC frontend -> FLAC (compression level 8) -> AvaxHome


Extra info:

- Cuesheet files included (WAV & FLAC).
- EAC extraction LOG file included.
- Codec used for lossless compression: libFLAC 1.2.1 20070917
- Samplerate: 44100 Hz Stereo / Bitrate: 16 bits.
- MD5 checksum included.
- Full artwork, 300 dpi, jpg format in highest quality.
- No tracks could be verified as accurate.


Exact Audio Copy V0.99 prebeta 5 from 4. May 2009

EAC extraction logfile from 6. November 2009, 15:54

The Mission UK / Resurrection - Greatest Hits

Used drive : ATAPI DVD A DH20A4P Adapter: 1 ID: 0

Read mode : Secure
Utilize accurate stream : Yes
Defeat audio cache : Yes
Make use of C2 pointers : No

Read offset correction : 6
Overread into Lead-In and Lead-Out : No
Fill up missing offset samples with silence : Yes
Delete leading and trailing silent blocks : No
Null samples used in CRC calculations : Yes
Used interface : Installed external ASPI interface

Used output format : Internal WAV Routines
Sample format : 44.100 Hz; 16 Bit; Stereo


TOC of the extracted CD

Track | Start | Length | Start sector | End sector
––––––––––––––––––––––––––––-
1 | 0:00.00 | 0:29.13 | 0 | 2187
2 | 0:29.13 | 4:45.00 | 2188 | 23562
3 | 5:14.13 | 4:30.05 | 23563 | 43817
4 | 9:44.18 | 4:56.34 | 43818 | 66051
5 | 14:40.52 | 1:12.45 | 66052 | 71496
6 | 15:53.22 | 5:18.05 | 71497 | 95351
7 | 21:11.27 | 4:42.68 | 95352 | 116569
8 | 25:54.20 | 5:15.66 | 116570 | 140260
9 | 31:10.11 | 4:35.57 | 140261 | 160942
10 | 35:45.68 | 4:58.73 | 160943 | 183365
11 | 40:44.66 | 4:59.50 | 183366 | 205840
12 | 45:44.41 | 5:03.50 | 205841 | 228615
13 | 50:48.16 | 0:58.01 | 228616 | 232966
14 | 51:46.17 | 4:55.03 | 232967 | 255094
15 | 56:41.20 | 0:24.59 | 255095 | 256953
16 | 57:06.04 | 4:40.21 | 256954 | 277974
17 | 61:46.25 | 2:53.28 | 277975 | 290977
18 | 64:39.53 | 2:01.07 | 290978 | 300059


Range status and errors

Selected range

Filename E:\AVAXHOME\The Mission UK - Resurrection - Greatest Hits.wav

Peak level 100.0 %
Range quality 100.0 %
Test CRC DB312A3C
Copy CRC DB312A3C
Copy OK

No errors occurred


AccurateRip summary

Track 1 cannot be verified as accurate (confidence 2) [A0229BA2], AccurateRip returned [64D7E5EE]
Track 2 cannot be verified as accurate (confidence 2) [0CCFD83A], AccurateRip returned [9C828A7F]
Track 3 cannot be verified as accurate (confidence 2) [7AFB630F], AccurateRip returned [837D4170]
Track 4 cannot be verified as accurate (confidence 2) [4AB0D32D], AccurateRip returned [58949B92]
Track 5 cannot be verified as accurate (confidence 2) [11818E86], AccurateRip returned [E62BB0AF]
Track 6 cannot be verified as accurate (confidence 2) [261549AA], AccurateRip returned [97A5410E]
Track 7 cannot be verified as accurate (confidence 2) [87E489A0], AccurateRip returned [2D543FEA]
Track 8 cannot be verified as accurate (confidence 2) [9DBA7661], AccurateRip returned [781F7881]
Track 9 cannot be verified as accurate (confidence 2) [53B9CC53], AccurateRip returned [3B97B581]
Track 10 cannot be verified as accurate (confidence 2) [0D64F947], AccurateRip returned [75672F46]
Track 11 cannot be verified as accurate (confidence 2) [74505BB5], AccurateRip returned [69BFE503]
Track 12 cannot be verified as accurate (confidence 2) [2FC12A0E], AccurateRip returned [BBEB7EF3]
Track 13 cannot be verified as accurate (confidence 2) [FC35B38F], AccurateRip returned [690794A9]
Track 14 cannot be verified as accurate (confidence 2) [3A2F9739], AccurateRip returned [B2EB8EA0]
Track 15 cannot be verified as accurate (confidence 2) [8461056D], AccurateRip returned [AAC39ED6]
Track 16 cannot be verified as accurate (confidence 2) [ACA1EBD7], AccurateRip returned [C31A793D]
Track 17 cannot be verified as accurate (confidence 2) [4AB43026], AccurateRip returned [ACD122BE]
Track 18 cannot be verified as accurate (confidence 2) [F71B0A32], AccurateRip returned [9968B3A3]

No tracks could be verified as accurate
You may have a different pressing from the one(s) in the database

End of status report


[Verification date: 06/11/2009 16:02:37]
[Disc ID: 002d0ba0-025f5c97-fe0fa012]
Track [ CRC ] Status
01 [a0229ba2] (00/02) No matches
02 [0ccfd83a] (00/02) No matches
03 [7afb630f] (00/02) No matches
04 [4ab0d32d] (00/02) No matches
05 [11818e86] (00/02) No matches
06 [261549aa] (00/02) No matches
07 [87e489a0] (00/02) No matches
08 [9dba7661] (00/02) No matches
09 [53b9cc53] (00/02) No matches
10 [0d64f947] (00/02) No matches
11 [74505bb5] (00/02) No matches
12 [2fc12a0e] (00/02) No matches
13 [fc35b38f] (00/02) No matches
14 [3a2f9739] (00/02) No matches
15 [8461056d] (00/02) No matches
16 [aca1ebd7] (00/02) No matches
17 [4ab43026] (00/02) No matches
18 [f71b0a32] (00/02) No matches
Offsetted by -71:
01 [64d7e5ee] (02/02) Accurately ripped
02 [9c828a7f] (02/02) Accurately ripped
03 [837d4170] (02/02) Accurately ripped
04 [58949b92] (02/02) Accurately ripped
05 [e62bb0af] (02/02) Accurately ripped
06 [97a5410e] (02/02) Accurately ripped
07 [2d543fea] (02/02) Accurately ripped
08 [781f7881] (02/02) Accurately ripped
09 [3b97b581] (02/02) Accurately ripped
10 [75672f46] (02/02) Accurately ripped
11 [69bfe503] (02/02) Accurately ripped
12 [bbeb7ef3] (02/02) Accurately ripped
13 [690794a9] (02/02) Accurately ripped
14 [b2eb8ea0] (02/02) Accurately ripped
15 [aac39ed6] (02/02) Accurately ripped
16 [c31a793d] (02/02) Accurately ripped
17 [acd122be] (02/02) Accurately ripped
18 [9968b3a3] (02/02) Accurately ripped

Track [ CRC32 ] [W/O NULL] [ LOG ]
– [DB312A3C] [C098FA83] CRC32
01 [6FE60911] [0EFB77A4]
02 [0C16B397] [793B210C]
03 [1AF99FCF] [005D01FD]
04 [79D1DD4D] [2AE2448E]
05 [5ED50B25] [AC63D3EA]
06 [235CB6D5] [34FCFAD0]
07 [0882870B] [5EDD50A2]
08 [7FE2B374] [DC78B1F1]
09 [544CC00D] [12EE5629]
10 [6CB3B90E] [A366CECF]
11 [7EF612A9] [C0A64D2F]
12 [4E0962D1] [D6A19D84]
13 [1CDEE7FD] [7079B62A]
14 [E636A44F] [88E23B62]
15 [A80B8DB8] [521286ED]
16 [DD5BB166] [9C5A3198]
17 [40B0F263] [E804D025]
18 [014768E6] [65A92574]



WAV to FLAC

flac 1.2.1, Copyright (C) 2000,2001,2002,2003,2004,2005,2006,2007 Josh Coalson
flac comes with ABSOLUTELY NO WARRANTY. This is free software, and you are
welcome to redistribute it under certain conditions. Type `flac' for details.

The Mission UK - Resurrection - Greatest Hits.wav: 100% complete, ratio=0,649
The Mission UK - Resurrection - Greatest Hits.wav: Verify OK, wrote 453514665 by
tes, ratio=0,643
–––––––––––––––––––––––––––––––––––––––-

FLAC Test

flac 1.2.1, Copyright (C) 2000,2001,2002,2003,2004,2005,2006,2007 Josh Coalson
flac comes with ABSOLUTELY NO WARRANTY. This is free software, and you are
welcome to redistribute it under certain conditions. Type `flac' for details.

The Mission UK - Resurrection - Greatest Hits.flac: testing, 100% complete
The Mission UK - Resurrection - Greatest Hits.flac: ok

–––––––––––––––––––––––––––––––––––––––-

Fingerprints

The Mission UK - Resurrection - Greatest Hits.flac:e8db2aaf8a238c96232b917f0cbb634a


REM GENRE "Gothic Rock"
REM DATE 2000
REM DISCID FE0FA012
REM COMMENT "ExactAudioCopy v0.99pb5"
PERFORMER "The Mission UK"
TITLE "Resurrection - Greatest Hits"
FILE "The Mission UK - Resurrection - Greatest Hits.wav" WAVE
TRACK 01 AUDIO
TITLE "Prelude: Anniversary"
PERFORMER "The Mission UK"
INDEX 01 00:00:00
TRACK 02 AUDIO
TITLE "Wasteland"
PERFORMER "The Mission UK"
INDEX 00 00:27:18
INDEX 01 00:29:13
TRACK 03 AUDIO
TITLE "Severina"
PERFORMER "The Mission UK"
INDEX 00 05:12:18
INDEX 01 05:14:13
TRACK 04 AUDIO
TITLE "Love Me To Death"
PERFORMER "The Mission UK"
INDEX 00 09:42:23
INDEX 01 09:44:18
TRACK 05 AUDIO
TITLE "Interlude: Never Forever"
PERFORMER "The Mission UK"
INDEX 00 14:38:57
INDEX 01 14:40:52
TRACK 06 AUDIO
TITLE "Beyond The Pale"
PERFORMER "The Mission UK"
INDEX 00 15:51:27
INDEX 01 15:53:22
TRACK 07 AUDIO
TITLE "Deliverance"
PERFORMER "The Mission UK"
INDEX 00 21:09:32
INDEX 01 21:11:27
TRACK 08 AUDIO
TITLE "Without You"
PERFORMER "The Mission UK"
INDEX 00 25:52:25
INDEX 01 25:54:20
TRACK 09 AUDIO
TITLE "Like A Child Again"
PERFORMER "The Mission UK"
INDEX 00 31:08:16
INDEX 01 31:10:11
TRACK 10 AUDIO
TITLE "Sacrilege"
PERFORMER "The Mission UK"
INDEX 00 35:43:73
INDEX 01 35:45:68
TRACK 11 AUDIO
TITLE "You Make Me Breathe"
PERFORMER "The Mission UK"
INDEX 00 40:42:72
INDEX 01 40:44:66
TRACK 12 AUDIO
TITLE "Crystal Ocean"
PERFORMER "The Mission UK"
INDEX 00 45:42:46
INDEX 01 45:44:41
TRACK 13 AUDIO
TITLE "Interlude: Suffer The Children"
PERFORMER "The Mission UK"
INDEX 00 50:46:21
INDEX 01 50:48:16
TRACK 14 AUDIO
TITLE "Butterfly On A Wheel"
PERFORMER "The Mission UK"
INDEX 00 51:44:22
INDEX 01 51:46:17
TRACK 15 AUDIO
TITLE "Interlude: Infection"
PERFORMER "The Mission UK"
INDEX 00 56:39:26
INDEX 01 56:41:20
TRACK 16 AUDIO
TITLE "Hands Across The Ocean"
PERFORMER "The Mission UK"
INDEX 00 57:04:09
INDEX 01 57:06:04
TRACK 17 AUDIO
TITLE "1969"
PERFORMER "The Mission UK"
INDEX 00 61:44:30
INDEX 01 61:46:25
TRACK 18 AUDIO
TITLE "Resurrection"
PERFORMER "The Mission UK"
INDEX 00 64:37:58
INDEX 01 64:39:53



EAC Spectral View
The Mission UK - Resurrection: Greatest Hits (2000)




The Mission UK - Resurrection: Greatest Hits (2000)




THE MISSION UK - Resurrection: Greatest Hits (2000)

RapidShare

Part 1 | Part 2 | Part 3 | Part 4 | Part 5

HotFile

Part 1 | Part 2 | Part 3 | Part 4 | Part 5

––-
pass: www.AvaxHome.ru_by_gonzalo76


Please, no mirrors !
To keep this post longer alive, please don't post the links or pass in other sites.
Other users will be thankful for that !
In case you encounter dead links, please send me a PM !


Thank you very much.
Gonzalo




The Mission UK - Resurrection: Greatest Hits (2000)