Subcategories

The Pretty Things - Live At The BBC (2015) {4CD Box Set Repertoire Records REPUK1205 rec 1964-1975}

Posted By: ruskaval
The Pretty Things - Live At The BBC (2015) {4CD Box Set Repertoire Records REPUK1205 rec 1964-1975}

The Pretty Things - Live At The BBC (2015) {4CD Box Set Repertoire Records REPUK1205 rec 1964-1975}
EAC rip (secure mode) | FLAC (tracks)+CUE+LOG -> 1.45 Gb | MP3 @320 -> 610 Mb
Artwork @ 300 dpi (jpg) -> 19 Mb | 5% repair rar
© 1964-75, 2015 Repertoire Records / BBC | REPUK 1205
Rock / British Invasion / British Psychedelia / Rock & Roll / Psychedelic Pop / Freakbeat

4 CD set. 60 Remastered tracks. Over 4¼ hours of music. Rare BBC archive recordings. Authoritative liner notes and band quotes.

The most comprehensive collection of the Pretty Things’ BBC ‘live’ recordings on the market, with several previously unreleased tracks, now all together for the first time on this newly remastered 4CD set, assembled with the assistance of the BBC.
The Pretty Things - Live At The BBC (2015) {4CD Box Set Repertoire Records REPUK1205 rec 1964-1975}

Sourced from the BBC archives, this newly updated 60-track set covers numerous songs from the 1960s & 1970s period - including smash hits such as ‘Rosalyn’, Don’t Bring Me Down’, ‘Midnight To Six Man’, R&B standards ‘Road Runner’ and ‘Route 66’, and later classic album tracks ‘Defecting Grey’, ‘S.F. Sorrow Is Born’, ‘Singapore Silk Torpedo’ and ‘Dream / Joey’.

These sessions were recorded by the world renowned broadcasting organisation for radio and TV.

Our CDs explore all the Pretty Things’ BBC Radio One output, including 1960s ‘Top Gear’, ‘Saturday Club’, the later ‘Peel Sessions’ and ‘Sounds Of The 70s’, the ‘BBC In Concert’ series and legendary TV shows such as the ‘Old Grey Whistle Test’, amongst others.

The collection has been expertly remastered by Jon Astley (who has worked on recordings of The Who, Led Zeppelin, George Harrison and many others).

Detailed data in the booklets, that also include authoritative liner notes by Richard Morton Jack, editor of ‘Flashback’ magazine, and features new quotes from the Pretty Things Phil May and Dick Taylor.

EXPERTLY REMASTERED. SUPERB SOUND. THE BEST IN THE BUSINESS!
The Pretty Things - Live At The BBC (2015) {4CD Box Set Repertoire Records REPUK1205 rec 1964-1975}

4 discs of Pretty Things recordings from the BBC archives a fantastic upgrade to the 2 disc set originally issued by Repertoire and the single disc 'On air' disc issued by band of Joy many years ago.
The discs cover 1964 to 1975 and as such a wide range of styles.
Disc one is mainly In session stuff from 64 to 71 from Beat/Blues to Psych and then on to the Parachute era.
Disc two covers 1972 to 1973 taking in a rather excellent Viv Stanshall session, the Swansong era
Disc 3 is two In concert sessions from 1973
Disc Four covers 1974 and 1974 includes Peel sessions in concert and old Grey Whistle test.
Overall the sound quality is very good some of the later recordings in stereo sound excellent.
The Pretty Things - Live At The BBC (2015) {4CD Box Set Repertoire Records REPUK1205 rec 1964-1975}



Tracklist

CD 1


01. BIG BOSS MAN
Pretty Things Sessions – Saturday Club, October 1964
02. DON’T BRING ME DOWN
Pretty Things Sessions – Saturday Club, October 1964
03. MAMA, KEEP YOUR BIG MOUTH SHUT
Pretty Things Sessions – Saturday Club, October 1964
04. ROAD RUNNER
Pretty Things Sessions – Saturday Club, October 1964
05. BIG CITY
Pretty Things Sessions – Saturday Club, October 1964
06. SITTING ALL ALONE
Pretty Things Sessions – Saturday Club, May 1966
07. L.S.D.
Pretty Things Sessions – Saturday Club, May 1966
08. MIDNIGHT TO SIX MAN
Pretty Things Sessions – Saturday Club, May 1966
09. BUZZ THE JERK
Pretty Things Sessions – Saturday Club, May 1966
10. MIDNIGHT TO SIX MAN
Blues At The BBC, 1966
11. TURN MY HEAD
Pretty Things Sessions – Top Gear, 3 December, 1967
12. DEFECTING GREY
Pretty Things Sessions – Top Gear, 3 December, 1967
13. WALKING THROUGH MY DREAMS
Pretty Things Sessions – Top Gear, 3 December, 1967
14. S.F. SORROW IS BORN
Radio One / Peel Sessions – Top Gear, 17 November 1968
15. SHE SAYS GOOD MORNING
Radio One / Peel Sessions – Top Gear, 17 November 1968
16. BALLOON BURNING
Radio One / Peel Sessions – Top Gear, 21 October, 1968
17. SEND YOU WITH LOVING
Radio One / Peel Sessions – Top Gear 25 May, 1969
18. SPRING
Radio One / Peel Sessions – Top Gear 25 May, 1969
19. SHE’S A LOVER
Radio One / Peel Sessions
BBC Dave Symonds Sounds Of The Seventies, 6 July, 1970
20. SICKLE CLOWNS
Radio One / Peel Sessions
BBC Dave Symonds Sounds Of The Seventies, 6 July, 1970
21. CRIES FROM THE MIDNIGHT CIRCUS
Radio One / Peel Sessions
BBC Sounds Of The Seventies, 11 September, 1970
22. COLD STONE
Radio One / Peel Sessions – Top Gear, 15 May, 1971
23. STONE HEARTED MAMA
Radio One / Peel Sessions – Top Gear, 15 May, 1971
24. SUMMERTIME
Radio One / Peel Sessions – Mike Harding, 29 June, 1971
25. SWEET ORPHAN LADY
Radio One / Peel Sessions, 1971

All tracks recorded in Mono

The Pretty Things - Live At The BBC (2015) {4CD Box Set Repertoire Records REPUK1205 rec 1964-1975}


CD 2

01. PETER / RIP OFF TRAIN
Radio One / Peel Sessions, 1971
02. LOVE IS GOOD
Radio One Session / Peel Sessions, 1971
03. SUMMERTIME
Radio Flashes with Vivian Stanshall, 14 August, 1971
04. SLOW BEGINNINGS
Radio Flashes with Vivian Stanshall, 14 August, 1971
05. STONE HEARTED MAMA
Radio Flashes with Vivian Stanshall, 14 August, 1971
06. COLD STONE
Radio Flashes with Vivian Stanshall, 14 August, 1971
07. CIRCUS MIND
Radio Flashes with Vivian Stanshall, 14 August, 1971
08. ONION SOUP
Top Gear, 25 July, 1972
09. LOVE IS GOOD
Top Gear, 25 July, 1972
10. ROSALYN
Top Gear, 15 August, 1972
11. ALL NIGHT SAILOR
Top Gear, 15 August, 1972
12. ONION SOUP / ANOTHER BOWL
Sound Of The 70s, 27 August, 1973
13. ROUTE 66
Sound Of The 70s, 27 August, 1973
14. PETER / RIP OFF TRAIN
Sound Of The 70s, 27 August, 1973
15. ATLANTA
Sound Of The 70s, 27 August, 1973

Tracks 1-12 recorded in Mono
Tracks 13-15 recorded in Stereo


The Pretty Things - Live At The BBC (2015) {4CD Box Set Repertoire Records REPUK1205 rec 1964-1975}


CD 3

01. RELIGION’S DEAD
BBC In Concert, 15 February, 1973
02. HAVANA BOUND
BBC In Concert, 15 February, 1973
03. LOVE IS GOOD
BBC In Concert, 15 February, 1973
04. ONION SOUP
BBC In Concert, 15 February, 1973
05. ROUTE 66
BBC In Concert, 15 February, 1973
06. RELIGION’S DEAD
Live at Golders Green Hippodrome, 1973
07. HAVANA BOUND
Live at Golders Green Hippodrome, 1973
08. LOVE IS GOOD
Live at Golders Green Hippodrome, 1973
09. ONION SOUP
Live at Golders Green Hippodrome, 1973
10. ROUTE 66
Live at Golders Green Hippodrome, 1973

All tracks recorded in Stereo

The Pretty Things - Live At The BBC (2015) {4CD Box Set Repertoire Records REPUK1205 rec 1964-1975}


CD 4

01. BRIDGE OF GOD
BBC In Concert – John Peel, 6 January 1975
02. SINGAPORE SILK TORPEDO
BBC In Concert – John Peel, 6 January, 1975
03. COME HOME MOMMA
BBC In Concert – John Peel, 6 January, 1975
04. DREAM / JOEY
BBC In Concert – John Peel, 6 January, 1975
05. NOT ONLY BUT ALSO
BBC In Concert – John Peel, 24 July, 1975
06. BIG CITY
BBC In Concert – John Peel, 24 July, 1975
07. BELFAST COWBOYS / BRUISE IN THE SKY
BBC In Concert – John Peel, 24 July, 1975
08. DREAM / JOEY
John Peel, 17 July, 1975
09. SINGAPORE SILK TORPEDO
The Old Grey Whistle Test, 26 November, 1974
10. DREAM / JOEY
The Old Grey Whistle Test, 26 November, 1974

Tracks 1-8 recorded in Stereo
Tracks 9 & 10 recorded in Mono


The Pretty Things - Live At The BBC (2015) {4CD Box Set Repertoire Records REPUK1205 rec 1964-1975}


Exact Audio Copy V1.0 beta 3 from 29. August 2011

EAC extraction logfile from 25. July 2015, 12:09

The Pretty Things / Live At The BBC (Disc1)

Used drive : TSSTcorpCDDVDW SE-S084F Adapter: 1 ID: 0

Read mode : Secure
Utilize accurate stream : Yes
Defeat audio cache : Yes
Make use of C2 pointers : No

Read offset correction : 6
Overread into Lead-In and Lead-Out : No
Fill up missing offset samples with silence : Yes
Delete leading and trailing silent blocks : No
Null samples used in CRC calculations : Yes
Used interface : Native Win32 interface for Win NT & 2000
Gap handling : Appended to previous track

Used output format : User Defined Encoder
Selected bitrate : 1024 kBit/s
Quality : High
Add ID3 tag : No
Command line compressor : C:\Program Files (x86)\Exact Audio Copy\Flac\flac.exe
Additional command line options : -8 -V -T "ARTIST=%artist%" -T "TITLE=%title%" -T "ALBUM=%albumtitle%" -T "DATE=%year%" -T "TRACKNUMBER=%tracknr%" -T "GENRE=%genre%" -T "PERFORMER=%albuminterpret%" -T "COMPOSER=%composer%" %haslyrics%–tag-from-file=LYRICS="%lyricsfile%"%haslyrics% -T "ALBUMARTIST=%albumartist%" -T "DISCNUMBER=%cdnumber%" -T "TOTALDISCS=%totalcds%" -T "TOTALTRACKS=%numtracks%" -T "COMMENT=%comment%" %source% -o %dest%


TOC of the extracted CD

Track | Start | Length | Start sector | End sector
––––––––––––––––––––––––––––-
1 | 0:00.00 | 3:03.38 | 0 | 13762
2 | 3:03.38 | 3:16.23 | 13763 | 28485
3 | 6:19.61 | 2:28.50 | 28486 | 39635
4 | 8:48.36 | 2:16.74 | 39636 | 49909
5 | 11:05.35 | 1:58.05 | 49910 | 58764
6 | 13:03.40 | 4:00.28 | 58765 | 76792
7 | 17:03.68 | 2:23.49 | 76793 | 87566
8 | 19:27.42 | 2:25.73 | 87567 | 98514
9 | 21:53.40 | 1:43.13 | 98515 | 106252
10 | 23:36.53 | 2:22.07 | 106253 | 116909
11 | 25:58.60 | 2:58.35 | 116910 | 130294
12 | 28:57.20 | 3:34.28 | 130295 | 146372
13 | 32:31.48 | 2:48.62 | 146373 | 159034
14 | 35:20.35 | 3:19.44 | 159035 | 174003
15 | 38:40.04 | 3:03.56 | 174004 | 187784
16 | 41:43.60 | 3:30.61 | 187785 | 203595
17 | 45:14.46 | 2:10.64 | 203596 | 213409
18 | 47:25.35 | 2:02.48 | 213410 | 222607
19 | 49:28.08 | 3:00.04 | 222608 | 236111
20 | 52:28.12 | 4:24.71 | 236112 | 255982
21 | 56:53.08 | 5:21.26 | 255983 | 280083
22 | 62:14.34 | 3:23.60 | 280084 | 295368
23 | 65:38.19 | 2:49.04 | 295369 | 308047
24 | 68:27.23 | 4:19.62 | 308048 | 327534
25 | 72:47.10 | 4:33.54 | 327535 | 348063


Track 1

Filename C:\Users\ian\Desktop\The Pretty Things - Live At The BBC (2015) [FLAC] {4CD}\Live At The BBC CD1\01 - Big Boss Man (Pretty Things Sessions - Saturday Club, Oct 1964).wav

Pre-gap length 0:00:02.00

Peak level 99.9 %
Extraction speed 2.7 X
Track quality 100.0 %
Test CRC B721057B
Copy CRC B721057B
Track not present in AccurateRip database
Copy OK

Track 2

Filename C:\Users\ian\Desktop\The Pretty Things - Live At The BBC (2015) [FLAC] {4CD}\Live At The BBC CD1\02 - Don't Bring Me Down (Pretty Things Sessions - Saturday Club, Oct 1964).wav

Peak level 99.9 %
Extraction speed 2.9 X
Track quality 100.0 %
Test CRC 7B3E432B
Copy CRC 7B3E432B
Track not present in AccurateRip database
Copy OK

Track 3

Filename C:\Users\ian\Desktop\The Pretty Things - Live At The BBC (2015) [FLAC] {4CD}\Live At The BBC CD1\03 - Mama, Keep Your Big Mouth Shut (Pretty Things Sessions - Saturday Club, Oct 1964).wav

Pre-gap length 0:00:01.16

Peak level 99.9 %
Extraction speed 2.9 X
Track quality 100.0 %
Test CRC 7971DA8C
Copy CRC 7971DA8C
Track not present in AccurateRip database
Copy OK

Track 4

Filename C:\Users\ian\Desktop\The Pretty Things - Live At The BBC (2015) [FLAC] {4CD}\Live At The BBC CD1\04 - Road Runner (Pretty Things Sessions - Saturday Club, Oct 1964).wav

Pre-gap length 0:00:00.92

Peak level 99.9 %
Extraction speed 3.0 X
Track quality 100.0 %
Test CRC 78BBCA56
Copy CRC 78BBCA56
Track not present in AccurateRip database
Copy OK

Track 5

Filename C:\Users\ian\Desktop\The Pretty Things - Live At The BBC (2015) [FLAC] {4CD}\Live At The BBC CD1\05 - Big City (Pretty Things Sessions - Saturday Club, Oct 1964).wav

Pre-gap length 0:00:00.05

Peak level 99.9 %
Extraction speed 3.0 X
Track quality 100.0 %
Test CRC 30EB3152
Copy CRC 30EB3152
Track not present in AccurateRip database
Copy OK

Track 6

Filename C:\Users\ian\Desktop\The Pretty Things - Live At The BBC (2015) [FLAC] {4CD}\Live At The BBC CD1\06 - Sitting All Alone (Pretty Things Sessions - Saturday Club, May 1966).wav

Peak level 99.9 %
Extraction speed 2.9 X
Track quality 99.9 %
Test CRC 323B32DD
Copy CRC 323B32DD
Track not present in AccurateRip database
Copy OK

Track 7

Filename C:\Users\ian\Desktop\The Pretty Things - Live At The BBC (2015) [FLAC] {4CD}\Live At The BBC CD1\07 - L. S. D. (Pretty Things Sessions - Saturday Club, May 1966).wav

Pre-gap length 0:00:01.73

Peak level 98.3 %
Extraction speed 3.3 X
Track quality 100.0 %
Test CRC EC35B7CA
Copy CRC EC35B7CA
Track not present in AccurateRip database
Copy OK

Track 8

Filename C:\Users\ian\Desktop\The Pretty Things - Live At The BBC (2015) [FLAC] {4CD}\Live At The BBC CD1\08 - Midnight To Six Man (Pretty Things Sessions - Saturday Club, May 1966).wav

Pre-gap length 0:00:02.17

Peak level 97.6 %
Extraction speed 3.5 X
Track quality 100.0 %
Test CRC C925CDE2
Copy CRC C925CDE2
Track not present in AccurateRip database
Copy OK

Track 9

Filename C:\Users\ian\Desktop\The Pretty Things - Live At The BBC (2015) [FLAC] {4CD}\Live At The BBC CD1\09 - Buzz The Jerk (Pretty Things Sessions - Saturday Club, May 1966).wav

Pre-gap length 0:00:02.48

Peak level 97.4 %
Extraction speed 3.3 X
Track quality 100.0 %
Test CRC 7F1BA4E9
Copy CRC 7F1BA4E9
Track not present in AccurateRip database
Copy OK

Track 10

Filename C:\Users\ian\Desktop\The Pretty Things - Live At The BBC (2015) [FLAC] {4CD}\Live At The BBC CD1\10 - Midnight To Six Man (Blues At The BBC, 1966).wav

Pre-gap length 0:00:01.74

Peak level 87.4 %
Extraction speed 2.7 X
Track quality 99.9 %
Test CRC 89246291
Copy CRC 89246291
Track not present in AccurateRip database
Copy OK

Track 11

Filename C:\Users\ian\Desktop\The Pretty Things - Live At The BBC (2015) [FLAC] {4CD}\Live At The BBC CD1\11 - Turn My Head (Pretty Things Sessions - Top Gear, 3 Dec 1967).wav

Pre-gap length 0:00:02.45

Peak level 90.1 %
Extraction speed 3.9 X
Track quality 100.0 %
Test CRC 2223CA78
Copy CRC 2223CA78
Track not present in AccurateRip database
Copy OK

Track 12

Filename C:\Users\ian\Desktop\The Pretty Things - Live At The BBC (2015) [FLAC] {4CD}\Live At The BBC CD1\12 - Defecting Grey (Pretty Things Sessions - Top Gear, 3 Dec 1967).wav

Peak level 87.1 %
Extraction speed 4.1 X
Track quality 100.0 %
Test CRC C8DAEF47
Copy CRC C8DAEF47
Track not present in AccurateRip database
Copy OK

Track 13

Filename C:\Users\ian\Desktop\The Pretty Things - Live At The BBC (2015) [FLAC] {4CD}\Live At The BBC CD1\13 - Walking Through My Dreams (Pretty Things Sessions - Top Gear, 3 Dec 1967).wav

Peak level 87.9 %
Extraction speed 4.0 X
Track quality 100.0 %
Test CRC 5D9673A2
Copy CRC 5D9673A2
Track not present in AccurateRip database
Copy OK

Track 14

Filename C:\Users\ian\Desktop\The Pretty Things - Live At The BBC (2015) [FLAC] {4CD}\Live At The BBC CD1\14 - S.F. Sorrow Is Born (Radio One-Peel Sessions - Top Gear, 17 Nov 1968).wav

Pre-gap length 0:00:02.10

Peak level 91.8 %
Extraction speed 4.3 X
Track quality 100.0 %
Test CRC D7A5550E
Copy CRC D7A5550E
Track not present in AccurateRip database
Copy OK

Track 15

Filename C:\Users\ian\Desktop\The Pretty Things - Live At The BBC (2015) [FLAC] {4CD}\Live At The BBC CD1\15 - She Says Good Morning (Radio One-Peel Sessions - Top Gear, 17 Nov 1968).wav

Pre-gap length 0:00:00.81

Peak level 97.3 %
Extraction speed 4.4 X
Track quality 100.0 %
Test CRC FF738AC6
Copy CRC FF738AC6
Track not present in AccurateRip database
Copy OK

Track 16

Filename C:\Users\ian\Desktop\The Pretty Things - Live At The BBC (2015) [FLAC] {4CD}\Live At The BBC CD1\16 - Balloon Burning (Radio One-Peel Sessions - Top Gear, 17 Nov 1968).wav

Pre-gap length 0:00:01.44

Peak level 98.4 %
Extraction speed 3.7 X
Track quality 99.9 %
Test CRC BC1614D0
Copy CRC BC1614D0
Track not present in AccurateRip database
Copy OK

Track 17

Filename C:\Users\ian\Desktop\The Pretty Things - Live At The BBC (2015) [FLAC] {4CD}\Live At The BBC CD1\17 - Send You With Loving (Radio One-Peel Sessions - Top Gear, 25 May 1969).wav

Pre-gap length 0:00:01.86

Peak level 99.9 %
Extraction speed 4.3 X
Track quality 100.0 %
Test CRC B58EB816
Copy CRC B58EB816
Track not present in AccurateRip database
Copy OK

Track 18

Filename C:\Users\ian\Desktop\The Pretty Things - Live At The BBC (2015) [FLAC] {4CD}\Live At The BBC CD1\18 - Spring (Radio One-Peel Sessions - Top Gear, 25 May 1969).wav

Pre-gap length 0:00:02.22

Peak level 99.9 %
Extraction speed 4.2 X
Track quality 100.0 %
Test CRC 40371A98
Copy CRC 40371A98
Track not present in AccurateRip database
Copy OK

Track 19

Filename C:\Users\ian\Desktop\The Pretty Things - Live At The BBC (2015) [FLAC] {4CD}\Live At The BBC CD1\19 - She's A Lover (Radio One-Peel Sessions - BBC Sounds Of The 70s, 6 Jul 1970).wav

Pre-gap length 0:00:02.04

Peak level 99.9 %
Extraction speed 4.7 X
Track quality 100.0 %
Test CRC 07A2D2B2
Copy CRC 07A2D2B2
Track not present in AccurateRip database
Copy OK

Track 20

Filename C:\Users\ian\Desktop\The Pretty Things - Live At The BBC (2015) [FLAC] {4CD}\Live At The BBC CD1\20 - Sickle Clowns (Radio One-Peel Sessions - BBC Sounds Of The 70s, 6 Jul 1970).wav

Pre-gap length 0:00:02.44

Peak level 99.7 %
Extraction speed 4.2 X
Track quality 99.9 %
Test CRC F62B70F8
Copy CRC F62B70F8
Track not present in AccurateRip database
Copy OK

Track 21

Filename C:\Users\ian\Desktop\The Pretty Things - Live At The BBC (2015) [FLAC] {4CD}\Live At The BBC CD1\21 - Cries From The Midnight Circus (Radio One-Peel Sessions - BBC Sounds Of The 70s, 11 Sep 1970).wav

Pre-gap length 0:00:02.21

Peak level 98.4 %
Extraction speed 4.6 X
Track quality 99.9 %
Test CRC 668B8E60
Copy CRC 668B8E60
Track not present in AccurateRip database
Copy OK

Track 22

Filename C:\Users\ian\Desktop\The Pretty Things - Live At The BBC (2015) [FLAC] {4CD}\Live At The BBC CD1\22 - Cold Stone (Radio One-Peel Sessions - Top Gear, 15 May 1971).wav

Pre-gap length 0:00:01.92

Peak level 98.4 %
Extraction speed 5.1 X
Track quality 100.0 %
Test CRC 478A0D75
Copy CRC 478A0D75
Track not present in AccurateRip database
Copy OK

Track 23

Filename C:\Users\ian\Desktop\The Pretty Things - Live At The BBC (2015) [FLAC] {4CD}\Live At The BBC CD1\23 - Stone-Hearted Mama (Radio One-Peel Sessions - Top Gear, 15 May 1971).wav

Pre-gap length 0:00:01.72

Peak level 97.9 %
Extraction speed 5.1 X
Track quality 100.0 %
Test CRC 4B47A55F
Copy CRC 4B47A55F
Track not present in AccurateRip database
Copy OK

Track 24

Filename C:\Users\ian\Desktop\The Pretty Things - Live At The BBC (2015) [FLAC] {4CD}\Live At The BBC CD1\24 - Summertime (Radio One-Peel Sessions - Mike Harding, 29 Jun 1971).wav

Pre-gap length 0:00:01.77

Peak level 98.6 %
Extraction speed 5.5 X
Track quality 100.0 %
Test CRC 24104C8A
Copy CRC 24104C8A
Track not present in AccurateRip database
Copy OK

Track 25

Filename C:\Users\ian\Desktop\The Pretty Things - Live At The BBC (2015) [FLAC] {4CD}\Live At The BBC CD1\25 - Sweet Orphan Lady (Radio One-Peel Sessions, 1971).wav

Pre-gap length 0:00:01.25

Peak level 98.7 %
Extraction speed 5.6 X
Track quality 100.0 %
Test CRC 861DC682
Copy CRC 861DC682
Track not present in AccurateRip database
Copy OK


None of the tracks are present in the AccurateRip database

No errors occurred

End of status report

–– CUETools DB Plugin V2.1.3

[CTDB TOCID: 7Mfqk35PL4siChmKLMQg6JKIqps-] found, Submit result: 7Mfqk35PL4siChmKLMQg6JKIqps- has been confirmed
[16d8249a] (6/6) Accurately ripped


==== Log checksum 7BDB004675B39CE267CEE3A9C69FF71783037C31AB65DFC51ED54C91A9DA53C8 ====




Exact Audio Copy V1.0 beta 3 from 29. August 2011

EAC extraction logfile from 25. July 2015, 13:01

The Pretty Things / Live At The BBC CD2

Used drive : TSSTcorpCDDVDW SE-S084F Adapter: 1 ID: 0

Read mode : Secure
Utilize accurate stream : Yes
Defeat audio cache : Yes
Make use of C2 pointers : No

Read offset correction : 6
Overread into Lead-In and Lead-Out : No
Fill up missing offset samples with silence : Yes
Delete leading and trailing silent blocks : No
Null samples used in CRC calculations : Yes
Used interface : Native Win32 interface for Win NT & 2000
Gap handling : Appended to previous track

Used output format : User Defined Encoder
Selected bitrate : 1024 kBit/s
Quality : High
Add ID3 tag : No
Command line compressor : C:\Program Files (x86)\Exact Audio Copy\Flac\flac.exe
Additional command line options : -8 -V -T "ARTIST=%artist%" -T "TITLE=%title%" -T "ALBUM=%albumtitle%" -T "DATE=%year%" -T "TRACKNUMBER=%tracknr%" -T "GENRE=%genre%" -T "PERFORMER=%albuminterpret%" -T "COMPOSER=%composer%" %haslyrics%–tag-from-file=LYRICS="%lyricsfile%"%haslyrics% -T "ALBUMARTIST=%albumartist%" -T "DISCNUMBER=%cdnumber%" -T "TOTALDISCS=%totalcds%" -T "TOTALTRACKS=%numtracks%" -T "COMMENT=%comment%" %source% -o %dest%


TOC of the extracted CD

Track | Start | Length | Start sector | End sector
––––––––––––––––––––––––––––-
1 | 0:00.00 | 4:58.01 | 0 | 22350
2 | 4:58.01 | 7:05.04 | 22351 | 54229
3 | 12:03.05 | 4:34.18 | 54230 | 74797
4 | 16:37.23 | 4:58.44 | 74798 | 97191
5 | 21:35.67 | 3:24.36 | 97192 | 112527
6 | 25:00.28 | 3:45.15 | 112528 | 129417
7 | 28:45.43 | 1:55.59 | 129418 | 138101
8 | 30:41.27 | 9:20.52 | 138102 | 180153
9 | 40:02.04 | 7:09.48 | 180154 | 212376
10 | 47:11.52 | 2:21.45 | 212377 | 222996
11 | 49:33.22 | 2:34.54 | 222997 | 234600
12 | 52:08.01 | 7:52.21 | 234601 | 270021
13 | 60:00.22 | 2:39.33 | 270022 | 281979
14 | 62:39.55 | 5:18.71 | 281980 | 305900
15 | 67:58.51 | 7:33.70 | 305901 | 339945


Track 1

Filename C:\Users\ian\Desktop\The Pretty Things - Live At The BBC (2015) [FLAC] {4CD}\Live At The BBC CD2\01 - Peter - Rip Off Train (Mono Version).wav

Pre-gap length 0:00:02.00

Peak level 99.9 %
Extraction speed 2.9 X
Track quality 100.0 %
Test CRC 8A7F2747
Copy CRC 8A7F2747
Track not present in AccurateRip database
Copy OK

Track 2

Filename C:\Users\ian\Desktop\The Pretty Things - Live At The BBC (2015) [FLAC] {4CD}\Live At The BBC CD2\02 - Love Is Good (Mono Version).wav

Pre-gap length 0:00:01.52

Peak level 99.8 %
Extraction speed 3.4 X
Track quality 100.0 %
Test CRC 1A52A4EE
Copy CRC 1A52A4EE
Track not present in AccurateRip database
Copy OK

Track 3

Filename C:\Users\ian\Desktop\The Pretty Things - Live At The BBC (2015) [FLAC] {4CD}\Live At The BBC CD2\03 - Summertime (Mono Version).wav

Pre-gap length 0:00:01.98

Peak level 98.8 %
Extraction speed 3.0 X
Track quality 99.9 %
Test CRC CAFAD6F0
Copy CRC CAFAD6F0
Track not present in AccurateRip database
Copy OK

Track 4

Filename C:\Users\ian\Desktop\The Pretty Things - Live At The BBC (2015) [FLAC] {4CD}\Live At The BBC CD2\04 - Slow Beginnings (Mono Version).wav

Pre-gap length 0:00:01.04

Peak level 98.8 %
Extraction speed 3.8 X
Track quality 100.0 %
Test CRC 13EEE6A5
Copy CRC 13EEE6A5
Track not present in AccurateRip database
Copy OK

Track 5

Filename C:\Users\ian\Desktop\The Pretty Things - Live At The BBC (2015) [FLAC] {4CD}\Live At The BBC CD2\05 - Stone Hearted Mama (Mono Version).wav

Pre-gap length 0:00:00.85

Peak level 98.8 %
Extraction speed 3.1 X
Track quality 99.9 %
Test CRC 59DE994D
Copy CRC 59DE994D
Track not present in AccurateRip database
Copy OK

Track 6

Filename C:\Users\ian\Desktop\The Pretty Things - Live At The BBC (2015) [FLAC] {4CD}\Live At The BBC CD2\06 - Cold Stone (Mono Version).wav

Pre-gap length 0:00:00.01

Peak level 99.9 %
Extraction speed 4.1 X
Track quality 100.0 %
Test CRC 62E83F9F
Copy CRC 62E83F9F
Track not present in AccurateRip database
Copy OK

Track 7

Filename C:\Users\ian\Desktop\The Pretty Things - Live At The BBC (2015) [FLAC] {4CD}\Live At The BBC CD2\07 - Circus Mind (Mono Version).wav

Peak level 99.4 %
Extraction speed 3.6 X
Track quality 100.0 %
Test CRC 4F7279C5
Copy CRC 4F7279C5
Track not present in AccurateRip database
Copy OK

Track 8

Filename C:\Users\ian\Desktop\The Pretty Things - Live At The BBC (2015) [FLAC] {4CD}\Live At The BBC CD2\08 - Onion Soup (Mono Version).wav

Pre-gap length 0:00:02.18

Peak level 99.1 %
Extraction speed 4.8 X
Track quality 100.0 %
Test CRC A8A8C9E5
Copy CRC A8A8C9E5
Track not present in AccurateRip database
Copy OK

Track 9

Filename C:\Users\ian\Desktop\The Pretty Things - Live At The BBC (2015) [FLAC] {4CD}\Live At The BBC CD2\09 - Love Is Good (Mono Version).wav

Pre-gap length 0:00:01.18

Peak level 99.6 %
Extraction speed 5.0 X
Track quality 100.0 %
Test CRC 749C6E2B
Copy CRC 749C6E2B
Track not present in AccurateRip database
Copy OK

Track 10

Filename C:\Users\ian\Desktop\The Pretty Things - Live At The BBC (2015) [FLAC] {4CD}\Live At The BBC CD2\10 - Rosalyn (Mono Version).wav

Pre-gap length 0:00:01.05

Peak level 99.8 %
Extraction speed 4.4 X
Track quality 100.0 %
Test CRC 91180F64
Copy CRC 91180F64
Track not present in AccurateRip database
Copy OK

Track 11

Filename C:\Users\ian\Desktop\The Pretty Things - Live At The BBC (2015) [FLAC] {4CD}\Live At The BBC CD2\11 - All Night Sailor (Mono Version).wav

Pre-gap length 0:00:01.86

Peak level 98.9 %
Extraction speed 3.5 X
Track quality 99.9 %
Test CRC 41F86573
Copy CRC 41F86573
Track not present in AccurateRip database
Copy OK

Track 12

Filename C:\Users\ian\Desktop\The Pretty Things - Live At The BBC (2015) [FLAC] {4CD}\Live At The BBC CD2\12 - Onion Soup - Another Bowl (Mono Version).wav

Pre-gap length 0:00:02.62

Peak level 98.3 %
Extraction speed 5.4 X
Track quality 100.0 %
Test CRC 6E455699
Copy CRC 6E455699
Track not present in AccurateRip database
Copy OK

Track 13

Filename C:\Users\ian\Desktop\The Pretty Things - Live At The BBC (2015) [FLAC] {4CD}\Live At The BBC CD2\13 - Route 66 (Live at the BBC - Radio One Session.wav

Pre-gap length 0:00:02.89

Peak level 99.8 %
Extraction speed 4.9 X
Track quality 100.0 %
Test CRC 42254E89
Copy CRC 42254E89
Track not present in AccurateRip database
Copy OK

Track 14

Filename C:\Users\ian\Desktop\The Pretty Things - Live At The BBC (2015) [FLAC] {4CD}\Live At The BBC CD2\14 - Peter - Rip off Train (Live at the BBC - Radio One Session.wav

Pre-gap length 0:00:01.80

Peak level 99.8 %
Extraction speed 5.4 X
Track quality 100.0 %
Test CRC 929E07BE
Copy CRC 929E07BE
Track not present in AccurateRip database
Copy OK

Track 15

Filename C:\Users\ian\Desktop\The Pretty Things - Live At The BBC (2015) [FLAC] {4CD}\Live At The BBC CD2\15 - Atlanta (Live at the BBC - Radio One Session.wav

Pre-gap length 0:00:02.14

Peak level 99.6 %
Extraction speed 5.8 X
Track quality 100.0 %
Test CRC AB59CC75
Copy CRC AB59CC75
Track not present in AccurateRip database
Copy OK


None of the tracks are present in the AccurateRip database

No errors occurred

End of status report

–– CUETools DB Plugin V2.1.3

[CTDB TOCID: CW9J_uk_tuNYTuWLB61pA8hlmmk-] found, Submit result: CW9J_uk_tuNYTuWLB61pA8hlmmk- has been confirmed
[f6fe2a01] (6/6) Accurately ripped


==== Log checksum 60AEB73AC1F01B61D6623889520E680FEA704E7BE9B554F213396AD4E897E861 ====





Exact Audio Copy V1.0 beta 3 from 29. August 2011

EAC extraction logfile from 25. July 2015, 13:49

The Pretty Things / Live At The BBC CD3

Used drive : TSSTcorpCDDVDW SE-S084F Adapter: 1 ID: 0

Read mode : Secure
Utilize accurate stream : Yes
Defeat audio cache : Yes
Make use of C2 pointers : No

Read offset correction : 6
Overread into Lead-In and Lead-Out : No
Fill up missing offset samples with silence : Yes
Delete leading and trailing silent blocks : No
Null samples used in CRC calculations : Yes
Used interface : Native Win32 interface for Win NT & 2000
Gap handling : Appended to previous track

Used output format : User Defined Encoder
Selected bitrate : 1024 kBit/s
Quality : High
Add ID3 tag : No
Command line compressor : C:\Program Files (x86)\Exact Audio Copy\Flac\flac.exe
Additional command line options : -8 -V -T "ARTIST=%artist%" -T "TITLE=%title%" -T "ALBUM=%albumtitle%" -T "DATE=%year%" -T "TRACKNUMBER=%tracknr%" -T "GENRE=%genre%" -T "PERFORMER=%albuminterpret%" -T "COMPOSER=%composer%" %haslyrics%–tag-from-file=LYRICS="%lyricsfile%"%haslyrics% -T "ALBUMARTIST=%albumartist%" -T "DISCNUMBER=%cdnumber%" -T "TOTALDISCS=%totalcds%" -T "TOTALTRACKS=%numtracks%" -T "COMMENT=%comment%" %source% -o %dest%


TOC of the extracted CD

Track | Start | Length | Start sector | End sector
––––––––––––––––––––––––––––-
1 | 0:00.00 | 5:41.54 | 0 | 25628
2 | 5:41.54 | 5:19.07 | 25629 | 49560
3 | 11:00.61 | 6:43.56 | 49561 | 79841
4 | 17:44.42 | 8:15.39 | 79842 | 117005
5 | 26:00.06 | 3:03.54 | 117006 | 130784
6 | 29:03.60 | 5:06.08 | 130785 | 153742
7 | 34:09.68 | 4:15.05 | 153743 | 172872
8 | 38:24.73 | 6:35.15 | 172873 | 202512
9 | 45:00.13 | 8:19.19 | 202513 | 239956
10 | 53:19.32 | 3:08.16 | 239957 | 254072


Track 1

Filename C:\Users\ian\Desktop\The Pretty Things - Live At The BBC (2015) [FLAC] {4CD}\Live At The BBC CD3\01 - Religion's Dead (Live at the BBC - BBC in Concert).wav

Pre-gap length 0:00:02.00

Peak level 99.9 %
Extraction speed 2.7 X
Track quality 100.0 %
Test CRC A8544D7B
Copy CRC A8544D7B
Track not present in AccurateRip database
Copy OK

Track 2

Filename C:\Users\ian\Desktop\The Pretty Things - Live At The BBC (2015) [FLAC] {4CD}\Live At The BBC CD3\02 - Havana Bound (Live at the BBC - BBC in Concert).wav

Peak level 99.9 %
Extraction speed 3.0 X
Track quality 100.0 %
Test CRC 1C0DED2C
Copy CRC 1C0DED2C
Track not present in AccurateRip database
Copy OK

Track 3

Filename C:\Users\ian\Desktop\The Pretty Things - Live At The BBC (2015) [FLAC] {4CD}\Live At The BBC CD3\03 - Love Is Good (Live at the BBC - BBC in Concert).wav

Peak level 99.9 %
Extraction speed 3.4 X
Track quality 100.0 %
Test CRC 21AF2830
Copy CRC 21AF2830
Track not present in AccurateRip database
Copy OK

Track 4

Filename C:\Users\ian\Desktop\The Pretty Things - Live At The BBC (2015) [FLAC] {4CD}\Live At The BBC CD3\04 - Onion Soup (Live at the BBC - BBC in Concert).wav

Peak level 99.9 %
Extraction speed 3.8 X
Track quality 100.0 %
Test CRC ED10A01D
Copy CRC ED10A01D
Track not present in AccurateRip database
Copy OK

Track 5

Filename C:\Users\ian\Desktop\The Pretty Things - Live At The BBC (2015) [FLAC] {4CD}\Live At The BBC CD3\05 - Route 66 (Live at the BBC - BBC in Concert).wav

Peak level 99.9 %
Extraction speed 3.6 X
Track quality 100.0 %
Test CRC 79426B07
Copy CRC 79426B07
Track not present in AccurateRip database
Copy OK

Track 6

Filename C:\Users\ian\Desktop\The Pretty Things - Live At The BBC (2015) [FLAC] {4CD}\Live At The BBC CD3\06 - Religion's Dead (Live at the BBC - Live at Golders Green Hippodrome).wav

Pre-gap length 0:00:02.28

Peak level 99.9 %
Extraction speed 3.5 X
Track quality 99.9 %
Test CRC 0D2ECC55
Copy CRC 0D2ECC55
Track not present in AccurateRip database
Copy OK

Track 7

Filename C:\Users\ian\Desktop\The Pretty Things - Live At The BBC (2015) [FLAC] {4CD}\Live At The BBC CD3\07 - Havana Bound (Live at the BBC - Live at Golders Green Hippodrome).wav

Peak level 99.8 %
Extraction speed 4.2 X
Track quality 100.0 %
Test CRC D5173358
Copy CRC D5173358
Track not present in AccurateRip database
Copy OK

Track 8

Filename C:\Users\ian\Desktop\The Pretty Things - Live At The BBC (2015) [FLAC] {4CD}\Live At The BBC CD3\08 - Love Is Good (Live at the BBC - Live at Golders Green Hippodrome).wav

Peak level 99.8 %
Extraction speed 4.5 X
Track quality 100.0 %
Test CRC C2835619
Copy CRC C2835619
Track not present in AccurateRip database
Copy OK

Track 9

Filename C:\Users\ian\Desktop\The Pretty Things - Live At The BBC (2015) [FLAC] {4CD}\Live At The BBC CD3\09 - Onion Soup (Live at the BBC - Live at Golders Green Hippodrome).wav

Peak level 99.9 %
Extraction speed 4.9 X
Track quality 100.0 %
Test CRC 27510538
Copy CRC 27510538
Track not present in AccurateRip database
Copy OK

Track 10

Filename C:\Users\ian\Desktop\The Pretty Things - Live At The BBC (2015) [FLAC] {4CD}\Live At The BBC CD3\10 - Route 66 (Live at the BBC - Live at Golders Green Hippodrome).wav

Peak level 99.9 %
Extraction speed 3.5 X
Track quality 99.9 %
Test CRC 7CBB6D0E
Copy CRC 7CBB6D0E
Track not present in AccurateRip database
Copy OK


None of the tracks are present in the AccurateRip database

No errors occurred

End of status report

–– CUETools DB Plugin V2.1.3

[CTDB TOCID: i4yCLcoNhhxdzfJJ.eqmV0dHeBU-] found, Submit result: i4yCLcoNhhxdzfJJ.eqmV0dHeBU- has been confirmed
[b6a1eb96] (6/6) Accurately ripped


==== Log checksum AC0198C98734C11B6EB4FF8996D50FDFA93343716D297925414A958526B05A22 ====





Exact Audio Copy V1.0 beta 3 from 29. August 2011

EAC extraction logfile from 25. July 2015, 14:32

The Pretty Things / Live At The BBC CD4

Used drive : TSSTcorpCDDVDW SE-S084F Adapter: 1 ID: 0

Read mode : Secure
Utilize accurate stream : Yes
Defeat audio cache : Yes
Make use of C2 pointers : No

Read offset correction : 6
Overread into Lead-In and Lead-Out : No
Fill up missing offset samples with silence : Yes
Delete leading and trailing silent blocks : No
Null samples used in CRC calculations : Yes
Used interface : Native Win32 interface for Win NT & 2000
Gap handling : Appended to previous track

Used output format : User Defined Encoder
Selected bitrate : 1024 kBit/s
Quality : High
Add ID3 tag : No
Command line compressor : C:\Program Files (x86)\Exact Audio Copy\Flac\flac.exe
Additional command line options : -8 -V -T "ARTIST=%artist%" -T "TITLE=%title%" -T "ALBUM=%albumtitle%" -T "DATE=%year%" -T "TRACKNUMBER=%tracknr%" -T "GENRE=%genre%" -T "PERFORMER=%albuminterpret%" -T "COMPOSER=%composer%" %haslyrics%–tag-from-file=LYRICS="%lyricsfile%"%haslyrics% -T "ALBUMARTIST=%albumartist%" -T "DISCNUMBER=%cdnumber%" -T "TOTALDISCS=%totalcds%" -T "TOTALTRACKS=%numtracks%" -T "COMMENT=%comment%" %source% -o %dest%


TOC of the extracted CD

Track | Start | Length | Start sector | End sector
––––––––––––––––––––––––––––-
1 | 0:00.00 | 4:54.21 | 0 | 22070
2 | 4:54.21 | 4:53.41 | 22071 | 44086
3 | 9:47.62 | 3:20.74 | 44087 | 59160
4 | 13:08.61 | 6:22.47 | 59161 | 87857
5 | 19:31.33 | 1:10.51 | 87858 | 93158
6 | 20:42.09 | 3:41.48 | 93159 | 109781
7 | 24:23.57 | 6:56.46 | 109782 | 141027
8 | 31:20.28 | 6:31.38 | 141028 | 170390
9 | 37:51.66 | 4:47.58 | 170391 | 191973
10 | 42:39.49 | 6:14.52 | 191974 | 220075


Track 1

Filename C:\Users\ian\Desktop\The Pretty Things - Live At The BBC (2015) [FLAC] {4CD}\Live At The BBC CD4\01 - Bridge of God.wav

Pre-gap length 0:00:02.00

Peak level 99.6 %
Extraction speed 2.6 X
Track quality 100.0 %
Test CRC 090820BE
Copy CRC 090820BE
Track not present in AccurateRip database
Copy OK

Track 2

Filename C:\Users\ian\Desktop\The Pretty Things - Live At The BBC (2015) [FLAC] {4CD}\Live At The BBC CD4\02 - Singapore Silk Torpedo.wav

Pre-gap length 0:00:01.18

Peak level 99.6 %
Extraction speed 2.9 X
Track quality 100.0 %
Test CRC 51B9F37F
Copy CRC 51B9F37F
Track not present in AccurateRip database
Copy OK

Track 3

Filename C:\Users\ian\Desktop\The Pretty Things - Live At The BBC (2015) [FLAC] {4CD}\Live At The BBC CD4\03 - Singapore Silk Torpedo.wav

Pre-gap length 0:00:02.86

Peak level 99.6 %
Extraction speed 3.0 X
Track quality 100.0 %
Test CRC 87FC8877
Copy CRC 87FC8877
Track not present in AccurateRip database
Copy OK

Track 4

Filename C:\Users\ian\Desktop\The Pretty Things - Live At The BBC (2015) [FLAC] {4CD}\Live At The BBC CD4\04 - Dream - Joey.wav

Pre-gap length 0:00:02.20

Peak level 99.6 %
Extraction speed 3.5 X
Track quality 100.0 %
Test CRC D3DC4B76
Copy CRC D3DC4B76
Track not present in AccurateRip database
Copy OK

Track 5

Filename C:\Users\ian\Desktop\The Pretty Things - Live At The BBC (2015) [FLAC] {4CD}\Live At The BBC CD4\05 - Not Only but Also.wav

Pre-gap length 0:00:01.69

Peak level 99.6 %
Extraction speed 1.7 X
Track quality 99.8 %
Test CRC A1E79470
Copy CRC A1E79470
Track not present in AccurateRip database
Copy OK

Track 6

Filename C:\Users\ian\Desktop\The Pretty Things - Live At The BBC (2015) [FLAC] {4CD}\Live At The BBC CD4\06 - Big City.wav

Pre-gap length 0:00:01.81

Peak level 99.6 %
Extraction speed 3.5 X
Track quality 100.0 %
Test CRC 71794DEB
Copy CRC 71794DEB
Track not present in AccurateRip database
Copy OK

Track 7

Filename C:\Users\ian\Desktop\The Pretty Things - Live At The BBC (2015) [FLAC] {4CD}\Live At The BBC CD4\07 - Belfast Cowboys - Bruise in the Sky.wav

Pre-gap length 0:00:01.98

Peak level 99.6 %
Extraction speed 4.1 X
Track quality 100.0 %
Test CRC 636E76C7
Copy CRC 636E76C7
Track not present in AccurateRip database
Copy OK

Track 8

Filename C:\Users\ian\Desktop\The Pretty Things - Live At The BBC (2015) [FLAC] {4CD}\Live At The BBC CD4\08 - Dream - Joey (Live at the BBC - John Peel).wav

Pre-gap length 0:00:02.82

Peak level 99.9 %
Extraction speed 4.3 X
Track quality 100.0 %
Test CRC 19363177
Copy CRC 19363177
Track not present in AccurateRip database
Copy OK

Track 9

Filename C:\Users\ian\Desktop\The Pretty Things - Live At The BBC (2015) [FLAC] {4CD}\Live At The BBC CD4\09 - Singapore Silk Torpedo (Mono Version).wav

Pre-gap length 0:00:01.53

Peak level 97.8 %
Extraction speed 4.4 X
Track quality 100.0 %
Test CRC 42A31A60
Copy CRC 42A31A60
Track not present in AccurateRip database
Copy OK

Track 10

Filename C:\Users\ian\Desktop\The Pretty Things - Live At The BBC (2015) [FLAC] {4CD}\Live At The BBC CD4\10 - Dream - Joey (Mono Version) [Live at the BBC - Old Grey Whistle Test).wav

Pre-gap length 0:00:01.65

Peak level 97.8 %
Extraction speed 4.7 X
Track quality 100.0 %
Test CRC 4D4E0CAC
Copy CRC 4D4E0CAC
Track not present in AccurateRip database
Copy OK


None of the tracks are present in the AccurateRip database

No errors occurred

End of status report

–– CUETools DB Plugin V2.1.3

[CTDB TOCID: YmgF9IeAoCGteFFd_biQN.3pM1c-] found, Submit result: YmgF9IeAoCGteFFd_biQN.3pM1c- has been confirmed
[762d4864] (6/6) Accurately ripped


==== Log checksum 21F5F0170FBA877179716F8121823396815726E88C5B7FF331F75342679D3912 ====


The Pretty Things - Live At The BBC (2015) {4CD Box Set Repertoire Records REPUK1205 rec 1964-1975}



===