Subcategories
Please register here if you want to download anything!

If domain in your address bar is different from the list below
PLEASE LEAVE THAT SITE IMMEDIATELY
❗IT'S A DANGEROUS FAKE❗



Spicy Magazines for Men! ;-)

The Stooges - Gimme Danger: Music from the Motion Picture (2017) {Rhino 081227941178}

Posted By: ruskaval
The Stooges - Gimme Danger: Music from the Motion Picture (2017) {Rhino 081227941178}

The Stooges - Gimme Danger: Music from the Motion Picture (2017) {Rhino 081227941178}
EAC rip (secure mode) | FLAC (tracks)+CUE+LOG -> 427 Mb | MP3 @320 -> 138 Mb
Full Artwork @ 300 dpi (png) -> 92 Mb | 5% repair rar
© 2017 Rhino Entertainment Company / Warner Music / Thousand Mile | 081227941178
Rock / Punk Rock / Stage & Screen

The documentary ‘Gimme Danger’ on Detroit’s legendary rockers The Stooges, directed by noted filmmaker Jim Jarmusch, premiered to rave reviews at the Cannes Film Festival in May of this year. The CD soundtrack is 14 tracks - 2 from Iggy’s pre-Stooges combos The Iguanas, & the Prime Movers, a selection of songs from The Stooges 2 WMG albums, including some outtake tracks, plus 3 tracks from the Iggy & The Stooges ‘Raw Power’ release thru Sony (again, including outtakes), plus a classic from their big brothers in the MC5.
The Stooges - Gimme Danger: Music from the Motion Picture (2017) {Rhino 081227941178}

When it comes to The Stooges’ place in rock history, there’s more or less a consensus among rock critics – or as close to a consensus as you’re ever going to get with rock critics, anyway – that they’re among the greatest rock bands of all time.

As such, if a director was going to put together a documentary – or “rockumentary,” if you will – about the life and times of The Stooges, one would hope that it would prove to be as memorable and historic as the band itself. Given that Jim Jarmusch’s Gimme Danger currently sits with a 94% rating on RottenTomatoes.com, it would seem that the film has delivered exactly what Stooges fans wanted, and you may rest assured that the soundtrack succeeds equally well.

GIMME DANGER: MUSIC FROM THE MOTION PICTURE is now available on both CD and LP, and while the track listings vary slightly between the two, the quality of the music contained within both is still solid from start to finish. With songs selected by Jarmusch and Iggy Pop himself, the soundtrack focuses on tracks from The Stooges’ first three studio albums, along with a few songs by Iggy’s pre-Stooges bands The Iguanas (“Again and Again”) and Prime Movers Blues Band (“I’m a Man”) as well as the MC5’s classic “Ramblin’ Rose.” It’s a great compilation, and if you’ve never owned a Stooges album, it’s also the perfect gateway drug into their catalog.
The Stooges - Gimme Danger: Music from the Motion Picture (2017) {Rhino 081227941178}


Musicians & Track Listing

01 - Iggy & The Stooges - Gimme danger (Bowie mix)
02 - The Stooges - No Fun
03 - The Stooges - I Wanna Be Your Dog
04 - The Stooges - 1969
05 - The Stooges - Little Doll
06 - The Stooges - Down on the Street
07 - The Stooges - Loose
08 - Iggy & The Stooges - I Got a Right (Outtake from early aborted Raw Power session)
09 - Iggy & The Stooges - I'm Sick of You (Outtake from early aborted Raw Power session)
10 - MC5 - Ramblin' Rose
11 - The Iguanas - Again and Again
12 - Prime Movers Blues Band - I'm a Man
13 - The Stooges - Lost in the Future (Take 1)
14 - The Stooges - Asthma Attack

Exact Audio Copy V1.3 from 2. September 2016

EAC extraction logfile from 11. August 2017, 13:41

The Stooges / Gimme Danger: Music from the Motion Picture

Used drive : ASUS BW-12D1S-U Adapter: 1 ID: 1

Read mode : Secure
Utilize accurate stream : Yes
Defeat audio cache : Yes
Make use of C2 pointers : No

Read offset correction : 667
Overread into Lead-In and Lead-Out : No
Fill up missing offset samples with silence : Yes
Delete leading and trailing silent blocks : No
Null samples used in CRC calculations : Yes
Used interface : Native Win32 interface for Win NT & 2000
Gap handling : Appended to previous track

Used output format : User Defined Encoder
Selected bitrate : 1024 kBit/s
Quality : High
Add ID3 tag : No
Command line compressor : C:\Program Files (x86)\Music Codec\flac1.3.2\win64\flac.exe
Additional command line options : -8 -V -T "ARTIST=%artist%" -T "TITLE=%title%" -T "ALBUM=%albumtitle%" -T "DATE=%year%" -T "TRACKNUMBER=%tracknr%" -T "TOTALTRACKS=%numtracks%" -T "GENRE=%genre%" -T "ALBUMARTIST=%albumartist%" -T "ALBUM ARTIST=%albumartist%" -T "COMMENT=EAC Secure Mode, Test & Copy, AccurateRip, FLAC -8" %source%


TOC of the extracted CD

Track | Start | Length | Start sector | End sector
––––––––––––––––––––––––––––-
1 | 0:00.00 | 3:29.68 | 0 | 15742
2 | 3:29.68 | 5:18.54 | 15743 | 39646
3 | 8:48.47 | 3:12.47 | 39647 | 54093
4 | 12:01.19 | 4:09.45 | 54094 | 72813
5 | 16:10.64 | 3:24.34 | 72814 | 88147
6 | 19:35.23 | 3:46.41 | 88148 | 105138
7 | 23:21.64 | 3:36.63 | 105139 | 121401
8 | 26:58.52 | 2:50.06 | 121402 | 134157
9 | 29:48.58 | 6:53.31 | 134158 | 165163
10 | 36:42.14 | 4:18.48 | 165164 | 184561
11 | 41:00.62 | 2:21.66 | 184562 | 195202
12 | 43:22.53 | 2:47.04 | 195203 | 207731
13 | 46:09.57 | 5:52.27 | 207732 | 234158
14 | 52:02.09 | 6:28.67 | 234159 | 263325


Track 1

Filename H:\3. my rip in preparation\New\Tilzzy\01 - Iggy & The Stooges - Gimme danger (Bowie mix).wav

Pre-gap length 0:00:02.00

Peak level 98.8 %
Extraction speed 4.6 X
Track quality 100.0 %
Test CRC 3398554E
Copy CRC 3398554E
Accurately ripped (confidence 3) [31068089] (AR v2)
Copy OK

Track 2

Filename H:\3. my rip in preparation\New\Tilzzy\02 - The Stooges - No Fun.wav

Peak level 98.8 %
Extraction speed 4.9 X
Track quality 99.9 %
Test CRC B65B4EC1
Copy CRC B65B4EC1
Accurately ripped (confidence 3) [A82A8F33] (AR v2)
Copy OK

Track 3

Filename H:\3. my rip in preparation\New\Tilzzy\03 - The Stooges - I Wanna Be Your Dog.wav

Peak level 98.9 %
Extraction speed 5.4 X
Track quality 100.0 %
Test CRC 71D12167
Copy CRC 71D12167
Accurately ripped (confidence 3) [F93F01E8] (AR v2)
Copy OK

Track 4

Filename H:\3. my rip in preparation\New\Tilzzy\04 - The Stooges - 1969.wav

Peak level 98.8 %
Extraction speed 6.0 X
Track quality 100.0 %
Test CRC E7602643
Copy CRC E7602643
Accurately ripped (confidence 3) [67E1B554] (AR v2)
Copy OK

Track 5

Filename H:\3. my rip in preparation\New\Tilzzy\05 - The Stooges - Little Doll.wav

Peak level 98.9 %
Extraction speed 6.1 X
Track quality 100.0 %
Test CRC E81ACE8A
Copy CRC E81ACE8A
Accurately ripped (confidence 3) [272BD949] (AR v2)
Copy OK

Track 6

Filename H:\3. my rip in preparation\New\Tilzzy\06 - The Stooges - Down on the Street.wav

Peak level 98.8 %
Extraction speed 6.5 X
Track quality 100.0 %
Test CRC 72AF90CE
Copy CRC 72AF90CE
Accurately ripped (confidence 3) [418D0A84] (AR v2)
Copy OK

Track 7

Filename H:\3. my rip in preparation\New\Tilzzy\07 - The Stooges - Loose.wav

Peak level 98.8 %
Extraction speed 6.7 X
Track quality 100.0 %
Test CRC 5A491E90
Copy CRC 5A491E90
Accurately ripped (confidence 3) [6E795079] (AR v2)
Copy OK

Track 8

Filename H:\3. my rip in preparation\New\Tilzzy\08 - Iggy & The Stooges - I Got a Right (Outtake from early aborted Raw Power session).wav

Peak level 98.8 %
Extraction speed 6.7 X
Track quality 100.0 %
Test CRC AC404E04
Copy CRC AC404E04
Accurately ripped (confidence 3) [FCC66566] (AR v2)
Copy OK

Track 9

Filename H:\3. my rip in preparation\New\Tilzzy\09 - Iggy & The Stooges - I'm Sick of You (Outtake from early aborted Raw Power session).wav

Peak level 98.8 %
Extraction speed 7.8 X
Track quality 100.0 %
Test CRC F8CD35D5
Copy CRC F8CD35D5
Accurately ripped (confidence 3) [B18595F8] (AR v2)
Copy OK

Track 10

Filename H:\3. my rip in preparation\New\Tilzzy\10 - MC5 - Ramblin' Rose.wav

Peak level 98.8 %
Extraction speed 7.0 X
Track quality 99.9 %
Test CRC EE1A77C6
Copy CRC EE1A77C6
Accurately ripped (confidence 3) [6AD74584] (AR v2)
Copy OK

Track 11

Filename H:\3. my rip in preparation\New\Tilzzy\11 - The Iguanas - Again and Again.wav

Peak level 98.8 %
Extraction speed 7.1 X
Track quality 100.0 %
Test CRC 1FE71CA1
Copy CRC 1FE71CA1
Accurately ripped (confidence 3) [06ED4E20] (AR v2)
Copy OK

Track 12

Filename H:\3. my rip in preparation\New\Tilzzy\12 - Prime Movers Blues Band - I'm a Man.wav

Peak level 100.0 %
Extraction speed 7.5 X
Track quality 100.0 %
Test CRC F03A8953
Copy CRC F03A8953
Accurately ripped (confidence 3) [00A7EA21] (AR v2)
Copy OK

Track 13

Filename H:\3. my rip in preparation\New\Tilzzy\13 - The Stooges - Lost in the Future (Take 1).wav

Peak level 98.8 %
Extraction speed 8.5 X
Track quality 100.0 %
Test CRC 9BEE9A46
Copy CRC 9BEE9A46
Accurately ripped (confidence 3) [3DC92C9E] (AR v2)
Copy OK

Track 14

Filename H:\3. my rip in preparation\New\Tilzzy\14 - The Stooges - Asthma Attack.wav

Peak level 98.8 %
Extraction speed 9.0 X
Track quality 100.0 %
Test CRC F24283C1
Copy CRC F24283C1
Accurately ripped (confidence 3) [800F8CEA] (AR v2)
Copy OK


All tracks accurately ripped

No errors occurred

End of status report

–– CUETools DB Plugin V2.1.6

[CTDB TOCID: y_agtmZw9cnDGRYsMjvJ2alYudQ-] found
Submit result: y_agtmZw9cnDGRYsMjvJ2alYudQ- has been confirmed
Track | CTDB Status
1 | (21/21) Accurately ripped
2 | (21/21) Accurately ripped
3 | (21/21) Accurately ripped
4 | (21/21) Accurately ripped
5 | (21/21) Accurately ripped
6 | (21/21) Accurately ripped
7 | (21/21) Accurately ripped
8 | (21/21) Accurately ripped
9 | (21/21) Accurately ripped
10 | (21/21) Accurately ripped
11 | (21/21) Accurately ripped
12 | (21/21) Accurately ripped
13 | (21/21) Accurately ripped
14 | (21/21) Accurately ripped


==== Log checksum 7D82FCBC0F5657AA72A81AA2053281BD18D5AD0D1D9FD3DF2131EADFF092BD2F ====


The Stooges - Gimme Danger: Music from the Motion Picture (2017) {Rhino 081227941178}

The Stooges - Gimme Danger: Music from the Motion Picture (2017) {Rhino 081227941178}



===