The Wave Pictures - Susan Rode The Cyclone (2010) {Little Teddy Recordings BlTe061CD}

Posted By: ruskaval
The Wave Pictures - Susan Rode The Cyclone (2010) {Little Teddy Recordings BlTe061CD}

The Wave Pictures - Susan Rode The Cyclone (2010) {Little Teddy Recordings BlTe061CD}
EAC rip (secure mode) | FLAC (tracks)+CUE+LOG -> 248 Mb | MP3 @320 -> 100 Mb
Full Artwork @ 300 dpi (jpg) -> 5 Mb | 5% repair rar
© 2010 Little Teddy Recordings | BlTe061CD
Rock / Indie Rock / Alternative / Experimental Rock

The Wave Pictures are an english band consisting of David Tattersall (vocals & guitar), Franic Rozycki (bass guitar) and Jonny Helm (drums). Susan Rode The Cyclone is their fourth official album release and their second for Little Teddy Recordings.

The Wave Pictures do not tire of playing their contagious cheek on whatever stage allows them to do so, in fact they make the most of the quiet moments between touring to go into the studio and come out with a collection of cheeky and playful songs in which folk and pop come together completely naturally. Still not satisfied with recording the brilliant "Instant Coffee Baby" (2008) and "If You Leave It Alone" (2009), now "Susan Rode The Cyclone" (2010) confirms they are in top form with its stripped-down sound and witty lyrics, the scratching guitars, the overwhelming choruses. Songs which portray the awkwardness of love, expressed in the confessional tone with which Tattersall approaches each of his lyrics built around tunes that display their incisively side (not far from the classics featured on "Instant Coffee Baby"). Their appeal is not hard to understand. The Wave Pictures start with the tongue-in-cheek confessionalism of the Smiths on the one hand and the scrappy D.I.Y. aesthetic of the C-86 school on the other, and take it from there. They are a sharp, imaginative band, but the Wave Pictures are all about guitarist and singer David Tattersall, a waspish naif who wears his heart on his ragged sleeve.

The Wave Pictures have put out an array of different CDR albums in the past, played with John Darnielle (of the Mountain Goats) for 4AD, have featured on a Peel session with Herman Dune, performed live as a backing band for the likes of Daniel Johnston and Darren "Hefner" Hayman. They have been called "one of the best and most uplifting bands nowadays performing on this planet".

Track Listing:

01. Kittens
02. I shall be a ditchdigger
03. Sweet heart
04. Cinnamon baby
05. Throwing words.
06. I just want to be your friend
07. Blind drunk
08. Marie again
09. Susan rode the cyclone
10. American boom

Total: 42'32''

All songs written by David Tattersall
Performed by David Tattersall, Jonny Helm and Franic Rozycki
With Darren Hayman, Nina Garthwaite, Rebecca Taylor and Simon Trought
Recorded by Simon Trought at Soup Studio, Hanbury Street, London

Exact Audio Copy V0.99 prebeta 5 from 4. May 2009

EAC extraction logfile from 17. May 2010, 15:58

The Wave Pictures / Susan Rode The Cyclone

Used drive : HL-DT-STDVD-ROM GDR8164B Adapter: 0 ID: 1

Read mode : Secure
Utilize accurate stream : Yes
Defeat audio cache : Yes
Make use of C2 pointers : No

Read offset correction : 102
Overread into Lead-In and Lead-Out : No
Fill up missing offset samples with silence : Yes
Delete leading and trailing silent blocks : No
Null samples used in CRC calculations : Yes
Used interface : Native Win32 interface for Win NT & 2000
Gap handling : Appended to previous track

Used output format : User Defined Encoder
Selected bitrate : 128 kBit/s
Quality : High
Add ID3 tag : No
Command line compressor : C:\Archivos de programa\Exact Audio Copy\Flac\flac.exe
Additional command line options : -8 -V -T "artist=%a" -T "title=%t" -T "album=%g" -T "date=%y" -T "tracknumber=%n" -T "genre=%m" %s


TOC of the extracted CD

Track | Start | Length | Start sector | End sector
––––––––––––––––––––––––––––-
1 | 0:00.00 | 4:29.60 | 0 | 20234
2 | 4:29.60 | 3:51.07 | 20235 | 37566
3 | 8:20.67 | 3:42.01 | 37567 | 54217
4 | 12:02.68 | 5:42.07 | 54218 | 79874
5 | 17:45.00 | 4:51.48 | 79875 | 101747
6 | 22:36.48 | 2:52.30 | 101748 | 114677
7 | 25:29.03 | 4:24.04 | 114678 | 134481
8 | 29:53.07 | 3:45.38 | 134482 | 151394
9 | 33:38.45 | 3:53.22 | 151395 | 168891
10 | 37:31.67 | 5:00.66 | 168892 | 191457


Track 1

Filename E:\EAC_RIP_FLAC\01 - Kittens.wav

Pre-gap length 0:00:02.00

Peak level 97.8 %
Track quality 100.0 %
Test CRC 6B2D3B9D
Copy CRC 6B2D3B9D
Track not present in AccurateRip database
Copy OK

Track 2

Filename E:\EAC_RIP_FLAC\02 - I Shall Be A Ditchdigger.wav

Peak level 97.8 %
Track quality 99.9 %
Test CRC 6A5C2E54
Copy CRC 6A5C2E54
Track not present in AccurateRip database
Copy OK

Track 3

Filename E:\EAC_RIP_FLAC\03 - Sweetheart.wav

Peak level 97.8 %
Track quality 100.0 %
Test CRC 639F4A7C
Copy CRC 639F4A7C
Track not present in AccurateRip database
Copy OK

Track 4

Filename E:\EAC_RIP_FLAC\04 - Cinnamon Baby.wav

Peak level 97.8 %
Track quality 100.0 %
Test CRC 87CAEB12
Copy CRC 87CAEB12
Track not present in AccurateRip database
Copy OK

Track 5

Filename E:\EAC_RIP_FLAC\05 - Throwing Words.wav

Peak level 97.8 %
Track quality 100.0 %
Test CRC B7FEBA6E
Copy CRC B7FEBA6E
Track not present in AccurateRip database
Copy OK

Track 6

Filename E:\EAC_RIP_FLAC\06 - I Just Want To Be Your Friend.wav

Peak level 97.8 %
Track quality 100.0 %
Test CRC 7109EF97
Copy CRC 7109EF97
Track not present in AccurateRip database
Copy OK

Track 7

Filename E:\EAC_RIP_FLAC\07 - Blind Drunk.wav

Peak level 97.8 %
Track quality 100.0 %
Test CRC 4587451E
Copy CRC 4587451E
Track not present in AccurateRip database
Copy OK

Track 8

Filename E:\EAC_RIP_FLAC\08 - Marie Again.wav

Peak level 97.8 %
Track quality 100.0 %
Test CRC E32A7984
Copy CRC E32A7984
Track not present in AccurateRip database
Copy OK

Track 9

Filename E:\EAC_RIP_FLAC\09 - Susan Rode The Cyclone.wav

Peak level 97.8 %
Track quality 99.9 %
Test CRC 07F4BD98
Copy CRC 07F4BD98
Track not present in AccurateRip database
Copy OK

Track 10

Filename E:\EAC_RIP_FLAC\10 - American Boom.wav

Peak level 97.8 %
Track quality 100.0 %
Test CRC A79DB97A
Copy CRC A79DB97A
Track not present in AccurateRip database
Copy OK


None of the tracks are present in the AccurateRip database

No errors occurred

End of status report


The Wave Pictures - Susan Rode The Cyclone (2010) {Little Teddy Recordings BlTe061CD}

The Wave Pictures - Susan Rode The Cyclone (2010) {Little Teddy Recordings BlTe061CD}



===