Subcategories

The Who - The Who Hits 50! (Deluxe Edition) (2014)

Posted By: delpotro
The Who - The Who Hits 50! (Deluxe Edition) (2014)

The Who - The Who Hits 50! (Deluxe Edition) (2014)
EAC Rip | FLAC (tracks+log+.cue) | 02:35:43 | 896 Mb
Classic Rock, Powerpop | Label: Geffen Records

The Who Hits 50! is a compilation of singles by the English rock band The Who, released in 2014 by Polydor Records. The two-disc set contains every single released by the band in the United Kingdom, with the exceptions of: "A Legal Matter" and "La-La-La-Lies" from 1966; and "Long Live Rock" and the remake of "I'm One" from 1979. At the same time it also contains every single by the band released in the United States throughout their career, with the exceptions of: "The Real Me" from 1974; the reissue of "Substitute" from 1976; and "Long Live Rock" from 1979.

A condensed single-disc standard edition appeared as well, both versions in conjunction with the band's 50th anniversary and associated tour of the same name. The album is notable for containing singles generally not included on other compilation albums, such as the band's Rolling Stones cover "The Last Time" done as an act of solidarity while Mick and Keith were facing jail time, along with other lesser-known singles "Dogs" and "Call Me Lightning".

The first disc includes every song from the compilation Meaty Beaty Big and Bouncy with the exception "A Legal Matter," and the second disc includes "Be Lucky", a track released as a single in support of the compilation and recorded during 2014 sessions for a proposed new studio album. The song is the first new material released by the Who since their 2006 studio album Endless Wire.

The selections were remastered by Jon Astley, and the cover art and packaging reflects the band's association with the pop art of the 1960s. On the two-disc set, the liner notes incorrectly list Pete Townshend as the writer of the track "Trick of the Light" when it was in fact written by John Entwistle.
Tracklist:
Disc 1
1. Zoot Suit
2. I Can't Explain
3. Anyway Anyhow Anywhere
4. My Generation
5. Substitute
6. The Kids Are Alright
7. I'm A Boy
8. Happy Jack
9. Boris The Spider
10. Pictures of Lily
11. The Last Time
12. I Can See for Miles
13. Call Me Lightning
14. Dogs
15. Magic Bus
16. Pinball Wizard
17. I'm Free
18. The Seeker
19. Summertime Blues (Live)
20. See Me, Feel Me
21. Won't Get Fooled Again (Single Version)
22. Let's See Action
23. Bargain
24. Behind Blue Eyes

Disc:2
1. Baba O'Riley
2. Join Together
3. Relay
4. 5:15
5. Love Reign O'er Me
6. Postcard
7. Squeeze Box
8. Slip Kid
9. Who Are You
10. Trick of the Light
11. You Better You Bet
12. Don't Let the Coat
13. Athena
14. Eminence Front
15. It's Hard
16. Real Good Looking Boy
17. It's Not Enough
18. Be Lucky

Exact Audio Copy V1.0 beta 6 from 9. April 2015

EAC extraction logfile from 16. May 2015, 10:16

The Who / The Who Hits 50! (Deluxe Edition)

Used drive : TSSTcorpCDDVDW SU-208DB Adapter: 1 ID: 0

Read mode : Secure
Utilize accurate stream : Yes
Defeat audio cache : Yes
Make use of C2 pointers : No

Read offset correction : 48
Overread into Lead-In and Lead-Out : No
Fill up missing offset samples with silence : Yes
Delete leading and trailing silent blocks : No
Null samples used in CRC calculations : Yes
Used interface : Native Win32 interface for Win NT & 2000
Gap handling : Appended to previous track

Used output format : User Defined Encoder
Selected bitrate : 128 kBit/s
Quality : High
Add ID3 tag : No
Command line compressor : C:\Program Files (x86)\Exact Audio Copy\Flac\flac.exe
Additional command line options : -8 -V -T "ARTIST=%artist%" -T "TITLE=%title%" -T "ALBUM=%albumtitle%" -T "DATE=%year%" -T "TRACKNUMBER=%tracknr%" -T "GENRE=%genre%" -T "PERFORMER=%albuminterpret%" -T "COMPOSER=%composer%" %haslyrics%–tag-from-file=LYRICS="%lyricsfile%"%haslyrics% -T "ALBUMARTIST=%albumartist%" -T "DISCNUMBER=%cdnumber%" -T "TOTALDISCS=%totalcds%" -T "TOTALTRACKS=%numtracks%" -T "COMMENT=%comment%" %source% -o %dest%


TOC of the extracted CD

Track | Start | Length | Start sector | End sector
––––––––––––––––––––––––––––-
1 | 0:00.00 | 2:01.36 | 0 | 9110
2 | 2:01.36 | 2:05.20 | 9111 | 18505
3 | 4:06.56 | 2:41.25 | 18506 | 30605
4 | 6:48.06 | 3:16.59 | 30606 | 45364
5 | 10:04.65 | 3:48.47 | 45365 | 62511
6 | 13:53.37 | 3:05.71 | 62512 | 76457
7 | 16:59.33 | 2:41.40 | 76458 | 88572
8 | 19:40.73 | 2:13.08 | 88573 | 98555
9 | 21:54.06 | 2:29.21 | 98556 | 109751
10 | 24:23.27 | 2:45.53 | 109752 | 122179
11 | 27:09.05 | 2:55.21 | 122180 | 135325
12 | 30:04.26 | 4:09.05 | 135326 | 154005
13 | 34:13.31 | 2:25.15 | 154006 | 164895
14 | 36:38.46 | 3:06.74 | 164896 | 178919
15 | 39:45.45 | 4:36.56 | 178920 | 199675
16 | 44:22.26 | 3:03.16 | 199676 | 213416
17 | 47:25.42 | 2:41.44 | 213417 | 225535
18 | 50:07.11 | 3:12.69 | 225536 | 240004
19 | 53:20.05 | 3:23.66 | 240005 | 255295
20 | 56:43.71 | 3:36.45 | 255296 | 271540
21 | 60:20.41 | 3:40.31 | 271541 | 288071
22 | 64:00.72 | 3:59.45 | 288072 | 306041
23 | 68:00.42 | 5:34.49 | 306042 | 331140
24 | 73:35.16 | 3:43.19 | 331141 | 347884


Track 1

Filename C:\EAC Rips\The Who - The Who Hits 50! (2-CD Deluxe Edition) (2014) [FLAC]\Disc 1\01. Zoot Suit (as The High Numbers).wav

Pre-gap length 0:00:02.00

Peak level 96.6 %
Extraction speed 1.9 X
Track quality 99.9 %
Test CRC 10FF5353
Copy CRC 10FF5353
Accurately ripped (confidence 23) [9A0F6051] (AR v2)
Copy OK

Track 2

Filename C:\EAC Rips\The Who - The Who Hits 50! (2-CD Deluxe Edition) (2014) [FLAC]\Disc 1\02. I Can't Explain.wav

Pre-gap length 0:00:00.55

Peak level 97.5 %
Extraction speed 2.8 X
Track quality 100.0 %
Test CRC EE46B515
Copy CRC EE46B515
Accurately ripped (confidence 23) [0BDAC9B9] (AR v2)
Copy OK

Track 3

Filename C:\EAC Rips\The Who - The Who Hits 50! (2-CD Deluxe Edition) (2014) [FLAC]\Disc 1\03. Anyway, Anyhow, Anywhere.wav

Pre-gap length 0:00:01.06

Peak level 97.2 %
Extraction speed 2.2 X
Track quality 99.9 %
Test CRC 7501AA78
Copy CRC 7501AA78
Accurately ripped (confidence 23) [116306BB] (AR v2)
Copy OK

Track 4

Filename C:\EAC Rips\The Who - The Who Hits 50! (2-CD Deluxe Edition) (2014) [FLAC]\Disc 1\04. My Generation.wav

Pre-gap length 0:00:01.12

Peak level 97.7 %
Extraction speed 3.1 X
Track quality 100.0 %
Test CRC ADEFA372
Copy CRC ADEFA372
Accurately ripped (confidence 22) [F72F351B] (AR v2)
Copy OK

Track 5

Filename C:\EAC Rips\The Who - The Who Hits 50! (2-CD Deluxe Edition) (2014) [FLAC]\Disc 1\05. Substitute.wav

Pre-gap length 0:00:00.60

Peak level 97.9 %
Extraction speed 3.6 X
Track quality 100.0 %
Test CRC 59D5D7DD
Copy CRC 59D5D7DD
Accurately ripped (confidence 22) [B07DD60E] (AR v2)
Copy OK

Track 6

Filename C:\EAC Rips\The Who - The Who Hits 50! (2-CD Deluxe Edition) (2014) [FLAC]\Disc 1\06. The Kids Are Alright.wav

Pre-gap length 0:00:00.69

Peak level 97.5 %
Extraction speed 3.7 X
Track quality 100.0 %
Test CRC C193CF30
Copy CRC C193CF30
Accurately ripped (confidence 22) [21275201] (AR v2)
Copy OK

Track 7

Filename C:\EAC Rips\The Who - The Who Hits 50! (2-CD Deluxe Edition) (2014) [FLAC]\Disc 1\07. I'm a Boy.wav

Pre-gap length 0:00:01.70

Peak level 97.0 %
Extraction speed 3.7 X
Track quality 100.0 %
Test CRC 0D789A42
Copy CRC 0D789A42
Accurately ripped (confidence 22) [7FFA181C] (AR v2)
Copy OK

Track 8

Filename C:\EAC Rips\The Who - The Who Hits 50! (2-CD Deluxe Edition) (2014) [FLAC]\Disc 1\08. Happy Jack.wav

Pre-gap length 0:00:01.68

Peak level 97.5 %
Extraction speed 2.8 X
Track quality 99.9 %
Test CRC 8CA56976
Copy CRC 8CA56976
Accurately ripped (confidence 22) [B6CA384C] (AR v2)
Copy OK

Track 9

Filename C:\EAC Rips\The Who - The Who Hits 50! (2-CD Deluxe Edition) (2014) [FLAC]\Disc 1\09. Boris the Spider.wav

Pre-gap length 0:00:02.64

Peak level 97.1 %
Extraction speed 3.8 X
Track quality 100.0 %
Test CRC C43DE93A
Copy CRC C43DE93A
Accurately ripped (confidence 22) [DE3E9D27] (AR v2)
Copy OK

Track 10

Filename C:\EAC Rips\The Who - The Who Hits 50! (2-CD Deluxe Edition) (2014) [FLAC]\Disc 1\10. Pictures of Lily.wav

Pre-gap length 0:00:02.23

Peak level 99.7 %
Extraction speed 4.0 X
Track quality 100.0 %
Test CRC 3634616F
Copy CRC 3634616F
Accurately ripped (confidence 22) [5A9B4273] (AR v2)
Copy OK

Track 11

Filename C:\EAC Rips\The Who - The Who Hits 50! (2-CD Deluxe Edition) (2014) [FLAC]\Disc 1\11. The Last Time.wav

Pre-gap length 0:00:01.67

Peak level 92.4 %
Extraction speed 3.3 X
Track quality 99.9 %
Test CRC 55014E42
Copy CRC 55014E42
Accurately ripped (confidence 22) [38EEAA71] (AR v2)
Copy OK

Track 12

Filename C:\EAC Rips\The Who - The Who Hits 50! (2-CD Deluxe Edition) (2014) [FLAC]\Disc 1\12. I Can See for Miles.wav

Pre-gap length 0:00:02.06

Peak level 98.8 %
Extraction speed 4.7 X
Track quality 100.0 %
Test CRC 0B311F50
Copy CRC 0B311F50
Accurately ripped (confidence 22) [F4824777] (AR v2)
Copy OK

Track 13

Filename C:\EAC Rips\The Who - The Who Hits 50! (2-CD Deluxe Edition) (2014) [FLAC]\Disc 1\13. Call Me Lightning.wav

Pre-gap length 0:00:02.68

Peak level 96.7 %
Extraction speed 3.3 X
Track quality 99.9 %
Test CRC BEDA00CA
Copy CRC BEDA00CA
Accurately ripped (confidence 22) [082FFC90] (AR v2)
Copy OK

Track 14

Filename C:\EAC Rips\The Who - The Who Hits 50! (2-CD Deluxe Edition) (2014) [FLAC]\Disc 1\14. Dogs.wav

Pre-gap length 0:00:01.74

Peak level 97.6 %
Extraction speed 4.8 X
Track quality 100.0 %
Test CRC FF4ED0B2
Copy CRC FF4ED0B2
Accurately ripped (confidence 22) [22697CA8] (AR v2)
Copy OK

Track 15

Filename C:\EAC Rips\The Who - The Who Hits 50! (2-CD Deluxe Edition) (2014) [FLAC]\Disc 1\15. Magic Bus.wav

Pre-gap length 0:00:02.22

Peak level 97.7 %
Extraction speed 5.2 X
Track quality 100.0 %
Test CRC B4F06A23
Copy CRC B4F06A23
Accurately ripped (confidence 22) [B17FD32C] (AR v2)
Copy OK

Track 16

Filename C:\EAC Rips\The Who - The Who Hits 50! (2-CD Deluxe Edition) (2014) [FLAC]\Disc 1\16. Pinball Wizard.wav

Pre-gap length 0:00:02.02

Peak level 95.1 %
Extraction speed 5.0 X
Track quality 100.0 %
Test CRC 1EA85E12
Copy CRC 1EA85E12
Accurately ripped (confidence 22) [7E8AFAF6] (AR v2)
Copy OK

Track 17

Filename C:\EAC Rips\The Who - The Who Hits 50! (2-CD Deluxe Edition) (2014) [FLAC]\Disc 1\17. I'm Free.wav

Pre-gap length 0:00:02.20

Peak level 96.1 %
Extraction speed 5.0 X
Track quality 100.0 %
Test CRC E734044D
Copy CRC E734044D
Accurately ripped (confidence 22) [9B71C41B] (AR v2)
Copy OK

Track 18

Filename C:\EAC Rips\The Who - The Who Hits 50! (2-CD Deluxe Edition) (2014) [FLAC]\Disc 1\18. The Seeker.wav

Pre-gap length 0:00:02.10

Peak level 97.5 %
Extraction speed 4.2 X
Track quality 99.9 %
Test CRC 18DE4253
Copy CRC 18DE4253
Accurately ripped (confidence 22) [B774E09F] (AR v2)
Copy OK

Track 19

Filename C:\EAC Rips\The Who - The Who Hits 50! (2-CD Deluxe Edition) (2014) [FLAC]\Disc 1\19. Summertime Blues (live).wav

Pre-gap length 0:00:01.38

Peak level 98.1 %
Extraction speed 5.5 X
Track quality 100.0 %
Test CRC 36551BF2
Copy CRC 36551BF2
Accurately ripped (confidence 22) [F89EF06B] (AR v2)
Copy OK

Track 20

Filename C:\EAC Rips\The Who - The Who Hits 50! (2-CD Deluxe Edition) (2014) [FLAC]\Disc 1\20. See Me, Feel Me.wav

Pre-gap length 0:00:01.68

Peak level 95.1 %
Extraction speed 5.7 X
Track quality 100.0 %
Test CRC ACD448FA
Copy CRC ACD448FA
Accurately ripped (confidence 22) [2378C286] (AR v2)
Copy OK

Track 21

Filename C:\EAC Rips\The Who - The Who Hits 50! (2-CD Deluxe Edition) (2014) [FLAC]\Disc 1\21. Won't Get Fooled Again (single edit).wav

Pre-gap length 0:00:00.42

Peak level 97.7 %
Extraction speed 3.8 X
Track quality 99.9 %
Test CRC A2A328C0
Copy CRC A2A328C0
Accurately ripped (confidence 22) [DC98F23A] (AR v2)
Copy OK

Track 22

Filename C:\EAC Rips\The Who - The Who Hits 50! (2-CD Deluxe Edition) (2014) [FLAC]\Disc 1\22. Let's See Action.wav

Pre-gap length 0:00:02.13

Peak level 97.5 %
Extraction speed 4.9 X
Track quality 99.9 %
Test CRC FC35304C
Copy CRC FC35304C
Accurately ripped (confidence 22) [C5349AF3] (AR v2)
Copy OK

Track 23

Filename C:\EAC Rips\The Who - The Who Hits 50! (2-CD Deluxe Edition) (2014) [FLAC]\Disc 1\23. Bargain.wav

Pre-gap length 0:00:01.60

Peak level 97.6 %
Extraction speed 5.5 X
Track quality 99.9 %
Test CRC 2520F66F
Copy CRC 2520F66F
Accurately ripped (confidence 22) [F242B256] (AR v2)
Copy OK

Track 24

Filename C:\EAC Rips\The Who - The Who Hits 50! (2-CD Deluxe Edition) (2014) [FLAC]\Disc 1\24. Behind Blue Eyes.wav

Pre-gap length 0:00:01.06

Peak level 97.6 %
Extraction speed 2.0 X
Track quality 99.6 %
Test CRC 9A8AA892
Copy CRC 9A8AA892
Accurately ripped (confidence 21) [922D32FC] (AR v2)
Copy OK


All tracks accurately ripped

No errors occurred

End of status report

–– CUETools DB Plugin V2.1.6

[CTDB TOCID: VWn_kPDs_GKi42riYJdGtw52JlI-] found
Submit result: already submitted
Track | CTDB Status
1 | (29/30) Accurately ripped
2 | (30/30) Accurately ripped
3 | (30/30) Accurately ripped
4 | (30/30) Accurately ripped
5 | (30/30) Accurately ripped
6 | (30/30) Accurately ripped
7 | (30/30) Accurately ripped
8 | (30/30) Accurately ripped
9 | (30/30) Accurately ripped
10 | (30/30) Accurately ripped
11 | (30/30) Accurately ripped
12 | (30/30) Accurately ripped
13 | (30/30) Accurately ripped
14 | (30/30) Accurately ripped
15 | (30/30) Accurately ripped
16 | (30/30) Accurately ripped
17 | (30/30) Accurately ripped
18 | (30/30) Accurately ripped
19 | (30/30) Accurately ripped
20 | (30/30) Accurately ripped
21 | (30/30) Accurately ripped
22 | (30/30) Accurately ripped
23 | (30/30) Accurately ripped
24 | (30/30) Accurately ripped


==== Log checksum 425405F232E749A903191079000E3017AE5118EF6FD50F69EE869D361011AFFA ====

Exact Audio Copy V1.0 beta 6 from 9. April 2015

EAC extraction logfile from 16. May 2015, 11:00

The Who / The Who Hits 50! (Deluxe Edition)

Used drive : TSSTcorpCDDVDW SU-208DB Adapter: 1 ID: 0

Read mode : Secure
Utilize accurate stream : Yes
Defeat audio cache : Yes
Make use of C2 pointers : No

Read offset correction : 48
Overread into Lead-In and Lead-Out : No
Fill up missing offset samples with silence : Yes
Delete leading and trailing silent blocks : No
Null samples used in CRC calculations : Yes
Used interface : Native Win32 interface for Win NT & 2000
Gap handling : Appended to previous track

Used output format : User Defined Encoder
Selected bitrate : 128 kBit/s
Quality : High
Add ID3 tag : No
Command line compressor : C:\Program Files (x86)\Exact Audio Copy\Flac\flac.exe
Additional command line options : -8 -V -T "ARTIST=%artist%" -T "TITLE=%title%" -T "ALBUM=%albumtitle%" -T "DATE=%year%" -T "TRACKNUMBER=%tracknr%" -T "GENRE=%genre%" -T "PERFORMER=%albuminterpret%" -T "COMPOSER=%composer%" %haslyrics%–tag-from-file=LYRICS="%lyricsfile%"%haslyrics% -T "ALBUMARTIST=%albumartist%" -T "DISCNUMBER=%cdnumber%" -T "TOTALDISCS=%totalcds%" -T "TOTALTRACKS=%numtracks%" -T "COMMENT=%comment%" %source% -o %dest%


TOC of the extracted CD

Track | Start | Length | Start sector | End sector
––––––––––––––––––––––––––––-
1 | 0:00.00 | 5:00.62 | 0 | 22561
2 | 5:00.62 | 4:24.09 | 22562 | 42370
3 | 9:24.71 | 3:55.27 | 42371 | 60022
4 | 13:20.23 | 4:53.00 | 60023 | 81997
5 | 18:13.23 | 5:51.51 | 81998 | 108373
6 | 24:04.74 | 3:34.01 | 108374 | 124424
7 | 27:39.00 | 2:43.24 | 124425 | 136673
8 | 30:22.24 | 4:34.24 | 136674 | 157247
9 | 34:56.48 | 5:11.05 | 157248 | 180577
10 | 40:07.53 | 4:24.73 | 180578 | 200450
11 | 44:32.51 | 5:37.04 | 200451 | 225729
12 | 50:09.55 | 3:44.39 | 225730 | 242568
13 | 53:54.19 | 3:47.43 | 242569 | 259636
14 | 57:41.62 | 5:40.74 | 259637 | 285210
15 | 63:22.61 | 3:45.57 | 285211 | 302142
16 | 67:08.43 | 3:53.32 | 302143 | 319649
17 | 71:02.00 | 4:03.69 | 319650 | 337943
18 | 75:05.69 | 3:18.66 | 337944 | 352859


Track 1

Filename C:\EAC Rips\The Who - The Who Hits 50! (2-CD Deluxe Edition) (2014) [FLAC]\Disc 2\01. Baba O'Riley.wav

Pre-gap length 0:00:02.00

Peak level 99.8 %
Extraction speed 3.1 X
Track quality 100.0 %
Test CRC B37F82BB
Copy CRC B37F82BB
Accurately ripped (confidence 21) [795F5045] (AR v2)
Copy OK

Track 2

Filename C:\EAC Rips\The Who - The Who Hits 50! (2-CD Deluxe Edition) (2014) [FLAC]\Disc 2\02. Join Together.wav

Pre-gap length 0:00:00.44

Peak level 83.3 %
Extraction speed 3.4 X
Track quality 100.0 %
Test CRC 617EE7E9
Copy CRC 617EE7E9
Accurately ripped (confidence 21) [16C4C173] (AR v2)
Copy OK

Track 3

Filename C:\EAC Rips\The Who - The Who Hits 50! (2-CD Deluxe Edition) (2014) [FLAC]\Disc 2\03. Relay.wav

Pre-gap length 0:00:02.04

Peak level 86.9 %
Extraction speed 3.0 X
Track quality 99.9 %
Test CRC 55AD5574
Copy CRC 55AD5574
Accurately ripped (confidence 21) [61A4D9DE] (AR v2)
Copy OK

Track 4

Filename C:\EAC Rips\The Who - The Who Hits 50! (2-CD Deluxe Edition) (2014) [FLAC]\Disc 2\04. 5-15.wav

Pre-gap length 0:00:00.71

Peak level 99.5 %
Extraction speed 3.9 X
Track quality 100.0 %
Test CRC 97FC96CA
Copy CRC 97FC96CA
Accurately ripped (confidence 21) [617F3032] (AR v2)
Copy OK

Track 5

Filename C:\EAC Rips\The Who - The Who Hits 50! (2-CD Deluxe Edition) (2014) [FLAC]\Disc 2\05. Love Reign o'er Me.wav

Pre-gap length 0:00:00.62

Peak level 99.8 %
Extraction speed 4.4 X
Track quality 100.0 %
Test CRC A7F879F9
Copy CRC A7F879F9
Accurately ripped (confidence 21) [8F89E6F2] (AR v2)
Copy OK

Track 6

Filename C:\EAC Rips\The Who - The Who Hits 50! (2-CD Deluxe Edition) (2014) [FLAC]\Disc 2\06. Postcard.wav

Pre-gap length 0:00:00.35

Peak level 99.0 %
Extraction speed 4.3 X
Track quality 100.0 %
Test CRC 12886291
Copy CRC 12886291
Accurately ripped (confidence 21) [2C58C2D3] (AR v2)
Copy OK

Track 7

Filename C:\EAC Rips\The Who - The Who Hits 50! (2-CD Deluxe Edition) (2014) [FLAC]\Disc 2\07. Squeeze Box.wav

Pre-gap length 0:00:03.23

Peak level 87.1 %
Extraction speed 3.3 X
Track quality 99.9 %
Test CRC 1B3170E0
Copy CRC 1B3170E0
Accurately ripped (confidence 21) [AAF78641] (AR v2)
Copy OK

Track 8

Filename C:\EAC Rips\The Who - The Who Hits 50! (2-CD Deluxe Edition) (2014) [FLAC]\Disc 2\08. Slip Kid.wav

Pre-gap length 0:00:02.00

Peak level 99.8 %
Extraction speed 4.8 X
Track quality 100.0 %
Test CRC 3F4FFBF8
Copy CRC 3F4FFBF8
Accurately ripped (confidence 21) [3939F8FB] (AR v2)
Copy OK

Track 9

Filename C:\EAC Rips\The Who - The Who Hits 50! (2-CD Deluxe Edition) (2014) [FLAC]\Disc 2\09. Who Are You.wav

Pre-gap length 0:00:01.20

Peak level 99.9 %
Extraction speed 4.4 X
Track quality 99.9 %
Test CRC A68482F2
Copy CRC A68482F2
Accurately ripped (confidence 21) [1D29864A] (AR v2)
Copy OK

Track 10

Filename C:\EAC Rips\The Who - The Who Hits 50! (2-CD Deluxe Edition) (2014) [FLAC]\Disc 2\10. Trick of the Light.wav

Pre-gap length 0:00:02.14

Peak level 86.2 %
Extraction speed 5.2 X
Track quality 100.0 %
Test CRC 5EB4BEF9
Copy CRC 5EB4BEF9
Accurately ripped (confidence 21) [D7935946] (AR v2)
Copy OK

Track 11

Filename C:\EAC Rips\The Who - The Who Hits 50! (2-CD Deluxe Edition) (2014) [FLAC]\Disc 2\11. You Better You Bet.wav

Pre-gap length 0:00:02.07

Peak level 99.8 %
Extraction speed 5.6 X
Track quality 100.0 %
Test CRC CC668BFC
Copy CRC CC668BFC
Accurately ripped (confidence 21) [63AAE08B] (AR v2)
Copy OK

Track 12

Filename C:\EAC Rips\The Who - The Who Hits 50! (2-CD Deluxe Edition) (2014) [FLAC]\Disc 2\12. Don't Let Go the Coat.wav

Pre-gap length 0:00:00.62

Peak level 99.8 %
Extraction speed 5.5 X
Track quality 100.0 %
Test CRC 4AD3516C
Copy CRC 4AD3516C
Accurately ripped (confidence 21) [BDF57280] (AR v2)
Copy OK

Track 13

Filename C:\EAC Rips\The Who - The Who Hits 50! (2-CD Deluxe Edition) (2014) [FLAC]\Disc 2\13. Athena.wav

Pre-gap length 0:00:00.69

Peak level 99.9 %
Extraction speed 5.6 X
Track quality 100.0 %
Test CRC 369668C8
Copy CRC 369668C8
Accurately ripped (confidence 21) [477ED05D] (AR v2)
Copy OK

Track 14

Filename C:\EAC Rips\The Who - The Who Hits 50! (2-CD Deluxe Edition) (2014) [FLAC]\Disc 2\14. Eminence Front.wav

Pre-gap length 0:00:00.28

Peak level 99.8 %
Extraction speed 6.1 X
Track quality 100.0 %
Test CRC 8E8ED8C3
Copy CRC 8E8ED8C3
Accurately ripped (confidence 21) [22B43428] (AR v2)
Copy OK

Track 15

Filename C:\EAC Rips\The Who - The Who Hits 50! (2-CD Deluxe Edition) (2014) [FLAC]\Disc 2\15. It's Hard.wav

Pre-gap length 0:00:00.56

Peak level 99.8 %
Extraction speed 4.8 X
Track quality 99.9 %
Test CRC 155C5D00
Copy CRC 155C5D00
Accurately ripped (confidence 21) [BA561A8B] (AR v2)
Copy OK

Track 16

Filename C:\EAC Rips\The Who - The Who Hits 50! (2-CD Deluxe Edition) (2014) [FLAC]\Disc 2\16. Real Good-Looking Boy.wav

Pre-gap length 0:00:02.23

Peak level 99.8 %
Extraction speed 6.1 X
Track quality 100.0 %
Test CRC DEC6631A
Copy CRC DEC6631A
Accurately ripped (confidence 21) [22AABDC5] (AR v2)
Copy OK

Track 17

Filename C:\EAC Rips\The Who - The Who Hits 50! (2-CD Deluxe Edition) (2014) [FLAC]\Disc 2\17. It's Not Enough.wav

Pre-gap length 0:00:02.73

Peak level 94.0 %
Extraction speed 6.2 X
Track quality 100.0 %
Test CRC FCE2D6F2
Copy CRC FCE2D6F2
Accurately ripped (confidence 21) [A6BFFBA3] (AR v2)
Copy OK

Track 18

Filename C:\EAC Rips\The Who - The Who Hits 50! (2-CD Deluxe Edition) (2014) [FLAC]\Disc 2\18. Be Lucky.wav

Pre-gap length 0:00:00.43

Peak level 98.8 %
Extraction speed 5.0 X
Track quality 99.9 %
Test CRC 63280FBA
Copy CRC 63280FBA
Accurately ripped (confidence 21) [D0201716] (AR v2)
Copy OK


All tracks accurately ripped

No errors occurred

End of status report

–– CUETools DB Plugin V2.1.6

[CTDB TOCID: S2y6d97A360vBseaOX0YTZxxRO4-] found
Submit result: already submitted
Track | CTDB Status
1 | (30/30) Accurately ripped
2 | (30/30) Accurately ripped
3 | (30/30) Accurately ripped
4 | (30/30) Accurately ripped
5 | (30/30) Accurately ripped
6 | (30/30) Accurately ripped
7 | (30/30) Accurately ripped
8 | (30/30) Accurately ripped
9 | (30/30) Accurately ripped
10 | (30/30) Accurately ripped
11 | (30/30) Accurately ripped
12 | (30/30) Accurately ripped
13 | (30/30) Accurately ripped
14 | (30/30) Accurately ripped
15 | (30/30) Accurately ripped
16 | (30/30) Accurately ripped
17 | (30/30) Accurately ripped
18 | (30/30) Accurately ripped


==== Log checksum C8AEED897F4B1974A16766AB48DE447C6654A45D6F6928652F8860DE9A3AD23E ====

Thanks to the Original ripper freeplay !