Subcategories

Timeless: Music by Tarquinio Merula and Philip Glass [REPOST]

Posted By: First Amendment
Timeless: Music by Tarquinio Merula and Philip Glass [REPOST]

Timeless: Music by Tarquinio Merula and Philip Glass
EAC | FLAC+LOG+CUE | Booklet & Covers | RAR 372 MB
Classical | 2010 | Harmonia Mundi | Playing Time: 69'21"

The Lautten Compagney discovers surprising points of contact between the baroque composer Tarquinio Merula and American contemporary composer Philip Glass. This is music of pure pleasure that effortlessly crosses all stylistic and historical boundaries.


TRACKS:

Philip Glass
01. (1:42) The Windcatcher - Part I

Tarquinio Merula
02. (5:40) La Lusignola

Philip Glass
03. (2:32) Melody for Saxophone No. 10

Tarquinio Merula
04. (2:11) Alemana
05. (1:47) Ballo detto Polliccio

Philip Glass
06. (2:44) Melody for Saxophone No. 12
07. (6:21) Facades

Tarquinio Merula
08. (2:30) La mia Filli e fugace

Philip Glass
09. (1:33) Melody for Saxophone No. 5

Tarquinio Merula
10. (2:47) Che nove arti son queste
11. (4:36) La Loda

Philip Glass
12. (7:12) Opening
13. (2:27) Video Dream

Tarquinio Merula
14. (4:35) Sonata cromatica
15. (1:56) Capriccio
16. (3:36) Folle e ben
17. (2:08) Sentirete
18. (7:20) Su la cetra amorosa

Philip Glass
19. (5:34) The Windcatcher - Part III


Lautten Compagney

Karola Elssner - saxophone
Friederike Otto - cornett
Peter Bauer - marimba & percussion
Birgit Schurpfeil, Anne von Hoff - violin
Ulrike Paetz - viola
Ulrike Becker - cello
Annette Rheinfurth - violone
Wolfgang Katschner - theorbo & direction
Hans-Werner Apel - baroque guitar & theorbo


Filesonic
Download

Fileserve
Download


Timeless: Music by Tarquinio Merula and Philip Glass [REPOST]


Exact Audio Copy V0.99 prebeta 5 from 4. May 2009

Отчёт EAC об извлечении, выполненном 10. июля 2010, 1:16

Lautten Compagney / Timeless - Music by Tarquinio Merula and Philip Glass

Дисковод: Optiarc DVD RW AD-7203A Adapter: 4 ID: 1

Режим чтения : Достоверность
Использование точного потока : Да
Отключение кэша аудио : Да
Использование указателей C2 : Нет

Коррекция смещения при чтении : 48
Способность читать области Lead-in и Lead-out : Нет
Заполнение пропущенных сэмплов тишиной : Да
Удаление блоков с тишиной в начале и конце : Нет
При вычислениях CRC использовались нулевые сэмплы : Да
Интерфейс : Встроенный Win32-интерфейс для Win NT/2000

Выходной формат : Пользовательский кодировщик
Выбранный битрейт : 128 kBit/s
Качество : Высокий
Добавление ID3-тэга : Нет
Утилита сжатия : C:\Program Files\FLAC\flac.exe
Дополнительные параметры : -5 -V %s


TOC извлечённого CD

Трек | Старт | Длительность | Начальный сектор | Конечный сектор
––––––––––––––––––––––––––––––––––-
1 | 0:00.00 | 1:42.71 | 0 | 7720
2 | 1:42.71 | 5:40.65 | 7721 | 33285
3 | 7:23.61 | 2:32.11 | 33286 | 44696
4 | 9:55.72 | 2:11.27 | 44697 | 54548
5 | 12:07.24 | 1:47.68 | 54549 | 62641
6 | 13:55.17 | 2:44.62 | 62642 | 75003
7 | 16:40.04 | 6:21.55 | 75004 | 103633
8 | 23:01.59 | 2:30.30 | 103634 | 114913
9 | 25:32.14 | 1:33.09 | 114914 | 121897
10 | 27:05.23 | 2:47.68 | 121898 | 134490
11 | 29:53.16 | 4:36.32 | 134491 | 155222
12 | 34:29.48 | 7:12.68 | 155223 | 187690
13 | 41:42.41 | 2:27.51 | 187691 | 198766
14 | 44:10.17 | 4:35.02 | 198767 | 219393
15 | 48:45.19 | 1:56.50 | 219394 | 228143
16 | 50:41.69 | 3:36.00 | 228144 | 244343
17 | 54:17.69 | 2:08.38 | 244344 | 253981
18 | 56:26.32 | 7:20.39 | 253982 | 287020
19 | 63:46.71 | 5:34.51 | 287021 | 312121


Характеристики диапазона извлечения и сообщения об ошибках

Выбранный диапазон

Имя файла D:\EAC\Lautten Compagney - Timeless - Music by Tarquinio Merula and Philip Glass.wav

Пиковый уровень 98.9 %
Качество диапазона 100.0 %
CRC теста 600EC895
CRC копии 600EC895
Копирование… OK

Ошибок не произошло


AccurateRip: сводка

Трек 1 точное извлечение (доверие 3) [26C923EF]
Трек 2 точное извлечение (доверие 3) [4969E221]
Трек 3 точное извлечение (доверие 3) [C2F8919A]
Трек 4 точное извлечение (доверие 3) [AE537EA3]
Трек 5 точное извлечение (доверие 3) [05970720]
Трек 6 точное извлечение (доверие 3) [492313C5]
Трек 7 точное извлечение (доверие 3) [46C47EE8]
Трек 8 точное извлечение (доверие 3) [592CE4C3]
Трек 9 точное извлечение (доверие 3) [04ACCA13]
Трек 10 точное извлечение (доверие 3) [6BBC55C1]
Трек 11 точное извлечение (доверие 3) [DBD190D7]
Трек 12 точное извлечение (доверие 3) [B2F6965B]
Трек 13 точное извлечение (доверие 3) [DF0D6181]
Трек 14 точное извлечение (доверие 3) [A3C91B50]
Трек 15 точное извлечение (доверие 3) [BE6FC5D9]
Трек 16 точное извлечение (доверие 3) [24DAEA2E]
Трек 17 точное извлечение (доверие 3) [523127B7]
Трек 18 точное извлечение (доверие 3) [17A38A3F]
Трек 19 точное извлечение (доверие 3) [C0B2E1AF]

Все треки извлечены точно

Конец отчёта