Subcategories

Todd Rundgren - Box O'Todd (3CD) (2016)

Posted By: Domestos
Todd Rundgren - Box O'Todd (3CD) (2016)

Todd Rundgren - Box O'Todd (3CD) (2016)
EAC Rip | FLAC (tracks+.cue, log) ~ 1,11 Gb | 2:51:50 | Scans included
Classsic Rock, Art Rock, Experimental | Country: USA | Label: Purple Pyramid - CLO 0185

Special limited edition collector s box featuring previously unreleased recordings from the early 70s by legendary guitarist/songwriter/producer, Todd Rundgren! This unique box features both stripped down solo performances by Rundgren as well as full band recordings with The Hello People, and includes some of Rundgren s most well-known songs including Hello, It s Me, I Saw The Light, It Wouldn t Have Made Any Difference and many more! In addition to three full-length CDs, the box set comes with a full set of insightful liner notes by Dave Thompson, full color photos, a signature guitar pick, 3 collectible pins, and a backstage pass!

Todd Rundgren - Box O'Todd (3CD) (2016)

DISC 1 - Todd Rundgren And The Hello People - Live From Philadelphia 1971 (59:47)
1. Banter & Soundcheck
2. Believe In Me (Todd Rundgren)
3. Lady On The Terrace (Tom Cosgrove)
4. I Got My Pipe (Mark "Moogy" Klingman / Todd Rundgren / Norman Smart)
5. It Wouldn't Have Made Any Difference (Todd Rundgren)
6. Rock All Over Again (Mark "Moogy" Klingman)
7. Everybody In The Congregation (Tom Cosgrove)
8. Broke Down & Busted (Todd Rundgren)
9. Tonight I Wanna Love Me A Stranger (Mark "Moogy" Klingman / Todd Rundgren)
10. Ooh Baby Baby (Pete Moore / Smokey Robinson)
11. Hold Me Tight (Excerpt) (John Lennon / Paul McCartney)
12. Before I Grow Too Old (Dave Bartholomew / Fats Domino / Robert Charles Guidry)
13. Be Nice To Me (Todd Rundgren)
14. I'm Feelin' Better (Tom Cosgrove)
15. The Ballad (Denny & Jean) (Todd Rundgren)

Todd Rundgren - Box O'Todd (3CD) (2016)

DISC 2 - Todd Rundgren And The Hello People - Ultrasonic Studios 1972 (56:15)
1. Broke Down & Busted (Todd Rundgren)
2. Georgia Swing (Bloomfield)
3. Outside Love (Tom Cosgrove)
4. Piss Aaron (Todd Rundgren)
5. A Dream Goes On Forever (Todd Rundgren)
6. I Saw The Light (Todd Rundgren)
7. It Wouldn't Have Made Any Difference (Todd Rundgren)
8. Feels So Good to Be Alive (Hello People)
9. Mad Red Ant Lady (Greg Geddes / N.D. Smart II / Robert Sedita / Larry Tasse)
10. Blaze (Tom Cosgrove / Stu Woods)
11. Lady On The Terrace (Tom Cosgrove)
12. Slut (Todd Rundgren)

Todd Rundgren - Box O'Todd (3CD) (2016)

DISC 3 - Todd Rundgren's Utopia - Counterpart Studios Cincinnati 1973 (55:47)
1. Intro
2. I Saw The Light (Todd Rundgren)
3. A Dream Goes On Forever (Todd Rundgren)
4. Piss Aaron (Todd Rundgren)
5. Lord Chancellor's Nightmare Song (William Schwenck Gilbert / Todd Rundgren / Arthur Sullivan)
6. Hello It's Me (Todd Rundgren)
7. Banter
8. Utopia Theme (Dave Mason / Todd Rundgren)
9. Black Maria (Todd Rundgren)
10. Hungry For Love (Todd Rundgren)
11. The Ikon (Segments) (Mark "Moogy" Klingman / Todd Rundgren / Schuckett / John Siegler)

Todd Rundgren - Box O'Todd (3CD) (2016)

Exact Audio Copy V1.0 beta 6 from 9. April 2015

EAC extraction logfile from 12. April 2016, 12:33

Todd Rundgren / Box O'Todd (Disc 1)

Used drive : LITE-ON DVD+RW SOHW-802S Adapter: 1 ID: 1

Read mode : Secure
Utilize accurate stream : Yes
Defeat audio cache : Yes
Make use of C2 pointers : No

Read offset correction : 12
Overread into Lead-In and Lead-Out : No
Fill up missing offset samples with silence : Yes
Delete leading and trailing silent blocks : No
Null samples used in CRC calculations : Yes
Used interface : Native Win32 interface for Win NT & 2000
Gap handling : Appended to previous track

Used output format : User Defined Encoder
Selected bitrate : 1024 kBit/s
Quality : High
Add ID3 tag : No
Command line compressor : C:\Program Files\FLAC\flac.exe
Additional command line options : -8 -V -T "ARTIST=%artist%" -T "TITLE=%title%" -T "ALBUM=%albumtitle%" -T "DATE=%year%" -T "TRACKNUMBER=%tracknr%" -T "GENRE=%genre%" -T "PERFORMER=%albuminterpret%" -T "COMPOSER=%composer%" %haslyrics%–tag-from-file=LYRICS="%lyricsfile%"%haslyrics% -T "ALBUMARTIST=%albumartist%" -T "DISCNUMBER=%cdnumber%" -T "TOTALDISCS=%totalcds%" -T "TOTALTRACKS=%numtracks%" -T "COMMENT=%comment%" %source% -o %dest%

TOC of the extracted CD

Track | Start | Length | Start sector | End sector
––––––––––––––––––––––––––––-
1 | 0:00.00 | 2:04.21 | 0 | 9320
2 | 2:04.21 | 2:51.49 | 9321 | 22194
3 | 4:55.70 | 4:47.55 | 22195 | 43774
4 | 9:43.50 | 5:36.41 | 43775 | 69015
5 | 15:20.16 | 4:19.36 | 69016 | 88476
6 | 19:39.52 | 3:18.29 | 88477 | 103355
7 | 22:58.06 | 4:50.60 | 103356 | 125165
8 | 27:48.66 | 5:17.42 | 125166 | 148982
9 | 33:06.33 | 4:29.28 | 148983 | 169185
10 | 37:35.61 | 4:16.18 | 169186 | 188403
11 | 41:52.04 | 2:52.28 | 188404 | 201331
12 | 44:44.32 | 3:00.11 | 201332 | 214842
13 | 47:44.43 | 4:26.33 | 214843 | 234825
14 | 52:11.01 | 4:11.45 | 234826 | 253695
15 | 56:22.46 | 3:25.25 | 253696 | 269095

Track 1

Filename C:\Users\kqwiet\Desktop\Music Conversions\01 - Banter & Soundcheck.wav

Pre-gap length 0:00:02.00

Peak level 95.8 %
Extraction speed 2.5 X
Track quality 100.0 %
Test CRC 09124E00
Copy CRC 09124E00
Track not present in AccurateRip database
Copy OK

Track 2

Filename C:\Users\kqwiet\Desktop\Music Conversions\02 - Believe In Me.wav

Peak level 99.8 %
Extraction speed 2.3 X
Track quality 99.9 %
Test CRC DDD044CA
Copy CRC DDD044CA
Track not present in AccurateRip database
Copy OK

Track 3

Filename C:\Users\kqwiet\Desktop\Music Conversions\03 - Lady On The Terrace.wav

Peak level 90.0 %
Extraction speed 2.4 X
Track quality 100.0 %
Test CRC F29A62F3
Copy CRC F29A62F3
Track not present in AccurateRip database
Copy OK

Track 4

Filename C:\Users\kqwiet\Desktop\Music Conversions\04 - I Got My Pipe.wav

Peak level 91.7 %
Extraction speed 2.7 X
Track quality 100.0 %
Test CRC 4E0119A5
Copy CRC 4E0119A5
Track not present in AccurateRip database
Copy OK

Track 5

Filename C:\Users\kqwiet\Desktop\Music Conversions\05 - It Wouldn't Have Made Any Difference.wav

Peak level 96.5 %
Extraction speed 2.9 X
Track quality 100.0 %
Test CRC FE9DE66E
Copy CRC FE9DE66E
Track not present in AccurateRip database
Copy OK

Track 6

Filename C:\Users\kqwiet\Desktop\Music Conversions\06 - Rock All Over Again.wav

Peak level 100.0 %
Extraction speed 3.1 X
Track quality 100.0 %
Test CRC 9602DD67
Copy CRC 9602DD67
Track not present in AccurateRip database
Copy OK

Track 7

Filename C:\Users\kqwiet\Desktop\Music Conversions\07 - Everybody In The Congregation.wav

Peak level 91.5 %
Extraction speed 3.3 X
Track quality 99.9 %
Test CRC 2AC6E462
Copy CRC 2AC6E462
Track not present in AccurateRip database
Copy OK

Track 8

Filename C:\Users\kqwiet\Desktop\Music Conversions\08 - Broke Down & Busted.wav

Peak level 98.8 %
Extraction speed 3.4 X
Track quality 100.0 %
Test CRC 9FF0B4AF
Copy CRC 9FF0B4AF
Track not present in AccurateRip database
Copy OK

Track 9

Filename C:\Users\kqwiet\Desktop\Music Conversions\09 - Tonight I Want To Love Me A Stranger.wav

Peak level 97.3 %
Extraction speed 3.5 X
Track quality 100.0 %
Test CRC C9EB0782
Copy CRC C9EB0782
Track not present in AccurateRip database
Copy OK

Track 10

Filename C:\Users\kqwiet\Desktop\Music Conversions\10 - Ooh, Baby Baby.wav

Peak level 97.7 %
Extraction speed 3.7 X
Track quality 100.0 %
Test CRC 0EB88C91
Copy CRC 0EB88C91
Track not present in AccurateRip database
Copy OK

Track 11

Filename C:\Users\kqwiet\Desktop\Music Conversions\11 - Hold Me Tight (Excerpt).wav

Peak level 97.0 %
Extraction speed 3.8 X
Track quality 100.0 %
Test CRC BDB6A4B2
Copy CRC BDB6A4B2
Track not present in AccurateRip database
Copy OK

Track 12

Filename C:\Users\kqwiet\Desktop\Music Conversions\12 - Before I Grow Too Old.wav

Peak level 98.1 %
Extraction speed 3.7 X
Track quality 100.0 %
Test CRC D08A55D8
Copy CRC D08A55D8
Track not present in AccurateRip database
Copy OK

Track 13

Filename C:\Users\kqwiet\Desktop\Music Conversions\13 - Be Nice To Me.wav

Peak level 90.8 %
Extraction speed 4.0 X
Track quality 100.0 %
Test CRC CEC51384
Copy CRC CEC51384
Track not present in AccurateRip database
Copy OK

Track 14

Filename C:\Users\kqwiet\Desktop\Music Conversions\14 - I'm Feelin' Better.wav

Peak level 96.8 %
Extraction speed 4.2 X
Track quality 100.0 %
Test CRC 57F7247C
Copy CRC 57F7247C
Track not present in AccurateRip database
Copy OK

Track 15

Filename C:\Users\kqwiet\Desktop\Music Conversions\15 - The Ballad (Denny & Jean).wav

Peak level 91.9 %
Extraction speed 3.5 X
Track quality 100.0 %
Test CRC 9CA233AC
Copy CRC 9CA233AC
Track not present in AccurateRip database
Copy OK

None of the tracks are present in the AccurateRip database

No errors occurred

End of status report

–– CUETools DB Plugin V2.1.6

[CTDB TOCID: Qc3kxxdB2VfsKxsee1Dmhq_CCJ0-] database access error: The remote name could not be resolved: 'db.cuetools.net'

==== Log checksum 563B4E6EDDF80466D93B69C1FFFF2B830A274C4AF1268125A3BCC77E5F7EBA41 ====

Exact Audio Copy V1.0 beta 6 from 9. April 2015

EAC extraction logfile from 12. April 2016, 14:26

Todd Rundgren / Box O'Todd (Disc 2)

Used drive : LITE-ON DVD+RW SOHW-802S Adapter: 1 ID: 1

Read mode : Secure
Utilize accurate stream : Yes
Defeat audio cache : Yes
Make use of C2 pointers : No

Read offset correction : 12
Overread into Lead-In and Lead-Out : No
Fill up missing offset samples with silence : Yes
Delete leading and trailing silent blocks : No
Null samples used in CRC calculations : Yes
Used interface : Native Win32 interface for Win NT & 2000
Gap handling : Appended to previous track

Used output format : User Defined Encoder
Selected bitrate : 1024 kBit/s
Quality : High
Add ID3 tag : No
Command line compressor : C:\Program Files\FLAC\flac.exe
Additional command line options : -8 -V -T "ARTIST=%artist%" -T "TITLE=%title%" -T "ALBUM=%albumtitle%" -T "DATE=%year%" -T "TRACKNUMBER=%tracknr%" -T "GENRE=%genre%" -T "PERFORMER=%albuminterpret%" -T "COMPOSER=%composer%" %haslyrics%–tag-from-file=LYRICS="%lyricsfile%"%haslyrics% -T "ALBUMARTIST=%albumartist%" -T "DISCNUMBER=%cdnumber%" -T "TOTALDISCS=%totalcds%" -T "TOTALTRACKS=%numtracks%" -T "COMMENT=%comment%" %source% -o %dest%

TOC of the extracted CD

Track | Start | Length | Start sector | End sector
––––––––––––––––––––––––––––-
1 | 0:00.00 | 5:27.47 | 0 | 24571
2 | 5:27.47 | 3:42.13 | 24572 | 41234
3 | 9:09.60 | 5:55.52 | 41235 | 67911
4 | 15:05.37 | 4:27.25 | 67912 | 87961
5 | 19:32.62 | 2:32.73 | 87962 | 99434
6 | 22:05.60 | 3:39.65 | 99435 | 115924
7 | 25:45.50 | 4:44.22 | 115925 | 137246
8 | 30:29.72 | 4:13.58 | 137247 | 156279
9 | 34:43.55 | 9:02.32 | 156280 | 196961
10 | 43:46.12 | 3:44.50 | 196962 | 213811
11 | 47:30.62 | 5:25.55 | 213812 | 238241
12 | 52:56.42 | 3:18.68 | 238242 | 253159

Track 1

Filename C:\Users\kqwiet\Desktop\Music Conversions\01 - Broke Down & Busted.wav

Pre-gap length 0:00:02.00

Peak level 100.0 %
Extraction speed 2.3 X
Track quality 100.0 %
Test CRC 29C8C86A
Copy CRC 29C8C86A
Track not present in AccurateRip database
Copy OK

Track 2

Filename C:\Users\kqwiet\Desktop\Music Conversions\02 - Georgia Swing , Outside Swing.wav

Peak level 100.0 %
Extraction speed 2.4 X
Track quality 100.0 %
Test CRC 487BB5D5
Copy CRC 487BB5D5
Track not present in AccurateRip database
Copy OK

Track 3

Filename C:\Users\kqwiet\Desktop\Music Conversions\03 - Outside Love.wav

Peak level 100.0 %
Extraction speed 2.6 X
Track quality 100.0 %
Test CRC CA38F8A8
Copy CRC CA38F8A8
Track not present in AccurateRip database
Copy OK

Track 4

Filename C:\Users\kqwiet\Desktop\Music Conversions\04 - Piss Aaron.wav

Peak level 98.8 %
Extraction speed 2.9 X
Track quality 100.0 %
Test CRC A62C86E2
Copy CRC A62C86E2
Track not present in AccurateRip database
Copy OK

Track 5

Filename C:\Users\kqwiet\Desktop\Music Conversions\05 - A Dream Goes On Forever.wav

Peak level 99.1 %
Extraction speed 2.9 X
Track quality 100.0 %
Test CRC 803833EB
Copy CRC 803833EB
Track not present in AccurateRip database
Copy OK

Track 6

Filename C:\Users\kqwiet\Desktop\Music Conversions\06 - I Saw The Light.wav

Peak level 100.0 %
Extraction speed 3.1 X
Track quality 100.0 %
Test CRC EE368077
Copy CRC EE368077
Track not present in AccurateRip database
Copy OK

Track 7

Filename C:\Users\kqwiet\Desktop\Music Conversions\07 - It Wouldn't Have Made Any Difference.wav

Peak level 100.0 %
Extraction speed 3.3 X
Track quality 100.0 %
Test CRC 0B1A399A
Copy CRC 0B1A399A
Track not present in AccurateRip database
Copy OK

Track 8

Filename C:\Users\kqwiet\Desktop\Music Conversions\08 - Feels So Good To Be Alive.wav

Peak level 98.3 %
Extraction speed 3.5 X
Track quality 100.0 %
Test CRC EA7591E3
Copy CRC EA7591E3
Track not present in AccurateRip database
Copy OK

Track 9

Filename C:\Users\kqwiet\Desktop\Music Conversions\09 - Mad Red Ant Lady.wav

Peak level 99.0 %
Extraction speed 3.7 X
Track quality 100.0 %
Test CRC 71A54993
Copy CRC 71A54993
Track not present in AccurateRip database
Copy OK

Track 10

Filename C:\Users\kqwiet\Desktop\Music Conversions\10 - Blaze.wav

Peak level 98.2 %
Extraction speed 3.9 X
Track quality 100.0 %
Test CRC 7B8BF032
Copy CRC 7B8BF032
Track not present in AccurateRip database
Copy OK

Track 11

Filename C:\Users\kqwiet\Desktop\Music Conversions\11 - Lady On The Terrace.wav

Peak level 97.3 %
Extraction speed 4.0 X
Track quality 100.0 %
Test CRC 7545BA9D
Copy CRC 7545BA9D
Track not present in AccurateRip database
Copy OK

Track 12

Filename C:\Users\kqwiet\Desktop\Music Conversions\12 - Slut.wav

Peak level 100.0 %
Extraction speed 1.9 X
Track quality 99.9 %
Test CRC A112F3C1
Copy CRC A112F3C1
Track not present in AccurateRip database
Copy OK

None of the tracks are present in the AccurateRip database

No errors occurred

End of status report

–– CUETools DB Plugin V2.1.6

[CTDB TOCID: 3xK97ReGLAcMlHIXXh801uuiEtw-] database access error: The remote name could not be resolved: 'db.cuetools.net'

==== Log checksum 23420BA69D79AF77AF79E0C85D1B1140C562E82B6FBF3927273A310B8E609180 ====

Exact Audio Copy V1.0 beta 6 from 9. April 2015

EAC extraction logfile from 12. April 2016, 15:29

Todd Rundgren / Box O'Todd (Disc 3)

Used drive : LITE-ON DVD+RW SOHW-802S Adapter: 1 ID: 1

Read mode : Secure
Utilize accurate stream : Yes
Defeat audio cache : Yes
Make use of C2 pointers : No

Read offset correction : 12
Overread into Lead-In and Lead-Out : No
Fill up missing offset samples with silence : Yes
Delete leading and trailing silent blocks : No
Null samples used in CRC calculations : Yes
Used interface : Native Win32 interface for Win NT & 2000
Gap handling : Appended to previous track

Used output format : User Defined Encoder
Selected bitrate : 1024 kBit/s
Quality : High
Add ID3 tag : No
Command line compressor : C:\Program Files\FLAC\flac.exe
Additional command line options : -8 -V -T "ARTIST=%artist%" -T "TITLE=%title%" -T "ALBUM=%albumtitle%" -T "DATE=%year%" -T "TRACKNUMBER=%tracknr%" -T "GENRE=%genre%" -T "PERFORMER=%albuminterpret%" -T "COMPOSER=%composer%" %haslyrics%–tag-from-file=LYRICS="%lyricsfile%"%haslyrics% -T "ALBUMARTIST=%albumartist%" -T "DISCNUMBER=%cdnumber%" -T "TOTALDISCS=%totalcds%" -T "TOTALTRACKS=%numtracks%" -T "COMMENT=%comment%" %source% -o %dest%

TOC of the extracted CD

Track | Start | Length | Start sector | End sector
––––––––––––––––––––––––––––-
1 | 0:00.00 | 0:41.08 | 0 | 3082
2 | 0:41.08 | 3:51.49 | 3083 | 20456
3 | 4:32.57 | 2:48.07 | 20457 | 33063
4 | 7:20.64 | 7:47.54 | 33064 | 68142
5 | 15:08.43 | 3:26.43 | 68143 | 83635
6 | 18:35.11 | 4:27.48 | 83636 | 103708
7 | 23:02.59 | 0:16.68 | 103709 | 104976
8 | 23:19.52 | 14:11.44 | 104977 | 168845
9 | 37:31.21 | 6:26.20 | 168846 | 197815
10 | 43:57.41 | 2:26.17 | 197816 | 208782
11 | 46:23.58 | 9:23.46 | 208783 | 251053

Track 1

Filename C:\Users\kqwiet\Desktop\Music Conversions\01 - Intro.wav

Pre-gap length 0:00:02.00

Peak level 88.6 %
Extraction speed 2.4 X
Track quality 100.0 %
Test CRC C5473640
Copy CRC C5473640
Track not present in AccurateRip database
Copy OK

Track 2

Filename C:\Users\kqwiet\Desktop\Music Conversions\02 - I Saw The Light.wav

Peak level 91.6 %
Extraction speed 2.3 X
Track quality 100.0 %
Test CRC 961DC64E
Copy CRC 961DC64E
Track not present in AccurateRip database
Copy OK

Track 3

Filename C:\Users\kqwiet\Desktop\Music Conversions\03 - A Dream Goes On Forever.wav

Peak level 90.5 %
Extraction speed 2.2 X
Track quality 100.0 %
Test CRC 0FA05940
Copy CRC 0FA05940
Track not present in AccurateRip database
Copy OK

Track 4

Filename C:\Users\kqwiet\Desktop\Music Conversions\04 - Piss Aaron.wav

Peak level 91.3 %
Extraction speed 2.6 X
Track quality 100.0 %
Test CRC 4F4C27F5
Copy CRC 4F4C27F5
Track not present in AccurateRip database
Copy OK

Track 5

Filename C:\Users\kqwiet\Desktop\Music Conversions\05 - Lord Chancellor's Nightmare Song.wav

Peak level 92.9 %
Extraction speed 2.9 X
Track quality 100.0 %
Test CRC 81BCDFFB
Copy CRC 81BCDFFB
Track not present in AccurateRip database
Copy OK

Track 6

Filename C:\Users\kqwiet\Desktop\Music Conversions\06 - Hello It's Me.wav

Peak level 93.2 %
Extraction speed 3.0 X
Track quality 100.0 %
Test CRC 85ACC576
Copy CRC 85ACC576
Track not present in AccurateRip database
Copy OK

Track 7

Filename C:\Users\kqwiet\Desktop\Music Conversions\07 - Interlude.wav

Peak level 89.2 %
Extraction speed 2.1 X
Track quality 99.3 %
Test CRC B5203446
Copy CRC B5203446
Track not present in AccurateRip database
Copy OK

Track 8

Filename C:\Users\kqwiet\Desktop\Music Conversions\08 - Utopia Theme.wav

Peak level 92.5 %
Extraction speed 3.4 X
Track quality 99.9 %
Test CRC 2AB89C29
Copy CRC 2AB89C29
Track not present in AccurateRip database
Copy OK

Track 9

Filename C:\Users\kqwiet\Desktop\Music Conversions\09 - Black Maria.wav

Peak level 93.5 %
Extraction speed 3.7 X
Track quality 100.0 %
Test CRC 34B4FE0D
Copy CRC 34B4FE0D
Track not present in AccurateRip database
Copy OK

Track 10

Filename C:\Users\kqwiet\Desktop\Music Conversions\10 - Hungry For Love.wav

Peak level 92.6 %
Extraction speed 3.8 X
Track quality 100.0 %
Test CRC 399CC36F
Copy CRC 399CC36F
Track not present in AccurateRip database
Copy OK

Track 11

Filename C:\Users\kqwiet\Desktop\Music Conversions\11 - The Ikon.wav

Peak level 94.0 %
Extraction speed 3.9 X
Track quality 100.0 %
Test CRC B38A7D3F
Copy CRC B38A7D3F
Track not present in AccurateRip database
Copy OK

None of the tracks are present in the AccurateRip database

No errors occurred

End of status report

–– CUETools DB Plugin V2.1.6

[CTDB TOCID: jjHFr6bcGCUqfbdjxqo9bMJR9UI-] database access error: The remote name could not be resolved: 'db.cuetools.net'

==== Log checksum 2C97742DCDC7E000760CED9035930DF68814FB9EFD0FF3F99BC10C843302C1D5 ====

All thanks go to the REDacted

More Music in My Blog
Follow My RSS Channel