Subcategories

Todd Rundgren's Utopia - Live At Hammersmith Odeon '75 (2012)

Posted By: Domestos
Todd Rundgren's Utopia - Live At Hammersmith Odeon '75 (2012)

Todd Rundgren's Utopia - Live At Hammersmith Odeon '75 (2012)
EAC Rip | FLAC (tracks+.cue, log) ~ 387.96 Mb | 54:30 | Scans included
Psychedelic Rock | Country: USA | Label: Shout! Factory - 826663-12906

Shout! Factory's 2012 disc Live at Hammersmith Odeon '75 marks the first official release of this heavily bootlegged show from Todd Rundgren's 1975 appearance at the London venue. As the first U.K. concert Utopia ever played, this concert does have historical import but, better still, this is one of the liveliest sets the group played during this early incarnation, possibly due to the bandmembers expertly balancing their heavy prog inclinations with Rundgren's tuneful solo work.

Certainly, the set list is peppered with pop tunes, stretching all the way back to Nazz's hit nugget "Open My Eyes," and the group finds room for a cover of the Move's "Do Ya," but these bits of brilliant pop are given fiery treatments, as are the longer moments that teeter on the brink of indulgences ("Mister Triscuits," "The Wheel"). And that is why Live at Hammersmith Odeon '75 is such an invigorating listen – Utopia are playing from the gut, not the mind, and they sound as massive as a Sherman tank. ~ AllMusic Review by Stephen Thomas Erlewine

Track List:
1. Freedom Fighters (05:14)
2. Mister Triscuits (10:36)
3. The Last Ride (05:12)
4. When The Shit Hits The Fan/ Sunset Boulevard/ Le Feel Internacìonále (05:35)
5. Heavy Metal Kids (04:22)
6. The Wheel (07:33)
7. Open My Eyes (04:08)
8. Sons Of 1984 (04:05)
9. Do Ya (04:06)
10. Couldn't I Just Tell You (03:42)

Bass Guitar, Vocals – John Siegler
Drums – Willie Wilcox
Guitar, Lead Vocals – Todd Rundgren
Producer – David Skye
Synthesizer, Keyboards – Roger Powell
Vocals – Anthony Hinton, Luther Vandross

Todd Rundgren's Utopia - Live At Hammersmith Odeon '75 (2012)

Exact Audio Copy V1.3 from 2. September 2016

EAC extraction logfile from 26. March 2017, 0:58

Todd Rundgren's Utopia / Live at Hammersmith Odeon '75

Used drive : ATAPI DVD A DH16A6S Adapter: 1 ID: 0

Read mode : Secure
Utilize accurate stream : Yes
Defeat audio cache : Yes
Make use of C2 pointers : No

Read offset correction : 6
Overread into Lead-In and Lead-Out : No
Fill up missing offset samples with silence : Yes
Delete leading and trailing silent blocks : No
Null samples used in CRC calculations : Yes
Used interface : Native Win32 interface for Win NT & 2000
Gap handling : Appended to previous track

Used output format : User Defined Encoder
Selected bitrate : 1024 kBit/s
Quality : High
Add ID3 tag : No
Command line compressor : C:\Program Files (x86)\Exact Audio Copy\Flac\flac.exe
Additional command line options : -8 -e -p -V -T "ARTIST=%artist%" -T "TITLE=%title%" -T "ALBUM=%albumtitle%" -T "DATE=%year%" -T "TRACKNUMBER=%tracknr%" -T "GENRE=%genre%" -T "PERFORMER=%albuminterpret%" -T "COMPOSER=%composer%" %haslyrics%–tag-from-file=LYRICS="%lyricsfile%"%haslyrics% -T "ALBUMARTIST=%albumartist%" -T "DISCNUMBER=%cdnumber%" -T "TOTALDISCS=%totalcds%" -T "TOTALTRACKS=%numtracks%" -T "COMMENT=%comment%" %source% -o %dest%

TOC of the extracted CD

Track | Start | Length | Start sector | End sector
––––––––––––––––––––––––––––-
1 | 0:00.00 | 5:14.14 | 0 | 23563
2 | 5:14.14 | 10:35.67 | 23564 | 71255
3 | 15:50.06 | 5:12.27 | 71256 | 94682
4 | 21:02.33 | 5:32.56 | 94683 | 119638
5 | 26:35.14 | 4:21.40 | 119639 | 139253
6 | 30:56.54 | 7:32.38 | 139254 | 173191
7 | 38:29.17 | 4:07.70 | 173192 | 191786
8 | 42:37.12 | 4:05.36 | 191787 | 210197
9 | 46:42.48 | 4:06.33 | 210198 | 228680
10 | 50:49.06 | 3:41.44 | 228681 | 245299

Track 1

Filename H:\Utopia - Live at Hammersmith Odeon 75 (2012) [FLAC] {826663-12906}\01 Freedom Fighters.wav

Pre-gap length 0:00:02.00

Peak level 97.0 %
Extraction speed 4.0 X
Track quality 100.0 %
Test CRC EC7AF2B0
Copy CRC EC7AF2B0
Accurately ripped (confidence 14) [8F1F4FA4] (AR v2)
Copy OK

Track 2

Filename H:\Utopia - Live at Hammersmith Odeon 75 (2012) [FLAC] {826663-12906}\02 Mister Triscuits.wav

Peak level 100.0 %
Extraction speed 4.9 X
Track quality 100.0 %
Test CRC B551D41F
Copy CRC B551D41F
Accurately ripped (confidence 14) [884FB71C] (AR v2)
Copy OK

Track 3

Filename H:\Utopia - Live at Hammersmith Odeon 75 (2012) [FLAC] {826663-12906}\03 The Last Ride.wav

Peak level 100.0 %
Extraction speed 5.2 X
Track quality 100.0 %
Test CRC B0F2445E
Copy CRC B0F2445E
Accurately ripped (confidence 14) [93E4E88D] (AR v2)
Copy OK

Track 4

Filename H:\Utopia - Live at Hammersmith Odeon 75 (2012) [FLAC] {826663-12906}\04 When The Shit Hits The Fan - Sunset Boulevard - Le Feel Internacionale.wav

Peak level 99.7 %
Extraction speed 5.5 X
Track quality 100.0 %
Test CRC DA5FA8C6
Copy CRC DA5FA8C6
Accurately ripped (confidence 14) [089BE34E] (AR v2)
Copy OK

Track 5

Filename H:\Utopia - Live at Hammersmith Odeon 75 (2012) [FLAC] {826663-12906}\05 Heavy Metal Kids.wav

Peak level 99.8 %
Extraction speed 5.7 X
Track quality 100.0 %
Test CRC B5203602
Copy CRC B5203602
Accurately ripped (confidence 14) [7BA29C0E] (AR v2)
Copy OK

Track 6

Filename H:\Utopia - Live at Hammersmith Odeon 75 (2012) [FLAC] {826663-12906}\06 The Wheel.wav

Peak level 100.0 %
Extraction speed 5.7 X
Track quality 99.9 %
Test CRC FA0AE6BA
Copy CRC FA0AE6BA
Accurately ripped (confidence 14) [5B424C2A] (AR v2)
Copy OK

Track 7

Filename H:\Utopia - Live at Hammersmith Odeon 75 (2012) [FLAC] {826663-12906}\07 Open My Eyes.wav

Peak level 92.9 %
Extraction speed 6.3 X
Track quality 100.0 %
Test CRC D5447C21
Copy CRC D5447C21
Accurately ripped (confidence 14) [98F18E8C] (AR v2)
Copy OK

Track 8

Filename H:\Utopia - Live at Hammersmith Odeon 75 (2012) [FLAC] {826663-12906}\08 Sons Of 1984.wav

Peak level 99.4 %
Extraction speed 6.5 X
Track quality 100.0 %
Test CRC 2561A146
Copy CRC 2561A146
Accurately ripped (confidence 14) [345FFD53] (AR v2)
Copy OK

Track 9

Filename H:\Utopia - Live at Hammersmith Odeon 75 (2012) [FLAC] {826663-12906}\09 Do Ya.wav

Peak level 99.8 %
Extraction speed 6.7 X
Track quality 100.0 %
Test CRC 5D47CA9D
Copy CRC 5D47CA9D
Accurately ripped (confidence 14) [4FAA3AE5] (AR v2)
Copy OK

Track 10

Filename H:\Utopia - Live at Hammersmith Odeon 75 (2012) [FLAC] {826663-12906}\10 Couldn't I Just Tell You.wav

Peak level 98.5 %
Extraction speed 6.8 X
Track quality 100.0 %
Test CRC EA131C95
Copy CRC EA131C95
Accurately ripped (confidence 13) [FF6DBF4D] (AR v2)
Copy OK

All tracks accurately ripped

No errors occurred

End of status report

–– CUETools DB Plugin V2.1.6

[CTDB TOCID: frJhmZyMzigNX5vjLf4c3CGVcJw-] found
Submit result: already submitted
Track | CTDB Status
1 | (3/3) Accurately ripped
2 | (3/3) Accurately ripped
3 | (3/3) Accurately ripped
4 | (3/3) Accurately ripped
5 | (3/3) Accurately ripped
6 | (3/3) Accurately ripped
7 | (3/3) Accurately ripped
8 | (3/3) Accurately ripped
9 | (3/3) Accurately ripped
10 | (3/3) Accurately ripped

==== Log checksum 15BA291F8435013487514FB6967BE1E6FDE01237270248ABAA25D7011FE58C14 ====

All thanks go to the REDacted

More Music in My Blog
Follow My RSS Channel