Subcategories

Tommy Castro And The Painkillers - Stompin' Ground (2017)

Posted By: Domestos
Tommy Castro And The Painkillers - Stompin' Ground (2017)

Tommy Castro And The Painkillers - Stompin' Ground (2017)
EAC Rip | FLAC (image+.cue, log) ~ 350.91 Mb | 50:39 | Scans included
Modern Electric Blues | Label: Alligator Records (ALCD 4978)

Over the course of his career, Tommy Castro has always been inspired by the sounds he absorbed while coming of age on the rough and tumble side of San Jose, California. During the late 1960s and early 1970s, this was Tommy’s home turf—his stomping ground. It was a place where the street-tough Mexican Americans and the counter-culture hippies came together to drink, smoke, laugh, party and listen to tunes—the hippies with their blues and rock, the Mexicans with their soul music. Mixing the blues-rock he loved and the soul music he heard blasting out from the lowriders cruising the streets, along with the socially conscious message songs of the day, Tommy’s own sound was born.

Almost every major rock and soul act, from Ike & Tina Turner to Janis Joplin to Elvin Bishop and Taj Mahal toured through the area, and Tommy was at almost every show. He saw John Lee Hooker, Albert King and Buddy Guy & Junior Wells at the same local blues bar, JJ’s, where he often jammed, honing his chops and dreaming of one day busting out. Tommy Castro has long since gone from that local bar to stages around the world, but his San Jose DNA still infuses his music to this day. You can hear it in every note of Stompin’ Ground. ~ Marc Lipkin

Tommy Castro: Vocals and Guitar
Randy McDonald: Bass and Background Vocals
Bowen Brown: Drums, Tambourine (2)
Michael Emerson: Keyboards

Special Guests:
David Hidalgo: Guitar and Vocals (10)
Charlie Musselwhite: Vocals and Harmonica (12)
Danielle Nicole: Vocals (8)
Mike Zito: Guitar and Vocals (7)

With:
Kid Andersen: Rhythm Guitar (1,2,8,9,10); Acoustic Guitar (3,4,12); Saz (3); Bass (4); Tambourine (1,3,4,8,9); Background Vocals (5)
Lisa Leuschner Andersen: Background Vocals (1,3,6,8,11)
Nancy Wright: Tenor Sax (1,2,4)
John Halbleib: Trumpet (1,2,4)
Martin Windstad: Percussion (6)
Robby Yamilov: Background Vocals (5)

Track List:
01. Nonchalant (03:55)
02. Blues All Around Me (03:42)
03. Fear Is The Enemy (03:34)
04. My Old Neighborhood (05:42)
05. Enough Is Enough (03:52)
06. Love Is (04:40)
07. Rock Bottom (04:30)
08. Soul Shake (03:59)
09. Further On Down The Road (04:17)
10. Them Changes (04:47)
11. Sticks And Stones (03:07)
12. Live Every Day (04:28)

Tommy Castro And The Painkillers - Stompin' Ground (2017)

Exact Audio Copy V1.1 from 23. June 2015

EAC extraction logfile from 20. October 2017, 15:53

Tommy Castro And The Painkillers / Stompin' Ground

Used drive : Optiarc DVD RW AD-7240S Adapter: 1 ID: 0

Read mode : Secure
Utilize accurate stream : Yes
Defeat audio cache : Yes
Make use of C2 pointers : No

Read offset correction : 48
Overread into Lead-In and Lead-Out : No
Fill up missing offset samples with silence : Yes
Delete leading and trailing silent blocks : No
Null samples used in CRC calculations : Yes
Used interface : Native Win32 interface for Win NT & 2000

Used output format : User Defined Encoder
Selected bitrate : 896 kBit/s
Quality : High
Add ID3 tag : No
Command line compressor : C:\Program Files (x86)\Exact Audio Copy\Flac\flac.exe
Additional command line options : -V -8 -T "Date=%year%" -T "Genre=%genre%" %source%

TOC of the extracted CD

Track | Start | Length | Start sector | End sector
––––––––––––––––––––––––––––-
1 | 0:00.00 | 3:55.06 | 0 | 17630
2 | 3:55.06 | 3:42.61 | 17631 | 34341
3 | 7:37.67 | 3:34.57 | 34342 | 50448
4 | 11:12.49 | 5:42.54 | 50449 | 76152
5 | 16:55.28 | 3:52.07 | 76153 | 93559
6 | 20:47.35 | 4:40.36 | 93560 | 114595
7 | 25:27.71 | 4:30.57 | 114596 | 134902
8 | 29:58.53 | 3:59.50 | 134903 | 152877
9 | 33:58.28 | 4:17.02 | 152878 | 172154
10 | 38:15.30 | 4:47.38 | 172155 | 193717
11 | 43:02.68 | 3:07.05 | 193718 | 207747
12 | 46:09.73 | 4:28.50 | 207748 | 227897

Range status and errors

Selected range

Filename D:\My Music Archive_D\__My Rips\Tommy Castro And The Painkillers - Stompin' Ground\Tommy Castro And The Painkillers - Stompin' Ground.wav

Peak level 96.8 %
Extraction speed 3.9 X
Range quality 100.0 %
Test CRC D2E93A3B
Copy CRC D2E93A3B
Copy OK

No errors occurred

AccurateRip summary

Track 1 accurately ripped (confidence 1) [8614B8E4] (AR v2)
Track 2 accurately ripped (confidence 1) [BB16EBAF] (AR v2)
Track 3 accurately ripped (confidence 1) [A00A6815] (AR v2)
Track 4 accurately ripped (confidence 1) [EEC6CAA9] (AR v2)
Track 5 accurately ripped (confidence 1) [A23B2C54] (AR v2)
Track 6 accurately ripped (confidence 1) [BE62985C] (AR v2)
Track 7 accurately ripped (confidence 1) [3B7704BA] (AR v2)
Track 8 accurately ripped (confidence 1) [A5CB4F8D] (AR v2)
Track 9 accurately ripped (confidence 1) [2367E940] (AR v2)
Track 10 accurately ripped (confidence 1) [8F52A581] (AR v2)
Track 11 accurately ripped (confidence 1) [E4EF1F99] (AR v2)
Track 12 accurately ripped (confidence 1) [C5F21AB4] (AR v2)

All tracks accurately ripped

End of status report

==== Log checksum BA4D7F7488CF33FA9CA4480CEBAD6FFB0C8D3F009001A0449173812A66DB1137 ====

All thanks go to the funny_horse

More Music in My Blog
Follow My RSS Channel