Subcategories

Tori Amos - Little Earthquakes (1992, 2015 2CD Deluxe Edition)

Posted By: michuu66
Tori Amos - Little Earthquakes (1992, 2015 2CD Deluxe Edition)

Tori Amos - Little Earthquakes (1992, 2015 2CD Deluxe Edition)
EAC Rip | FLAC Image + Cue + Log | 758 MB | MP3 CBR @320 | 305 MB l Total Time: 2:14:11
Complete Scans | 51 MB | Label: Rhino Entertainment | Rock

Little Earthquakesis the debut solo album of singer/songwriter Tori Amos, featuring the singles "Silent All These Years", "China", "Winter" and "Crucify". In the original assembly of LITTLE EARTHQUAKES, difficult choices had to be made to ensure the album’s balance and flow. Fortunately, songs that didn’t make the record itself were able to see the light of day as a copious stream of single b-sides released in the US and UK. Now they are added as a bonus disc to the remastered version of the album
Tracklist:
Cd1:
1. Crucify
2. Girl
3. Silent All These Years
4. Precious Things
5. Winter
6. Happy Phantom
7. China
8. Leather
9. Mother
10. Tear in Your Hand
11. Me and a Gun
12. Little Earthquakes

Exact Audio Copy V1.1 from 23. June 2015

EAC extraction logfile from 25. November 2015, 19:40

Tori Amos / Little Earthquakes [Deluxe Editon] [Disc 1]

Used drive : HL-DT-STBD-RE BH10LS30 Adapter: 1 ID: 2

Read mode : Secure
Utilize accurate stream : Yes
Defeat audio cache : Yes
Make use of C2 pointers : No

Read offset correction : 667
Overread into Lead-In and Lead-Out : No
Fill up missing offset samples with silence : Yes
Delete leading and trailing silent blocks : No
Null samples used in CRC calculations : Yes
Used interface : Native Win32 interface for Win NT & 2000

Used output format : User Defined Encoder
Selected bitrate : 768 kBit/s
Quality : High
Add ID3 tag : No
Command line compressor : C:\Program Files (x86)\Exact Audio Copy\FLAC\FLAC.EXE
Additional command line options : -6 -V -T "ARTIST=%artist%" -T "TITLE=%title%" -T "ALBUM=%albumtitle%" -T "DATE=%year%" -T "TRACKNUMBER=%tracknr%" -T "GENRE=%genre%" -T "COMMENT=%comment%" -T "BAND=%albuminterpret%" -T "ALBUMARTIST=%albuminterpret%" -T "COMPOSER=%composer%" %haslyrics%–tag-from-file=LYRICS="%lyricsfile%"%haslyrics% -T "DISCNUMBER=%cdnumber%" -T "TOTALDISCS=%totalcds%" -T "TOTALTRACKS=%numtracks%" %hascover%–picture="%coverfile%"%hascover% %source% -o %dest%


TOC of the extracted CD

Track | Start | Length | Start sector | End sector
––––––––––––––––––––––––––––-
1 | 0:00.00 | 5:00.20 | 0 | 22519
2 | 5:00.20 | 4:07.48 | 22520 | 41092
3 | 9:07.68 | 4:11.19 | 41093 | 59936
4 | 13:19.12 | 4:29.18 | 59937 | 80129
5 | 17:48.30 | 5:42.14 | 80130 | 105793
6 | 23:30.44 | 3:16.68 | 105794 | 120561
7 | 26:47.37 | 5:00.26 | 120562 | 143087
8 | 31:47.63 | 3:11.65 | 143088 | 157477
9 | 34:59.53 | 6:59.10 | 157478 | 188912
10 | 41:58.63 | 4:38.66 | 188913 | 209828
11 | 46:37.54 | 3:44.55 | 209829 | 226683
12 | 50:22.34 | 6:53.52 | 226684 | 257710


Range status and errors

Selected range

Filename F:\muzyka\upload\Tori Amos - Little Earthquakes [Deluxe Editon] [Disc 1].wav

Peak level 99.8 %
Extraction speed 1.1 X
Range quality 100.0 %
Copy CRC C494F572
Copy OK

No errors occurred


AccurateRip summary

Track 1 cannot be verified as accurate (confidence 38) [F165BA16], AccurateRip returned [A1CE3D6B] (AR v2)
Track 2 cannot be verified as accurate (confidence 39) [7D7D9C83], AccurateRip returned [5723CAA0] (AR v2)
Track 3 cannot be verified as accurate (confidence 39) [FFB30046], AccurateRip returned [C7ABAAE1] (AR v2)
Track 4 cannot be verified as accurate (confidence 39) [71C5DF58], AccurateRip returned [B3683E74] (AR v2)
Track 5 cannot be verified as accurate (confidence 38) [BF9AB7EB], AccurateRip returned [7728C31B] (AR v2)
Track 6 cannot be verified as accurate (confidence 39) [AEB4FDC6], AccurateRip returned [33B06995] (AR v2)
Track 7 cannot be verified as accurate (confidence 39) [94C57B1B], AccurateRip returned [5220B1C2] (AR v2)
Track 8 cannot be verified as accurate (confidence 39) [193F4D46], AccurateRip returned [547D2099] (AR v2)
Track 9 cannot be verified as accurate (confidence 39) [F49D0979], AccurateRip returned [082CAAB3] (AR v2)
Track 10 cannot be verified as accurate (confidence 39) [8EAC09DD], AccurateRip returned [ACB80EA9] (AR v2)
Track 11 cannot be verified as accurate (confidence 39) [69478813], AccurateRip returned [A326BF9E] (AR v2)
Track 12 cannot be verified as accurate (confidence 38) [E9B62FE8], AccurateRip returned [70791685] (AR v2)

No tracks could be verified as accurate
You may have a different pressing from the one(s) in the database

End of status report

–– CUETools DB Plugin V2.1.6

[CTDB TOCID: umyirmtO6.qHmhjfxgeqaC8_Un4-] found
Submit result: umyirmtO6.qHmhjfxgeqaC8_Un4- has been confirmed
Track | CTDB Status
1 | (45/46) Accurately ripped
2 | (44/46) Accurately ripped
3 | (44/46) Accurately ripped
4 | (44/46) Accurately ripped
5 | (45/46) Accurately ripped
6 | (45/46) Accurately ripped
7 | (45/46) Accurately ripped
8 | (45/46) Accurately ripped
9 | (44/46) Accurately ripped
10 | (44/46) Accurately ripped
11 | (44/46) Accurately ripped
12 | (45/46) Accurately ripped


==== Log checksum C56B2EE6976DCA45F12BDCA3063E946B42B6F26B49278E8576C30D217FAC8C2E ====


Cd2:
1. Upside Down
2. Thoughts
3. Ode to the Banana King (Part One)
4. Song for Eric
5. The Pool
6. Take to the Sky
7. Sweet Dreams
8. Mary
9. Sugar
10. Flying Dutchman
11. Humpty Dumpty
12. Smells Like Teen Spirit (Nirvana Cover)
13. Little Earthquakes (Live from Cambridge Corn Exchange, 5th April 1992)
14. Crucify (Live from Cambridge Corn Exchange, 5th April 1992)
15. Precious Things (Live from Cambridge Corn Exchange, 5th April 1992)
16. Mother (Live from Cambridge Corn Exchange, 5th April 1992)
17. Happy Phantom (Live from Cambridge Corn Exchange, 5th April 1992)
18. Here. In My Head

Exact Audio Copy V1.1 from 23. June 2015

EAC extraction logfile from 25. November 2015, 21:19

Tori Amos / Little Earthquakes [Deluxe Editon] [Disc 2]

Used drive : HL-DT-STBD-RE BH10LS30 Adapter: 1 ID: 2

Read mode : Secure
Utilize accurate stream : Yes
Defeat audio cache : Yes
Make use of C2 pointers : No

Read offset correction : 667
Overread into Lead-In and Lead-Out : No
Fill up missing offset samples with silence : Yes
Delete leading and trailing silent blocks : No
Null samples used in CRC calculations : Yes
Used interface : Native Win32 interface for Win NT & 2000

Used output format : User Defined Encoder
Selected bitrate : 768 kBit/s
Quality : High
Add ID3 tag : No
Command line compressor : C:\Program Files (x86)\Exact Audio Copy\FLAC\FLAC.EXE
Additional command line options : -6 -V -T "ARTIST=%artist%" -T "TITLE=%title%" -T "ALBUM=%albumtitle%" -T "DATE=%year%" -T "TRACKNUMBER=%tracknr%" -T "GENRE=%genre%" -T "COMMENT=%comment%" -T "BAND=%albuminterpret%" -T "ALBUMARTIST=%albuminterpret%" -T "COMPOSER=%composer%" %haslyrics%–tag-from-file=LYRICS="%lyricsfile%"%haslyrics% -T "DISCNUMBER=%cdnumber%" -T "TOTALDISCS=%totalcds%" -T "TOTALTRACKS=%numtracks%" %hascover%–picture="%coverfile%"%hascover% %source% -o %dest%


TOC of the extracted CD

Track | Start | Length | Start sector | End sector
––––––––––––––––––––––––––––-
1 | 0:00.00 | 4:23.67 | 0 | 19791
2 | 4:23.67 | 2:44.72 | 19792 | 32163
3 | 7:08.64 | 4:05.71 | 32164 | 50609
4 | 11:14.60 | 1:54.18 | 50610 | 59177
5 | 13:09.03 | 2:51.69 | 59178 | 72071
6 | 16:00.72 | 4:20.08 | 72072 | 91579
7 | 20:21.05 | 3:28.35 | 91580 | 107214
8 | 23:49.40 | 4:26.57 | 107215 | 127221
9 | 28:16.22 | 4:27.62 | 127222 | 147308
10 | 32:44.09 | 6:31.53 | 147309 | 176686
11 | 39:15.62 | 2:52.57 | 176687 | 189643
12 | 42:08.44 | 3:18.71 | 189644 | 204564
13 | 45:27.40 | 7:00.74 | 204565 | 236138
14 | 52:28.39 | 5:36.16 | 236139 | 261354
15 | 58:04.55 | 5:05.25 | 261355 | 284254
16 | 63:10.05 | 6:25.12 | 284255 | 313141
17 | 69:35.17 | 3:24.46 | 313142 | 328487
18 | 72:59.63 | 3:54.63 | 328488 | 346100


Range status and errors

Selected range

Filename F:\muzyka\upload\Tori Amos - Little Earthquakes [Deluxe Editon] [Disc 2].wav

Peak level 99.8 %
Extraction speed 2.0 X
Range quality 100.0 %
Copy CRC E441F09C
Copy OK

No errors occurred


AccurateRip summary

Track 1 cannot be verified as accurate (confidence 39) [AED5037F], AccurateRip returned [D214559D] (AR v2)
Track 2 cannot be verified as accurate (confidence 39) [56FDFC72], AccurateRip returned [C618DFD7] (AR v2)
Track 3 cannot be verified as accurate (confidence 39) [CD4CB85B], AccurateRip returned [F48912A7] (AR v2)
Track 4 cannot be verified as accurate (confidence 39) [07C3823E], AccurateRip returned [A37C5C12] (AR v2)
Track 5 cannot be verified as accurate (confidence 39) [19127FE6], AccurateRip returned [937C8B47] (AR v2)
Track 6 cannot be verified as accurate (confidence 39) [58326348], AccurateRip returned [F0BB016F] (AR v2)
Track 7 cannot be verified as accurate (confidence 39) [CBEC0F52], AccurateRip returned [E544F892] (AR v2)
Track 8 cannot be verified as accurate (confidence 38) [17BF0D9F], AccurateRip returned [07337186] (AR v2)
Track 9 cannot be verified as accurate (confidence 38) [C25C3969], AccurateRip returned [73187DD4] (AR v2)
Track 10 cannot be verified as accurate (confidence 38) [5E2A38F5], AccurateRip returned [AB797420] (AR v2)
Track 11 cannot be verified as accurate (confidence 39) [C4A6B576], AccurateRip returned [226AB601] (AR v2)
Track 12 cannot be verified as accurate (confidence 39) [0B641C2A], AccurateRip returned [4B0F5741] (AR v2)
Track 13 cannot be verified as accurate (confidence 39) [1E34473C], AccurateRip returned [6DE5EC2B] (AR v2)
Track 14 cannot be verified as accurate (confidence 39) [0B1716BB], AccurateRip returned [ED953D17] (AR v2)
Track 15 cannot be verified as accurate (confidence 38) [D8EFCFD7], AccurateRip returned [20E5791E] (AR v2)
Track 16 cannot be verified as accurate (confidence 39) [6BF161F5], AccurateRip returned [71636196] (AR v2)
Track 17 cannot be verified as accurate (confidence 39) [C95EC73D], AccurateRip returned [00589E8C] (AR v2)
Track 18 cannot be verified as accurate (confidence 38) [9F895A23], AccurateRip returned [54241989] (AR v2)

No tracks could be verified as accurate
You may have a different pressing from the one(s) in the database

End of status report

–– CUETools DB Plugin V2.1.6

[CTDB TOCID: Pml0TTcjgraRQs5ajwads1C1PTQ-] found
Submit result: Pml0TTcjgraRQs5ajwads1C1PTQ- has been confirmed
Track | CTDB Status
1 | (45/45) Accurately ripped
2 | (45/45) Accurately ripped
3 | (44/45) Accurately ripped
4 | (45/45) Accurately ripped
5 | (45/45) Accurately ripped
6 | (45/45) Accurately ripped
7 | (45/45) Accurately ripped
8 | (45/45) Accurately ripped
9 | (45/45) Accurately ripped
10 | (45/45) Accurately ripped
11 | (45/45) Accurately ripped
12 | (45/45) Accurately ripped
13 | (45/45) Accurately ripped
14 | (45/45) Accurately ripped
15 | (45/45) Accurately ripped
16 | (44/45) Accurately ripped
17 | (44/45) Accurately ripped
18 | (45/45) Accurately ripped


==== Log checksum 91F8CC88A967E026FD363DA1036E93762EBEB89A17429EF6442A7BD460895398 ====